请选择 进入手机版 | 继续访问电脑版
本站Q群713428235【盘盘多】已满,请新会员加原盘天堂新官方QQ群709708625【好多盘】,验证信息填写您在论坛的会员名,不填会员名的无法入群哈,进群后修改您的群名片名字为您在论坛的会员名,请务必修改,否则群成员多了不知道您是哪个会员。

原盘天堂

 找回密码
 立即注册
京东商城当当华为商城名牌时尚折扣网,一个新型的网上购物平台,我们每周为您精选3~4个国际知名品牌,商品折扣低至2折限时限量售卖,商品囊括时装、护肤品、箱包、皮具、配饰、香水等等,琳琅满目。亿格瑞A10硬盘播放器 苏宁易购
查看: 26|回复: 1

4k蓝光原盘bdmv 宝贝老板2 英语原版 the.boss.baby.family.business.2021.2160p.bluray.hevc.truehd.7.1.atmos[52.71 GB]

[复制链接]

6260

主题

7000

帖子

133万

积分

管理员

Rank: 18Rank: 18Rank: 18Rank: 18Rank: 18

积分
1337486
发表于 前天 08:25 | 显示全部楼层 |阅读模式









◎译  名 宝贝老板2/宝贝老板:家大业大(台)/宝贝老板2:家族企业/波士BB 2世祖(港)
◎片  名 The Boss Baby: Family Business
◎年  代 2021
◎产  地 美国
◎类  别 喜剧/动画
◎语  言 英语
◎上映日期 2021-07-02(美国/美国网络)
◎IMDb评分  5.9/10 from 10696 users
◎IMDb链接  https://www.imdb.com/title/tt6932874/
◎豆瓣评分 6.7/10 from 5845 users
◎豆瓣链接 https://douban.com/subject/27056396/
◎片  长 107分钟
◎导  演 汤姆·麦格拉思 Tom McGrath
◎编  剧 玛拉·弗雷齐 Marla Frazee / 迈克尔·麦库勒斯 Michael McCullers
◎主  演 亚历克·鲍德温 Alec Baldwin
       詹姆斯·麦斯登 James Marsden
       艾米·塞德丽丝 Amy Sedaris
       阿丽亚娜·格林布拉特 Ariana Greenblatt
       杰夫·高布伦 Jeff Goldblum
       伊娃·朗格利亚 Eva Longoria
       詹姆斯·麦格拉思 James McGrath
       吉米·坎摩尔 Jimmy Kimmel
       丽莎·库卓 Lisa Kudrow
       拉斐尔·亚历杭德罗 Raphael Alejandro
       塞雷妮蒂·瑞恩·布朗 Serenity Reign Brown
       大卫·索伦 David Soren
       詹姆斯·雷恩 James Ryan
       戴维·P·史密斯 David P. Smith
       汤姆·麦格拉思 Tom McGrath
       沃尔特·道恩 Walt Dohrn
       阿普里尔·劳伦斯 April Lawrence
       迈尔斯·克里斯托弗·巴克什 Miles Christopher Bakshi
       琳娜·泽格 Lynnanne Zager

◎标  签 动画 | 喜剧 | 美国 | 搞笑 | 小宝宝 | 兄弟 | 萌 | 卖萌

◎简  介

  
  设定在首部多年之后,邓普顿兄弟蒂姆和泰德长大成人,两人关系也逐渐疏远。蒂姆已婚已育,泰德是对冲基金的首席执行官,两人将因为一个有着先进方式和积极进取态度的新任“宝贝老板”重新联系在一起,激发出新的家族企业。
  
  蒂姆和有“超级妈妈”之称的妻子卡罗尔及异常聪慧的7岁女儿塔比莎、刚出生超级可爱的婴儿蒂娜住在郊区,塔比莎是一所有威望的教育机构的尖子生,将叔叔泰德视为偶像,想成为他那样的人,但蒂姆担心她太过用功,导致无法过一个正常的童年。当蒂娜作为宝贝集团最高机密特工的真实身份曝光,目的是为了揭开塔比莎学校及其神秘创始人阿姆斯特朗博士背后的黑暗秘密时,邓普顿兄弟将以一种意想不到的方式重聚,两人重新审视家庭的意义,明白什么才是最重要的。
  


DISC INFO:

Disc Title:     The.Boss.Baby.Family.Business.2021.2160p.BluRay.HEVC.TrueHD.7.1.Atmos-MT
Disc Size:      56,599,630,370 bytes
Protection:     AACS2
Extras:         Ultra HD, BD-Java
BDInfo:         0.7.5.9 (compatible layout created by DVDFab 12.0.4.6)

PLAYLIST REPORT:

Name:                   00040.MPLS  
Length:                 1:47:13.426 (h:m:s.ms)
Size:                   44,805,058,560 bytes
Total Bitrate:          55.72 Mbps

(*) Indicates included stream hidden by this playlist.

VIDEO:

Codec                   Bitrate             Description     
-----                   -------             -----------     
MPEG-H HEVC Video       37533 kbps          2160p / 23.976 fps / 16:9 / Main 10 @ Level 5.1 @ High / 4:2:0 / 10 bits / 1000nits / HDR10 / BT.2020
* MPEG-H HEVC Video     9279 kbps (19.82%)  1080p / 23.976 fps / 16:9 / Main 10 @ Level 5.1 @ High / 4:2:0 / 10 bits / 1000nits / Dolby Vision FEL / BT.2020

AUDIO:

Codec                           Language        Bitrate         Description     
-----                           --------        -------         -----------     
Dolby TrueHD/Atmos Audio        English         3648 kbps       7.1+11 objects / 48 kHz / 3200 kbps / 16-bit (AC3 Core: 5.1 / 48 kHz / 448 kbps)
Dolby Digital Plus Audio        Spanish         768 kbps        7.1 / 48 kHz / 768 kbps (AC3 Core: 5.1 / 48 kHz / 448 kbps ( Core: 5.1 / 48 kHz / 448 kbps))
Dolby Digital Audio             French          640 kbps        5.1 / 48 kHz / 640 kbps
Dolby Digital Audio             English         192 kbps        2.0 / 48 kHz / 192 kbps

SUBTITLES:

Codec                           Language        Bitrate         Description     
-----                           --------        -------         -----------     
Presentation Graphics           English         64.684 kbps                     
Presentation Graphics           Spanish         50.751 kbps                     
Presentation Graphics           French          48.271 kbps                     
Presentation Graphics           Spanish         1.418 kbps                     
Presentation Graphics           French          0.493 kbps     


Video
ID : 1
ID in the original source medium : 4113 (0x1011)
Format : HEVC
Format/Info : High Efficiency Video Coding
Format profile : Main [email protected]@High
HDR format : Dolby Vision, Version 1.0, dvhe.07.06, BL+EL+RPU, Blu-ray compatible / SMPTE ST 2086, HDR10 compatible
Codec ID : V_MPEGH/ISO/HEVC
Duration : 1 h 47 min
Bit rate : 46.8 Mb/s
Width : 3 840 pixels
Height : 2 160 pixels
Display aspect ratio : 16:9
Frame rate mode : Constant
Frame rate : 23.976 (24000/1001) FPS
Color space : YUV
Chroma subsampling : 4:2:0 (Type 2)
Bit depth : 10 bits
Bits/(Pixel*Frame) : 0.235
Stream size : 35.1 GiB (82%)
Language : English
Default : No
Forced : No
Color range : Limited
Color primaries : BT.2020
Transfer characteristics : PQ
Matrix coefficients : BT.2020 non-constant
Mastering display color primaries : Display P3
Mastering display luminance : min: 0.0010 cd/m2, max: 1000 cd/m2
Maximum Content Light Level : 1000 cd/m2
Maximum Frame-Average Light Level : 1000 cd/m2
Original source medium : Blu-ray

Audio #1
ID : 2
ID in the original source medium : 4352 (0x1100)
Format : MLP FBA 16-ch
Format/Info : Meridian Lossless Packing FBA with 16-channel presentation
Commercial name : Dolby TrueHD with Dolby Atmos
Codec ID : A_TRUEHD
Duration : 1 h 47 min
Bit rate mode : Variable
Bit rate : 3 200 kb/s
Maximum bit rate : 5 106 kb/s
Channel(s) : 8 channels
Channel layout : L R C LFE Ls Rs Lb Rb
Sampling rate : 48.0 kHz
Frame rate : 1 200.000 FPS (40 SPF)
Bit depth : 24 bits
Compression mode : Lossless
Stream size : 2.40 GiB (6%)
Title : TrueHD 7.1 Atmos
Language : English
Default : Yes
Forced : No
Original source medium : Blu-ray
Number of dynamic objects : 11
Bed channel count : 1 channel
Bed channel configuration : LFE

Audio #2
ID : 3
Format : DTS XLL
Format/Info : Digital Theater Systems
Commercial name : DTS-HD Master Audio
Codec ID : A_DTS
Duration : 1 h 47 min
Bit rate mode : Variable
Bit rate : 4 574 kb/s
Channel(s) : 8 channels
Channel layout : C L R LFE Lb Rb Lss Rss
Sampling rate : 48.0 kHz
Frame rate : 93.750 FPS (512 SPF)
Bit depth : 24 bits
Compression mode : Lossless
Stream size : 3.43 GiB (8%)
Title : DTS-HD MA 7.1
Language : English
Default : No
Forced : No

Audio #3
ID : 4
ID in the original source medium : 4352 (0x1100)
Format : AC-3
Format/Info : Audio Coding 3
Commercial name : Dolby Digital
Codec ID : A_AC3
Duration : 1 h 47 min
Bit rate mode : Constant
Bit rate : 448 kb/s
Channel(s) : 6 channels
Channel layout : L R C LFE Ls Rs
Sampling rate : 48.0 kHz
Frame rate : 31.250 FPS (1536 SPF)
Compression mode : Lossy
Stream size : 344 MiB (1%)
Title : DD 5.1
Language : English
Service kind : Complete Main
Default : No
Forced : No
Original source medium : Blu-ray

Audio #4
ID : 5
Format : E-AC-3
Format/Info : Enhanced AC-3
Commercial name : Dolby Digital Plus
Format profile : Blu-ray Disc
Codec ID : A_EAC3
Duration : 1 h 47 min
Bit rate mode : Constant
Bit rate : 768 kb/s
Channel(s) : 8 channels
Channel layout : L R C LFE Ls Rs Lb Rb
Sampling rate : 48.0 kHz
Frame rate : 31.250 FPS (1536 SPF)
Compression mode : Lossy
Stream size : 589 MiB (1%)
Title : DDP 7.1
Language : Spanish
Service kind : Complete Main
Default : No
Forced : No

Audio #5
ID : 6
ID in the original source medium : 4353 (0x1101)
Format : AC-3
Format/Info : Audio Coding 3
Commercial name : Dolby Digital
Codec ID : A_AC3
Duration : 1 h 47 min
Bit rate mode : Constant
Bit rate : 448 kb/s
Channel(s) : 6 channels
Channel layout : L R C LFE Ls Rs
Sampling rate : 48.0 kHz
Frame rate : 31.250 FPS (1536 SPF)
Compression mode : Lossy
Stream size : 344 MiB (1%)
Title : DD 5.1
Language : Spanish
Service kind : Complete Main
Default : No
Forced : No
Original source medium : Blu-ray

Audio #6
ID : 7
ID in the original source medium : 4354 (0x1102)
Format : AC-3
Format/Info : Audio Coding 3
Commercial name : Dolby Digital
Codec ID : A_AC3
Duration : 1 h 47 min
Bit rate mode : Constant
Bit rate : 640 kb/s
Channel(s) : 6 channels
Channel layout : L R C LFE Ls Rs
Sampling rate : 48.0 kHz
Frame rate : 31.250 FPS (1536 SPF)
Compression mode : Lossy
Stream size : 491 MiB (1%)
Title : DD 5.1
Language : French
Service kind : Complete Main
Default : No
Forced : No
Original source medium : Blu-ray

Audio #7
ID : 8
ID in the original source medium : 4355 (0x1103)
Format : AC-3
Format/Info : Audio Coding 3
Commercial name : Dolby Digital
Codec ID : A_AC3
Duration : 1 h 47 min
Bit rate mode : Constant
Bit rate : 192 kb/s
Channel(s) : 2 channels
Channel layout : L R
Sampling rate : 48.0 kHz
Frame rate : 31.250 FPS (1536 SPF)
Compression mode : Lossy
Stream size : 147 MiB (0%)
Title : DD 2.0
Language : English
Service kind : Complete Main
Default : No
Forced : No
Original source medium : Blu-ray

Text #1
ID : 9
Format : UTF-8
Codec ID : S_TEXT/UTF8
Codec ID/Info : UTF-8 Plain Text
Duration : 1 h 40 min
Bit rate : 82 b/s
Count of elements : 2173
Stream size : 61.1 KiB (0%)
Title : SRT
Language : English
Default : Yes
Forced : No

Text #2
ID : 10
ID in the original source medium : 4768 (0x12A0)
Format : PGS
Muxing mode : zlib
Codec ID : S_HDMV/PGS
Codec ID/Info : Picture based subtitle format used on BDs/HD-DVDs
Duration : 1 h 40 min
Bit rate : 68.8 kb/s
Count of elements : 4920
Stream size : 49.6 MiB (0%)
Language : English
Default : No
Forced : No
Original source medium : Blu-ray

Text #3
ID : 11
ID in the original source medium : 4769 (0x12A1)
Format : PGS
Muxing mode : zlib
Codec ID : S_HDMV/PGS
Codec ID/Info : Picture based subtitle format used on BDs/HD-DVDs
Duration : 1 h 46 min
Bit rate : 51.2 kb/s
Count of elements : 4186
Stream size : 38.9 MiB (0%)
Language : Spanish
Default : No
Forced : No
Original source medium : Blu-ray

Text #4
ID : 12
ID in the original source medium : 4770 (0x12A2)
Format : PGS
Muxing mode : zlib
Codec ID : S_HDMV/PGS
Codec ID/Info : Picture based subtitle format used on BDs/HD-DVDs
Duration : 1 h 46 min
Bit rate : 48.7 kb/s
Count of elements : 4170
Stream size : 37.0 MiB (0%)
Language : French
Default : No
Forced : No
Original source medium : Blu-ray

Text #5
ID : 13
ID in the original source medium : 4771 (0x12A3)
Format : PGS
Muxing mode : zlib
Codec ID : S_HDMV/PGS
Codec ID/Info : Picture based subtitle format used on BDs/HD-DVDs
Duration : 1 h 43 min
Bit rate : 1 467 b/s
Count of elements : 78
Stream size : 1.09 MiB (0%)
Title : FORCED
Language : Spanish
Default : No
Forced : No
Original source medium : Blu-ray

Text #6
ID : 14
ID in the original source medium : 4772 (0x12A4)
Format : PGS
Muxing mode : zlib
Codec ID : S_HDMV/PGS
Codec ID/Info : Picture based subtitle format used on BDs/HD-DVDs
Duration : 1 h 46 min
Bit rate : 497 b/s
Count of elements : 42
Stream size : 387 KiB (0%)
Title : FORCED
Language : French
Default : No
Forced : No
Original source medium : Blu-ray

Menu
00:00:00.000 : Chapter 01
00:04:18.424 : Chapter 02
00:09:50.673 : Chapter 03
00:13:43.364 : Chapter 04
00:19:51.648 : Chapter 05
00:24:54.951 : Chapter 06
00:29:12.125 : Chapter 07
00:34:22.018 : Chapter 08
00:38:09.203 : Chapter 09
00:44:36.423 : Chapter 10
00:51:25.123 : Chapter 11
01:00:47.977 : Chapter 12
01:04:54.473 : Chapter 13
01:08:07.958 : Chapter 14
01:13:27.111 : Chapter 15
01:18:38.171 : Chapter 16
01:22:44.250 : Chapter 17
01:27:13.353 : Chapter 18
01:35:06.826 : Chapter 19
01:38:13.721 : Chapter 20

本帖子中包含更多资源

您需要 登录 才可以下载或查看,没有帐号?立即注册

x
回复

使用道具 举报

0

主题

584

帖子

2990

积分

金牌会员

Rank: 6Rank: 6

积分
2990
发表于 前天 19:19 | 显示全部楼层
谢谢楼主分享
回复

使用道具 举报

您需要登录后才可以回帖 登录 | 立即注册

本版积分规则

QQ|Archiver|手机版|小黑屋|原盘天堂 好多盘 点击这里给我发消息

GMT+8, 2021-9-17 00:42 , Processed in 0.054731 second(s), 25 queries .

Powered by Discuz! X3.4

Copyright © 2001-2020, Tencent Cloud.

快速回复 返回顶部 返回列表