请选择 进入手机版 | 继续访问电脑版
本站Q群713428235【盘盘多】已满,请新会员加原盘天堂新官方QQ群709708625【好多盘】,验证信息填写您在论坛的会员名,不填会员名的无法入群哈,进群后修改您的群名片名字为您在论坛的会员名,请务必修改,否则群成员多了不知道您是哪个会员。

原盘天堂

 找回密码
 立即注册
京东商城当当华为商城名牌时尚折扣网,一个新型的网上购物平台,我们每周为您精选3~4个国际知名品牌,商品折扣低至2折限时限量售卖,商品囊括时装、护肤品、箱包、皮具、配饰、香水等等,琳琅满目。亿格瑞A10硬盘播放器 苏宁易购
查看: 37|回复: 4

2d蓝光原盘bdmv 跳跃的原因 英语原版 the.reason.i.jump.2020.1080p.bluray.avc.truehd.7.1.atmos[42.46 GB]

[复制链接]

6260

主题

7000

帖子

133万

积分

管理员

Rank: 18Rank: 18Rank: 18Rank: 18Rank: 18

积分
1337486
发表于 4 天前 | 显示全部楼层 |阅读模式






◎译  名 跳跃的原因
◎片  名 The Reason I Jump
◎年  代 2020
◎产  地 美国/英国
◎类  别 纪录片
◎语  言 英语
◎上映日期 2020-01-25(圣丹斯电影节)
◎IMDb评分  7.4/10 from 535 users
◎IMDb链接  https://www.imdb.com/title/tt9098928/
◎豆瓣评分 /10 from 0 users
◎豆瓣链接 https://douban.com/subject/34909064/
◎片  长 82分钟
◎导  演 Jerry Rothwell Jerry Rothwell
◎编  剧 Naoki Higashida  Naoki Higashida

◎标  签 纪录片 | 美国 | 英国 | 2020 | 自闭症 | PA-SundanceB世界纪录片 | 英国电影 | 电影

◎简  介

  
  Based on the book by Naoki Higashida this immersive film explores the experiences of nonspeaking autistic people around the world.
  这部沉浸式的电影以平田直一的书为基础,探索了世界各地非说话性自闭症患者的经历。

◎获奖情况

  第36届圣丹斯电影节  (2020)
  评审团大奖世界电影单元纪录片(提名) JerryRothwell
  观众奖世界电影单元纪录片
  
  第68届美国音效剪辑协会奖  (2021)
  金卷轴奖最佳纪录片音效剪辑
  
  第23届英国独立电影奖  (2020)
  最佳纪录片
  最佳音乐(提名)
  最佳音效

DISC INFO:

Disc Title:     The.Reason.I.Jump.2020.COMPLETE.BLURAY-INCUBO
Disc Size:      45,590,043,242 bytes
Protection:     AACS
BDInfo:         0.7.5.9 (compatible layout created by DVDFab 12.0.4.6)

PLAYLIST REPORT:

Name:                   00000.MPLS  
Length:                 1:22:06.166 (h:m:s.ms)
Size:                   26,363,744,256 bytes
Total Bitrate:          42.81 Mbps

VIDEO:

Codec                   Bitrate             Description     
-----                   -------             -----------     
MPEG-4 AVC Video        27990 kbps          1080p / 24 fps / 16:9 / High Profile 4.1

AUDIO:

Codec                           Language        Bitrate         Description     
-----                           --------        -------         -----------     
Dolby TrueHD/Atmos Audio        English         3742 kbps       7.1+11 objects / 48 kHz / 3102 kbps / 16-bit (AC3 Core: 5.1-EX / 48 kHz / 640 kbps)
DTS-HD Master Audio             English         3396 kbps       5.1 / 48 kHz / 3396 kbps / 24-bit (DTS Core: 5.1 / 48 kHz / 768 kbps / 24-bit)
LPCM Audio                      English         2304 kbps       2.0 / 48 kHz / 2304 kbps / 24-bit
LPCM Audio                      English         2304 kbps       2.0 / 48 kHz / 2304 kbps / 24-bit

SUBTITLES:

Codec                           Language        Bitrate         Description     
-----                           --------        -------         -----------     
Presentation Graphics           English         35.546 kbps           


Video
ID : 1
ID in the original source medium : 4113 (0x1011)
Format : AVC
Format/Info : Advanced Video Codec
Format profile : [email protected]
Format settings : CABAC / 4 Ref Frames
Format settings, CABAC : Yes
Format settings, Reference frames : 4 frames
Codec ID : V_MPEG4/ISO/AVC
Duration : 1 h 22 min
Bit rate mode : Variable
Bit rate : 27.5 Mb/s
Maximum bit rate : 31.0 Mb/s
Width : 1 920 pixels
Height : 1 080 pixels
Display aspect ratio : 16:9
Frame rate mode : Constant
Frame rate : 24.000 FPS
Color space : YUV
Chroma subsampling : 4:2:0
Bit depth : 8 bits
Scan type : Progressive
Bits/(Pixel*Frame) : 0.554
Stream size : 15.8 GiB (68%)
Language : English
Default : No
Forced : No
Original source medium : Blu-ray

Audio #1
ID : 2
ID in the original source medium : 4352 (0x1100)
Format : MLP FBA 16-ch
Format/Info : Meridian Lossless Packing FBA with 16-channel presentation
Commercial name : Dolby TrueHD with Dolby Atmos
Codec ID : A_TRUEHD
Duration : 1 h 22 min
Bit rate mode : Variable
Bit rate : 3 102 kb/s
Maximum bit rate : 5 220 kb/s
Channel(s) : 8 channels
Channel layout : L R C LFE Ls Rs Lb Rb
Sampling rate : 48.0 kHz
Frame rate : 1 200.000 FPS (40 SPF)
Bit depth : 24 bits
Compression mode : Lossless
Stream size : 1.78 GiB (8%)
Title : TrueHD 7.1 Atmos
Language : English
Default : Yes
Forced : No
Original source medium : Blu-ray
Number of dynamic objects : 11
Bed channel count : 1 channel
Bed channel configuration : LFE

Audio #2
ID : 3
Format : DTS XLL
Format/Info : Digital Theater Systems
Commercial name : DTS-HD Master Audio
Codec ID : A_DTS
Duration : 1 h 22 min
Bit rate mode : Variable
Bit rate : 4 302 kb/s
Channel(s) : 8 channels
Channel layout : C L R LFE Lb Rb Lss Rss
Sampling rate : 48.0 kHz
Frame rate : 93.750 FPS (512 SPF)
Bit depth : 24 bits
Compression mode : Lossless
Stream size : 2.47 GiB (11%)
Title : DTS-HD MA 7.1
Language : English
Default : No
Forced : No

Audio #3
ID : 4
ID in the original source medium : 4352 (0x1100)
Format : AC-3
Format/Info : Audio Coding 3
Commercial name : Dolby Digital
Format settings : Dolby Surround EX
Codec ID : A_AC3
Duration : 1 h 22 min
Bit rate mode : Constant
Bit rate : 640 kb/s
Channel(s) : 6 channels
Channel layout : L R C LFE Ls Rs
Sampling rate : 48.0 kHz
Frame rate : 31.250 FPS (1536 SPF)
Compression mode : Lossy
Stream size : 376 MiB (2%)
Title : DD 5.1
Language : English
Service kind : Complete Main
Default : No
Forced : No
Original source medium : Blu-ray

Audio #4
ID : 5
ID in the original source medium : 4354 (0x1102)
Format : PCM
Format settings : Little / Signed
Codec ID : A_PCM/INT/LIT
Duration : 1 h 22 min
Bit rate mode : Constant
Bit rate : 2 304 kb/s
Channel(s) : 2 channels
Sampling rate : 48.0 kHz
Frame rate : 30.000 FPS (1600 SPF)
Bit depth : 24 bits
Stream size : 1.32 GiB (6%)
Title : LPCM 2.0
Language : English
Default : No
Forced : No
Original source medium : Blu-ray

Audio #5
ID : 6
ID in the original source medium : 4355 (0x1103)
Format : PCM
Format settings : Little / Signed
Codec ID : A_PCM/INT/LIT
Duration : 1 h 22 min
Bit rate mode : Constant
Bit rate : 2 304 kb/s
Channel(s) : 2 channels
Sampling rate : 48.0 kHz
Frame rate : 30.000 FPS (1600 SPF)
Bit depth : 24 bits
Stream size : 1.32 GiB (6%)
Title : LPCM 2.0
Language : English
Default : No
Forced : No
Original source medium : Blu-ray

Text #1
ID : 7
Format : UTF-8
Codec ID : S_TEXT/UTF8
Codec ID/Info : UTF-8 Plain Text
Duration : 1 h 20 min
Bit rate : 45 b/s
Count of elements : 821
Stream size : 26.6 KiB (0%)
Title : SRT
Language : English
Default : Yes
Forced : No

Text #2
ID : 8
ID in the original source medium : 4608 (0x1200)
Format : PGS
Muxing mode : zlib
Codec ID : S_HDMV/PGS
Codec ID/Info : Picture based subtitle format used on BDs/HD-DVDs
Duration : 1 h 21 min
Bit rate : 35.9 kb/s
Count of elements : 2100
Stream size : 20.9 MiB (0%)
Language : English
Default : No
Forced : No
Original source medium : Blu-ray

Menu
00:00:00.000 : Chapter 01
00:07:21.208 : Chapter 02
00:18:20.208 : Chapter 03
00:27:09.000 : Chapter 04
00:37:41.208 : Chapter 05
00:52:30.958 : Chapter 06
01:02:51.500 : Chapter 07
01:13:18.291 : Chapter 08

本帖子中包含更多资源

您需要 登录 才可以下载或查看,没有帐号?立即注册

x
回复

使用道具 举报

0

主题

523

帖子

3860

积分

论坛元老

Rank: 8Rank: 8

积分
3860
发表于 3 天前 | 显示全部楼层
楼主发贴辛苦了,谢谢楼主分享!
回复

使用道具 举报

0

主题

899

帖子

4230

积分

论坛元老

Rank: 8Rank: 8

积分
4230
发表于 3 天前 | 显示全部楼层
感謝無私分享
回复

使用道具 举报

0

主题

899

帖子

4230

积分

论坛元老

Rank: 8Rank: 8

积分
4230
发表于 3 天前 | 显示全部楼层
感謝無私分享
回复

使用道具 举报

0

主题

143

帖子

327

积分

中级会员

Rank: 3Rank: 3

积分
327
发表于 前天 22:14 | 显示全部楼层
感謝無私分享
回复

使用道具 举报

您需要登录后才可以回帖 登录 | 立即注册

本版积分规则

QQ|Archiver|手机版|小黑屋|原盘天堂 好多盘 点击这里给我发消息

GMT+8, 2021-9-17 00:36 , Processed in 0.057548 second(s), 25 queries .

Powered by Discuz! X3.4

Copyright © 2001-2020, Tencent Cloud.

快速回复 返回顶部 返回列表