请选择 进入手机版 | 继续访问电脑版
本站Q群713428235【盘盘多】已满,请新会员加原盘天堂新官方QQ群709708625【好多盘】,验证信息填写您在论坛的会员名,不填会员名的无法入群哈,进群后修改您的群名片名字为您在论坛的会员名,请务必修改,否则群成员多了不知道您是哪个会员。

原盘天堂

 找回密码
 立即注册
京东商城当当华为商城名牌时尚折扣网,一个新型的网上购物平台,我们每周为您精选3~4个国际知名品牌,商品折扣低至2折限时限量售卖,商品囊括时装、护肤品、箱包、皮具、配饰、香水等等,琳琅满目。亿格瑞A10硬盘播放器 苏宁易购
查看: 27|回复: 1

2d蓝光原盘bdmv 爱的后事 英语原版 after.love.2020.1080p.bluray.avc.dts-hd.ma.5.1[43.98 GB]

[复制链接]

6260

主题

7000

帖子

133万

积分

管理员

Rank: 18Rank: 18Rank: 18Rank: 18Rank: 18

积分
1337486
发表于 3 天前 | 显示全部楼层 |阅读模式






◎译  名 爱的后事/當愛離開時(台)
◎片  名 After Love
◎年  代 2020
◎产  地 英国
◎类  别 剧情
◎语  言 英语/法语/阿拉伯语/乌尔都语
◎上映日期 2020-09-11(多伦多电影节)/2020-10-15(伦敦电影节)/2021-06-04(英国)
◎IMDb评分  7.3/10 from 534 users
◎IMDb链接  https://www.imdb.com/title/tt10692788/
◎豆瓣评分 6.9/10 from 177 users
◎豆瓣链接 https://douban.com/subject/34969514/
◎片  长 89分钟
◎导  演 阿利姆·汗 Aleem Khan
◎编  剧 阿利姆·汗 Aleem Khan
◎主  演 乔安娜·斯坎伦 Joanna Scanlan
       娜塔莉·理查德 Nathalie Richard
       纳赛尔·米马齐亚 Nasser Memarzia

◎标  签 英国 | 家庭 | 剧情 | 2020 | 英國 | 法國 | 愛情 | 親情

◎简  介

  
  玛莉与丈夫是住在英国的传统穆斯林,恩爱相依四十载,毫无预警之下,丈夫突然离世。曾经他们拥有一个孩子,有过一家三口的日子,如今只剩她孤身一人。伤痛尚未消失,玛莉竟意外发现了陌生女子的照片及暧昧对话纪录。循线前往一海之隔、相距三十四公里远的法国加莱,在那里,她找到了另一个与丈夫同居多年的法国女子,而对方不仅不认得玛莉,甚至不晓得她们共有的男人已不在人世。阴错阳差,玛莉成了对方的帮佣,不仅踏进了对方的小屋,也进入了丈夫的秘密生活。
  

◎获奖情况

  第33届东京国际电影节  (2020)
  东京首映2020(提名) 阿利姆·汗

DISC INFO:

Disc Title:     After.Love.2020.COMPLETE.BLURAY-INCUBO
Disc Size:      47,219,131,330 bytes
Protection:     AACS
BDInfo:         0.7.5.9 (compatible layout created by DVDFab 12.0.4.6)

PLAYLIST REPORT:

Name:                   00496.MPLS  
Length:                 1:30:13.908 (h:m:s.ms)
Size:                   29,486,831,616 bytes
Total Bitrate:          43.57 Mbps

VIDEO:

Codec                   Bitrate             Description     
-----                   -------             -----------     
MPEG-4 AVC Video        33132 kbps          1080p / 23.976 fps / 16:9 / High Profile 4.1

AUDIO:

Codec                           Language        Bitrate         Description     
-----                           --------        -------         -----------     
DTS-HD Master Audio             English         3502 kbps       5.1 / 48 kHz / 3502 kbps / 24-bit (DTS Core: 5.1 / 48 kHz / 1509 kbps / 24-bit)
LPCM Audio                      English         2304 kbps       2.0 / 48 kHz / 2304 kbps / 24-bit
LPCM Audio                      English         2304 kbps       2.0 / 48 kHz / 2304 kbps / 24-bit

SUBTITLES:

Codec                           Language        Bitrate         Description     
-----                           --------        -------         -----------     
Presentation Graphics           English         3.681 kbps                     
Presentation Graphics           English         18.65 kbps            


Video
ID : 1
ID in the original source medium : 4113 (0x1011)
Format : AVC
Format/Info : Advanced Video Codec
Format profile : [email protected]
Format settings : CABAC / 3 Ref Frames
Format settings, CABAC : Yes
Format settings, Reference frames : 3 frames
Codec ID : V_MPEG4/ISO/AVC
Duration : 1 h 30 min
Bit rate mode : Variable
Bit rate : 33.1 Mb/s
Nominal bit rate : 35.0 Mb/s
Maximum bit rate : 35.0 Mb/s
Width : 1 920 pixels
Height : 1 080 pixels
Display aspect ratio : 16:9
Frame rate mode : Constant
Frame rate : 23.976 (24000/1001) FPS
Color space : YUV
Chroma subsampling : 4:2:0
Bit depth : 8 bits
Scan type : Progressive
Bits/(Pixel*Frame) : 0.667
Stream size : 20.9 GiB (80%)
Writing library : x264 core 157 r2969 d4099dd
Encoding settings : cabac=1 / ref=4 / deblock=1:-1:-1 / analyse=0x3:0x133 / me=umh / subme=10 / psy=1 / psy_rd=1.00:0.15 / mixed_ref=1 / me_range=24 / chroma_me=1 / trellis=2 / 8x8dct=1 / cqm=0 / deadzone=21,11 / fast_pskip=1 / chroma_qp_offset=-3 / threads=18 / lookahead_threads=1 / sliced_threads=0 / slices=4 / nr=0 / decimate=1 / interlaced=0 / bluray_compat=1 / constrained_intra=0 / bframes=3 / b_pyramid=1 / b_adapt=2 / b_bias=0 / direct=3 / weightb=1 / open_gop=1 / weightp=1 / keyint=24 / keyint_min=1 / scenecut=40 / intra_refresh=0 / rc_lookahead=24 / rc=2pass / mbtree=1 / bitrate=35000 / ratetol=0.1 / qcomp=0.90 / qpmin=0 / qpmax=69 / qpstep=4 / cplxblur=20.0 / qblur=0.5 / vbv_maxrate=35000 / vbv_bufsize=30000 / nal_hrd=vbr / filler=0 / ip_ratio=1.40 / aq=1:1.00
Language : English
Default : No
Forced : No
Color range : Limited
Color primaries : BT.709
Transfer characteristics : BT.709
Matrix coefficients : BT.709
Original source medium : Blu-ray

Audio #1
ID : 2
ID in the original source medium : 4352 (0x1100)
Format : DTS XLL
Format/Info : Digital Theater Systems
Commercial name : DTS-HD Master Audio
Codec ID : A_DTS
Duration : 1 h 31 min
Bit rate mode : Variable
Bit rate : 3 502 kb/s
Channel(s) : 6 channels
Channel layout : C L R Ls Rs LFE
Sampling rate : 48.0 kHz
Frame rate : 93.750 FPS (512 SPF)
Bit depth : 24 bits
Compression mode : Lossless
Stream size : 2.23 GiB (9%)
Title : DTS-HD MA 5.1
Language : English
Default : Yes
Forced : No
Original source medium : Blu-ray

Audio #2
ID : 3
ID in the original source medium : 4353 (0x1101)
Format : PCM
Format settings : Little / Signed
Codec ID : A_PCM/INT/LIT
Duration : 1 h 31 min
Bit rate mode : Constant
Bit rate : 2 304 kb/s
Channel(s) : 2 channels
Sampling rate : 48.0 kHz
Frame rate : 30.000 FPS (1600 SPF)
Bit depth : 24 bits
Stream size : 1.47 GiB (6%)
Title : LPCM 2.0
Language : English
Default : No
Forced : No
Original source medium : Blu-ray

Audio #3
ID : 4
ID in the original source medium : 4354 (0x1102)
Format : PCM
Format settings : Little / Signed
Codec ID : A_PCM/INT/LIT
Duration : 1 h 31 min
Bit rate mode : Constant
Bit rate : 2 304 kb/s
Channel(s) : 2 channels
Sampling rate : 48.0 kHz
Frame rate : 30.000 FPS (1600 SPF)
Bit depth : 24 bits
Stream size : 1.47 GiB (6%)
Title : LPCM 2.0
Language : English
Default : No
Forced : No
Original source medium : Blu-ray

Text #1
ID : 5
Format : UTF-8
Codec ID : S_TEXT/UTF8
Codec ID/Info : UTF-8 Plain Text
Duration : 1 h 19 min
Bit rate : 7 b/s
Count of elements : 181
Stream size : 4.29 KiB (0%)
Title : FORCED
Language : English
Default : Yes
Forced : No

Text #2
ID : 6
Format : UTF-8
Codec ID : S_TEXT/UTF8
Codec ID/Info : UTF-8 Plain Text
Duration : 1 h 22 min
Bit rate : 24 b/s
Count of elements : 583
Stream size : 15.1 KiB (0%)
Language : English
Default : No
Forced : No

Text #3
ID : 7
ID in the original source medium : 4608 (0x1200)
Format : PGS
Muxing mode : zlib
Codec ID : S_HDMV/PGS
Codec ID/Info : Picture based subtitle format used on BDs/HD-DVDs
Duration : 1 h 19 min
Bit rate : 4 187 b/s
Count of elements : 362
Stream size : 2.38 MiB (0%)
Language : English
Default : No
Forced : No
Original source medium : Blu-ray

Text #4
ID : 8
ID in the original source medium : 4609 (0x1201)
Format : PGS
Muxing mode : zlib
Codec ID : S_HDMV/PGS
Codec ID/Info : Picture based subtitle format used on BDs/HD-DVDs
Duration : 1 h 24 min
Bit rate : 19.9 kb/s
Count of elements : 1592
Stream size : 12.0 MiB (0%)
Language : English
Default : No
Forced : No
Original source medium : Blu-ray

Menu
00:00:00.000 : Chapter 00
00:07:23.192 : Chapter 01
00:14:38.711 : Chapter 02
00:19:50.772 : Chapter 03
00:28:36.923 : Chapter 04
00:36:55.546 : Chapter 05
00:44:15.486 : Chapter 06
00:53:18.862 : Chapter 07
00:59:05.416 : Chapter 08
01:06:21.185 : Chapter 09
01:12:59.083 : Chapter 10
01:23:15.865 : Chapter 11

本帖子中包含更多资源

您需要 登录 才可以下载或查看,没有帐号?立即注册

x
回复

使用道具 举报

0

主题

6

帖子

25

积分

新手上路

Rank: 1

积分
25
发表于 前天 18:50 | 显示全部楼层
谢谢楼主分享
回复

使用道具 举报

您需要登录后才可以回帖 登录 | 立即注册

本版积分规则

QQ|Archiver|手机版|小黑屋|原盘天堂 好多盘 点击这里给我发消息

GMT+8, 2021-9-16 23:37 , Processed in 0.061405 second(s), 25 queries .

Powered by Discuz! X3.4

Copyright © 2001-2020, Tencent Cloud.

快速回复 返回顶部 返回列表