请选择 进入手机版 | 继续访问电脑版
本站Q群713428235【盘盘多】已满,请新会员加原盘天堂新官方QQ群709708625【好多盘】,验证信息填写您在论坛的会员名,不填会员名的无法入群哈,进群后修改您的群名片名字为您在论坛的会员名,请务必修改,否则群成员多了不知道您是哪个会员。

原盘天堂

 找回密码
 立即注册
京东商城当当华为商城名牌时尚折扣网,一个新型的网上购物平台,我们每周为您精选3~4个国际知名品牌,商品折扣低至2折限时限量售卖,商品囊括时装、护肤品、箱包、皮具、配饰、香水等等,琳琅满目。亿格瑞A10硬盘播放器 苏宁易购
查看: 35|回复: 0

2d蓝光原盘bdmv 进化危机 英语原版 evolution.2001.1080p.bluray.avc.dts-hd.ma.5.1[40.98 GB]

[复制链接]

6260

主题

7000

帖子

133万

积分

管理员

Rank: 18Rank: 18Rank: 18Rank: 18Rank: 18

积分
1337486
发表于 3 天前 | 显示全部楼层 |阅读模式








◎译  名 进化危机/超速度进化/地球再发育(港)/进化/进化特区(台)
◎片  名 Evolution
◎年  代 2001
◎产  地 美国
◎类  别 喜剧/科幻
◎语  言 英语
◎上映日期 2001-06-08
◎IMDb评分  6.1/10 from 124660 users
◎IMDb链接  https://www.imdb.com/title/tt0251075/
◎豆瓣评分 6.8/10 from 16555 users
◎豆瓣链接 https://douban.com/subject/1297611/
◎片  长 101 分钟
◎导  演 伊万·雷特曼 Ivan Reitman
◎编  剧 唐·雅各比 Don Jakoby / 大卫·戴尔蒙德 David Diamond
◎主  演 大卫·杜楚尼 David Duchovny
       朱丽安·摩尔 Julianne Moore
       奥兰多·琼斯 Orlando Jones
       西恩·威廉·斯科特 Seann William Scott
       泰德·拉文 Ted Levine
       伊桑·苏普利 Ethan Suplee
       迈克尔·博维尔 Michael Bower
       派特·基尔贝恩 Pat Kilbane
       泰·布利尔 Ty Burrell
       丹·艾克罗伊德 Dan Aykroyd
       凯瑟琳·汤 Katharine Towne
       格里高利·伊齐恩 Gregory Itzin
       萨拉·西尔弗曼 Sarah Silverman
       理查德·莫尔 Richard Moll
       迈克尔·麦克格雷迪 Michael McGrady
       斯蒂芬·吉尔伯恩 Steven Gilborn
       韦恩·杜瓦尔 Wayne Duvall
       迈克尔·查普曼 Michael Chapman
       凯尔·加斯 Kyle Gass
       温迪·布劳恩 Wendy Braun
       Jennifer Savidge Jennifer Savidge
       杰瑞·特雷纳 Jerry Trainor
       Stephanie Hodge Stephanie Hodge
       Kristen Meadows Kristen Meadows
       米丽亚姆·福林 Miriam Flynn
       玛丽·帕特·格里森 Mary Pat Gleason
       安德鲁·鲍文 Andrew Bowen
       李·加林顿 Lee Garlington
       乔希·阿克曼 Josh Ackerman
       Kenn Michael Kenn Michael
       约翰·赵 John Cho
       阿德琳妮·史密斯 Adrienne Smith
       克里斯·维尔德 Chris Wylde
       马蒂·贝拉夫斯基 Marty Belafsky
       汤姆·戴维斯 Tom Davis
       安格洛·瓦科 Angelo Vacco
       艾琳·卡鲁菲 Erin Carufel
       Diondre Cheatam Diondre Cheatam
        Patrick Coleman Duncan
       Leslie McCasky Leslie McCasky
       汤姆·伍德鲁夫 Tom Woodruff Jr.

◎标  签 科幻 | 喜剧 | 美国 | 搞笑 | 美国电影 | 2001 | 进化 | 电影

◎简  介

  
  一颗陨石坠落到亚利桑那州的荒漠中,在它撞击形成的溶洞内,一个与世隔绝的奇异世界正飞速形成。从单细胞到多细胞,从类鸟类到灵长类,外星生物已难以想象的速度高速进化,并开始影响人类的生存。
  
  在大学任教的伊尔(David Duchovny 大卫•杜楚尼 饰)和同事兼好友哈里(Orlando Jones 奥兰多•琼斯 饰)最早发现了陨石所带来的外星生物痕迹,并意识到其高速进化背后的危险性。在隶属军方疾病控制中心的女官员艾丽森(Julianne Moore 朱丽安•摩尔 饰)的帮助下,他们偷偷搜集数据,寻找遏制外星生物入侵的办法……
  
DISC INFO:

Disc Title:     Evolution.2001.MULTi.COMPLETE.BLURAY-GMB
Disc Size:      43,995,788,238 bytes
Protection:     AACS
BDInfo:         0.7.5.9 (compatible layout created by DVDFab 12.0.4.5)

PLAYLIST REPORT:

Name:                   00004.MPLS  
Length:                 1:41:42.888 (h:m:s.ms)
Size:                   32,909,481,984 bytes
Total Bitrate:          43.14 Mbps

VIDEO:

Codec                   Bitrate             Description     
-----                   -------             -----------     
MPEG-4 AVC Video        34363 kbps          1080p / 23.976 fps / 16:9 / High Profile 4.1

AUDIO:

Codec                           Language        Bitrate         Description     
-----                           --------        -------         -----------     
DTS-HD Master Audio             German          1945 kbps       5.1 / 48 kHz / 1945 kbps / 16-bit (DTS Core: 5.1 / 48 kHz / 1509 kbps / 16-bit)
DTS-HD Master Audio             English         4147 kbps       5.1 / 48 kHz / 4147 kbps / 24-bit (DTS Core: 5.1 / 48 kHz / 1509 kbps / 24-bit)
Dolby Digital Audio             English         224 kbps        2.0 / 48 kHz / 224 kbps

SUBTITLES:

Codec                           Language        Bitrate         Description     
-----                           --------        -------         -----------     
Presentation Graphics           German          37.962 kbps                     
Presentation Graphics           English         30.772 kbps                     
Presentation Graphics           German          53.777 kbps      


Video
ID : 1
ID in the original source medium : 4113 (0x1011)
Format : AVC
Format/Info : Advanced Video Codec
Format profile : [email protected]
Format settings : CABAC / 3 Ref Frames
Format settings, CABAC : Yes
Format settings, Reference frames : 3 frames
Codec ID : V_MPEG4/ISO/AVC
Duration : 1 h 41 min
Bit rate mode : Variable
Bit rate : 34.4 Mb/s
Maximum bit rate : 35.0 Mb/s
Width : 1 920 pixels
Height : 1 080 pixels
Display aspect ratio : 16:9
Frame rate mode : Constant
Frame rate : 23.976 (24000/1001) FPS
Color space : YUV
Chroma subsampling : 4:2:0
Bit depth : 8 bits
Scan type : Progressive
Bits/(Pixel*Frame) : 0.691
Stream size : 24.4 GiB (89%)
Language : English
Default : No
Forced : No
Color range : Limited
Color primaries : BT.709
Transfer characteristics : BT.709
Matrix coefficients : BT.709
Original source medium : Blu-ray

Audio #1
ID : 2
ID in the original source medium : 4353 (0x1101)
Format : DTS XLL
Format/Info : Digital Theater Systems
Commercial name : DTS-HD Master Audio
Codec ID : A_DTS
Duration : 1 h 41 min
Bit rate mode : Variable
Bit rate : 4 147 kb/s
Channel(s) : 6 channels
Channel layout : C L R Ls Rs LFE
Sampling rate : 48.0 kHz
Frame rate : 93.750 FPS (512 SPF)
Bit depth : 24 bits
Compression mode : Lossless
Stream size : 2.95 GiB (11%)
Title : DTS-HD MA 5.1
Language : English
Default : Yes
Forced : No
Original source medium : Blu-ray

Audio #2
ID : 3
ID in the original source medium : 4354 (0x1102)
Format : AC-3
Format/Info : Audio Coding 3
Commercial name : Dolby Digital
Codec ID : A_AC3
Duration : 1 h 41 min
Bit rate mode : Constant
Bit rate : 224 kb/s
Channel(s) : 2 channels
Channel layout : L R
Sampling rate : 48.0 kHz
Frame rate : 31.250 FPS (1536 SPF)
Compression mode : Lossy
Stream size : 163 MiB (1%)
Title : DD 2.0
Language : English
Service kind : Complete Main
Default : No
Forced : No
Original source medium : Blu-ray

Text #1
ID : 4
Format : UTF-8
Codec ID : S_TEXT/UTF8
Codec ID/Info : UTF-8 Plain Text
Duration : 1 h 33 min
Bit rate : 60 b/s
Count of elements : 1164
Stream size : 41.2 KiB (0%)
Title : SRT
Language : English
Default : Yes
Forced : No

Text #2
ID : 5
ID in the original source medium : 4609 (0x1201)
Format : PGS
Muxing mode : zlib
Codec ID : S_HDMV/PGS
Codec ID/Info : Picture based subtitle format used on BDs/HD-DVDs
Duration : 1 h 33 min
Bit rate : 33.4 kb/s
Count of elements : 2328
Stream size : 22.4 MiB (0%)
Language : English
Default : No
Forced : No
Original source medium : Blu-ray

Menu
00:00:00.000 : Chapter 01
00:09:54.927 : Chapter 02
00:15:23.380 : Chapter 03
00:17:52.738 : Chapter 04
00:26:30.630 : Chapter 05
00:33:54.240 : Chapter 06
00:40:19.625 : Chapter 07
00:44:55.818 : Chapter 08
00:49:20.332 : Chapter 09
00:57:17.892 : Chapter 10
01:07:13.779 : Chapter 11
01:17:02.618 : Chapter 12
01:19:26.970 : Chapter 13
01:25:42.428 : Chapter 14
01:32:01.849 : Chapter 15
01:36:13.309 : Chapter 16

本帖子中包含更多资源

您需要 登录 才可以下载或查看,没有帐号?立即注册

x
回复

使用道具 举报

您需要登录后才可以回帖 登录 | 立即注册

本版积分规则

QQ|Archiver|手机版|小黑屋|原盘天堂 好多盘 点击这里给我发消息

GMT+8, 2021-9-16 23:28 , Processed in 0.056087 second(s), 24 queries .

Powered by Discuz! X3.4

Copyright © 2001-2020, Tencent Cloud.

快速回复 返回顶部 返回列表