请选择 进入手机版 | 继续访问电脑版
本站Q群713428235【盘盘多】已满,请新会员加原盘天堂新官方QQ群709708625【好多盘】,验证信息填写您在论坛的会员名,不填会员名的无法入群哈,进群后修改您的群名片名字为您在论坛的会员名,请务必修改,否则群成员多了不知道您是哪个会员。

原盘天堂

 找回密码
 立即注册
京东商城当当华为商城名牌时尚折扣网,一个新型的网上购物平台,我们每周为您精选3~4个国际知名品牌,商品折扣低至2折限时限量售卖,商品囊括时装、护肤品、箱包、皮具、配饰、香水等等,琳琅满目。亿格瑞A10硬盘播放器 苏宁易购
查看: 71|回复: 7

4k蓝光原盘bdmv 黑寡妇 英语原版 black.widow.2021.2160p.bluray.hevc.truehd.7.1.atmos[54.89 GB]

[复制链接]

6260

主题

7000

帖子

133万

积分

管理员

Rank: 18Rank: 18Rank: 18Rank: 18Rank: 18

积分
1337486
发表于 3 天前 | 显示全部楼层 |阅读模式








◎译  名 黑寡妇/The Black Widow
◎片  名 Black Widow
◎年  代 2021
◎产  地 美国
◎类  别 动作/科幻/冒险
◎语  言 英语/俄语/挪威语/匈牙利语/马其顿语/芬兰语
◎上映日期 2021(中国大陆)/2021-07-07(中国香港)/2021-07-09(美国/美国网络)
◎IMDb链接  https://www.imdb.com/title/tt3480822/
◎豆瓣评分 6.3/10 from 116735 users
◎豆瓣链接 https://douban.com/subject/25828589/
◎片  长 133分钟
◎导  演 凯特·绍特兰 Cate Shortland
◎编  剧 雅克·舍费尔 Jac Schaeffer / 内德·本森 Ned Benson / 埃里克·皮尔森 Eric Pearson / 斯坦·李 Stan Lee / 唐·赫克 Don Heck / 唐·里科 Don Rico
◎主  演 斯嘉丽·约翰逊 Scarlett Johansson
       弗洛伦丝·皮尤 Florence Pugh
       蕾切尔·薇兹 Rachel Weisz
       大卫·哈伯 David Harbour
       艾尔·安德森 Ever Anderson
       维奥莱特·麦格劳 Violet McGraw
       欧嘉·柯瑞兰寇 Olga Kurylenko
       O·T·法格本 O.T. Fagbenle
       威廉·赫特 William Hurt
       雷·温斯顿 Ray Winstone
       赖恩·基拉·阿姆斯特朗 Ryan Kiera Armstrong
       米歇尔·李 Michelle Lee
       拉娜·布隆代尔 Nanna Blondell
       Claudia Heinz Claudia Heinz
       露西·詹·穆雷 Lucy Jayne Murray
       乔治亚·柯蒂斯 Georgia Curtis
       约恩·巴特勒 Ione Butler
       库尔特·岳 Kurt Yue
       奥利维尔·里希特斯 Olivier Richters
       安得烈·拜伦 Andrew Byron
       卡利·内勒 Cali Nelle
       罗伯特·普拉尔戈 Robert Pralgo
       贾辛特·布兰肯希普 Jacinte Blankenship
       乔希·亨利 Josh Henry
       阿里娅·布鲁克斯 Aria Brooks
       泰·赫尔利 Ty Hurley
       马里安·洛伦西克 Marian Lorencik
       茱莉亚·路易斯-德瑞弗斯 Julia Louis-Dreyfus
       亚当·普里克特 Adam Prickett
       史蒂芬·萨姆森 Stephen Samson
       乔基姆·斯卡利 Joakim Skarli
       利亚尼·塞缪尔 Liani Samuel
       西蒙娜·齐夫科夫斯卡 Simona Zivkovska
       刘易斯·扬 Lewis Young

◎标  签 漫威 | 斯嘉丽·约翰逊 | 黑寡妇 | 超级英雄 | 美国 | 科幻 | 动作 | 2021

◎简  介

  
  一部充满动作戏的间谍惊悚片。娜塔莎·罗曼诺夫/黑寡妇遭遇与她的过去相关的一场危险阴谋,将直面自己那些更为黑暗的经历。一股不惜一切要击倒她的力量袭来,娜塔莎必须面对自己在成为复仇者的很久之前那作为间谍的过往,和曾远离的破碎关系。
  

◎获奖情况

  第7届豆瓣电影年度榜单  (2020)
  最值得期待的外语电影
  
  第6届豆瓣电影年度榜单  (2019)
  最值得期待的外语电影


DISC INFO:

Disc Title:     Black.Widow.2021.COMPLETE.UHD.BLURAY-MAXAGAZ
Disc Size:      58,937,644,546 bytes
Protection:     AACS2
Extras:         Ultra HD, BD-Java
BDInfo:         0.7.5.9 (compatible layout created by DVDFab 12.0.4.5)

PLAYLIST REPORT:

Name:                   00800.MPLS  
Length:                 2:13:46.768 (h:m:s.ms)
Size:                   58,272,479,232 bytes
Total Bitrate:          58.08 Mbps

VIDEO:

Codec                   Bitrate             Description     
-----                   -------             -----------     
MPEG-H HEVC Video       46197 kbps          2160p / 23.976 fps / 16:9 / Main 10 @ Level 5.1 @ High / 4:2:0 / 10 bits / 1000nits / HDR10 / BT.2020

AUDIO:

Codec                           Language        Bitrate         Description     
-----                           --------        -------         -----------     
Dolby TrueHD/Atmos Audio        English         4924 kbps       7.1+13 objects / 48 kHz / 4284 kbps / 24-bit (AC3 Core: 5.1 / 48 kHz / 640 kbps)
Dolby Digital Audio             English         320 kbps        2.0 / 48 kHz / 320 kbps
Dolby Digital Audio             French          640 kbps        5.1 / 48 kHz / 640 kbps
Dolby Digital Plus Audio        Spanish         1024 kbps       7.1 / 48 kHz / 1024 kbps (AC3 Core: 5.1 / 48 kHz / 576 kbps ( Core: 5.1 / 48 kHz / 576 kbps))
Dolby Digital Plus Audio        Japanese        1024 kbps       7.1 / 48 kHz / 1024 kbps (AC3 Core: 5.1 / 48 kHz / 576 kbps ( Core: 5.1 / 48 kHz / 576 kbps))

SUBTITLES:

Codec                           Language        Bitrate         Description     
-----                           --------        -------         -----------     
Presentation Graphics           English         32.119 kbps                     
Presentation Graphics           French          26.454 kbps                     
Presentation Graphics           Spanish         25.382 kbps                     
Presentation Graphics           Japanese        18.515 kbps                     
Presentation Graphics           English         0.586 kbps                     
Presentation Graphics           French          0.888 kbps                     
Presentation Graphics           Spanish         0.967 kbps                     
Presentation Graphics           Japanese        1.211 kbps   


Video
ID : 1
ID in the original source medium : 4113 (0x1011)
Format : HEVC
Format/Info : High Efficiency Video Coding
Format profile : Main [email protected]@High
HDR format : SMPTE ST 2086, HDR10 compatible
Codec ID : V_MPEGH/ISO/HEVC
Duration : 2 h 13 min
Bit rate : 46.2 Mb/s
Width : 3 840 pixels
Height : 2 160 pixels
Display aspect ratio : 16:9
Frame rate mode : Constant
Frame rate : 23.976 (24000/1001) FPS
Color space : YUV
Chroma subsampling : 4:2:0 (Type 2)
Bit depth : 10 bits
Bits/(Pixel*Frame) : 0.232
Stream size : 43.2 GiB (77%)
Writing library : ATEME Titan File 3.9.6 (4.9.6.2)
Language : English
Default : No
Forced : No
Color range : Limited
Color primaries : BT.2020
Transfer characteristics : PQ
Matrix coefficients : BT.2020 non-constant
Mastering display color primaries : Display P3
Mastering display luminance : min: 0.0050 cd/m2, max: 1000 cd/m2
Original source medium : Blu-ray

Audio #1
ID : 2
ID in the original source medium : 4352 (0x1100)
Format : MLP FBA 16-ch
Format/Info : Meridian Lossless Packing FBA with 16-channel presentation
Commercial name : Dolby TrueHD with Dolby Atmos
Codec ID : A_TRUEHD
Duration : 2 h 13 min
Bit rate mode : Variable
Bit rate : 4 284 kb/s
Maximum bit rate : 7 737 kb/s
Channel(s) : 8 channels
Channel layout : L R C LFE Ls Rs Lb Rb
Sampling rate : 48.0 kHz
Frame rate : 1 200.000 FPS (40 SPF)
Bit depth : 24 bits
Compression mode : Lossless
Stream size : 4.00 GiB (7%)
Title : TrueHD 7.1 Atmos
Language : English
Default : Yes
Forced : No
Original source medium : Blu-ray
Number of dynamic objects : 13
Bed channel count : 1 channel
Bed channel configuration : LFE

Audio #2
ID : 3
Format : DTS XLL
Format/Info : Digital Theater Systems
Commercial name : DTS-HD Master Audio
Codec ID : A_DTS
Duration : 2 h 13 min
Bit rate mode : Variable
Bit rate : 4 412 kb/s
Channel(s) : 8 channels
Channel layout : C L R LFE Lb Rb Lss Rss
Sampling rate : 48.0 kHz
Frame rate : 93.750 FPS (512 SPF)
Bit depth : 24 bits
Compression mode : Lossless
Stream size : 4.12 GiB (7%)
Title : DTS-HD MA 7.1
Language : English
Default : No
Forced : No

Audio #3
ID : 4
ID in the original source medium : 4352 (0x1100)
Format : AC-3
Format/Info : Audio Coding 3
Commercial name : Dolby Digital
Codec ID : A_AC3
Duration : 2 h 13 min
Bit rate mode : Constant
Bit rate : 640 kb/s
Channel(s) : 6 channels
Channel layout : L R C LFE Ls Rs
Sampling rate : 48.0 kHz
Frame rate : 31.250 FPS (1536 SPF)
Compression mode : Lossy
Stream size : 612 MiB (1%)
Title : DD 5.1
Language : English
Service kind : Complete Main
Default : No
Forced : No
Original source medium : Blu-ray

Audio #4
ID : 5
ID in the original source medium : 4353 (0x1101)
Format : AC-3
Format/Info : Audio Coding 3
Commercial name : Dolby Digital
Codec ID : A_AC3
Duration : 2 h 13 min
Bit rate mode : Constant
Bit rate : 320 kb/s
Channel(s) : 2 channels
Channel layout : L R
Sampling rate : 48.0 kHz
Frame rate : 31.250 FPS (1536 SPF)
Compression mode : Lossy
Stream size : 306 MiB (1%)
Title : DD 2.0
Language : English
Service kind : Complete Main
Default : No
Forced : No
Original source medium : Blu-ray

Audio #5
ID : 6
ID in the original source medium : 4354 (0x1102)
Format : AC-3
Format/Info : Audio Coding 3
Commercial name : Dolby Digital
Codec ID : A_AC3
Duration : 2 h 13 min
Bit rate mode : Constant
Bit rate : 640 kb/s
Channel(s) : 6 channels
Channel layout : L R C LFE Ls Rs
Sampling rate : 48.0 kHz
Frame rate : 31.250 FPS (1536 SPF)
Compression mode : Lossy
Stream size : 612 MiB (1%)
Title : DD 5.1
Language : French
Service kind : Complete Main
Default : No
Forced : No
Original source medium : Blu-ray

Audio #6
ID : 7
Format : E-AC-3
Format/Info : Enhanced AC-3
Commercial name : Dolby Digital Plus
Format profile : Blu-ray Disc
Codec ID : A_EAC3
Duration : 2 h 13 min
Bit rate mode : Constant
Bit rate : 1 024 kb/s
Channel(s) : 8 channels
Channel layout : L R C LFE Ls Rs Lb Rb
Sampling rate : 48.0 kHz
Frame rate : 31.250 FPS (1536 SPF)
Compression mode : Lossy
Stream size : 980 MiB (2%)
Title : DDP 7.1
Language : Spanish
Service kind : Complete Main
Default : No
Forced : No

Audio #7
ID : 8
ID in the original source medium : 4355 (0x1103)
Format : AC-3
Format/Info : Audio Coding 3
Commercial name : Dolby Digital
Codec ID : A_AC3
Duration : 2 h 13 min
Bit rate mode : Constant
Bit rate : 576 kb/s
Channel(s) : 6 channels
Channel layout : L R C LFE Ls Rs
Sampling rate : 48.0 kHz
Frame rate : 31.250 FPS (1536 SPF)
Compression mode : Lossy
Stream size : 551 MiB (1%)
Title : DD 5.1
Language : Spanish
Service kind : Complete Main
Default : No
Forced : No
Original source medium : Blu-ray

Audio #8
ID : 9
Format : E-AC-3
Format/Info : Enhanced AC-3
Commercial name : Dolby Digital Plus
Format profile : Blu-ray Disc
Codec ID : A_EAC3
Duration : 2 h 13 min
Bit rate mode : Constant
Bit rate : 1 024 kb/s
Channel(s) : 8 channels
Channel layout : L R C LFE Ls Rs Lb Rb
Sampling rate : 48.0 kHz
Frame rate : 31.250 FPS (1536 SPF)
Compression mode : Lossy
Stream size : 980 MiB (2%)
Title : DDP 7.1
Language : Japanese
Service kind : Complete Main
Default : No
Forced : No

Audio #9
ID : 10
ID in the original source medium : 4356 (0x1104)
Format : AC-3
Format/Info : Audio Coding 3
Commercial name : Dolby Digital
Codec ID : A_AC3
Duration : 2 h 13 min
Bit rate mode : Constant
Bit rate : 576 kb/s
Channel(s) : 6 channels
Channel layout : L R C LFE Ls Rs
Sampling rate : 48.0 kHz
Frame rate : 31.250 FPS (1536 SPF)
Compression mode : Lossy
Stream size : 551 MiB (1%)
Title : DD 5.1
Language : Japanese
Service kind : Complete Main
Default : No
Forced : No
Original source medium : Blu-ray

Text #1
ID : 11
Format : UTF-8
Codec ID : S_TEXT/UTF8
Codec ID/Info : UTF-8 Plain Text
Duration : 2 h 12 min
Bit rate : 40 b/s
Count of elements : 1339
Stream size : 39.7 KiB (0%)
Title : SRT
Language : English
Default : Yes
Forced : No

Text #2
ID : 12
ID in the original source medium : 4768 (0x12A0)
Format : PGS
Muxing mode : zlib
Codec ID : S_HDMV/PGS
Codec ID/Info : Picture based subtitle format used on BDs/HD-DVDs
Duration : 2 h 13 min
Bit rate : 32.2 kb/s
Count of elements : 3294
Stream size : 30.7 MiB (0%)
Language : English
Default : No
Forced : No
Original source medium : Blu-ray

Text #3
ID : 13
ID in the original source medium : 4769 (0x12A1)
Format : PGS
Muxing mode : zlib
Codec ID : S_HDMV/PGS
Codec ID/Info : Picture based subtitle format used on BDs/HD-DVDs
Duration : 2 h 12 min
Bit rate : 26.7 kb/s
Count of elements : 2638
Stream size : 25.3 MiB (0%)
Language : French
Default : No
Forced : No
Original source medium : Blu-ray

Text #4
ID : 14
ID in the original source medium : 4770 (0x12A2)
Format : PGS
Muxing mode : zlib
Codec ID : S_HDMV/PGS
Codec ID/Info : Picture based subtitle format used on BDs/HD-DVDs
Duration : 2 h 12 min
Bit rate : 25.6 kb/s
Count of elements : 2604
Stream size : 24.3 MiB (0%)
Language : Spanish
Default : No
Forced : No
Original source medium : Blu-ray

Text #5
ID : 15
ID in the original source medium : 4771 (0x12A3)
Format : PGS
Muxing mode : zlib
Codec ID : S_HDMV/PGS
Codec ID/Info : Picture based subtitle format used on BDs/HD-DVDs
Duration : 2 h 12 min
Bit rate : 18.7 kb/s
Count of elements : 2512
Stream size : 17.7 MiB (0%)
Language : Japanese
Default : No
Forced : No
Original source medium : Blu-ray

Text #6
ID : 16
ID in the original source medium : 4772 (0x12A4)
Format : PGS
Muxing mode : zlib
Codec ID : S_HDMV/PGS
Codec ID/Info : Picture based subtitle format used on BDs/HD-DVDs
Duration : 1 h 49 min
Bit rate : 716 b/s
Count of elements : 74
Stream size : 574 KiB (0%)
Title : FORCED
Language : English
Default : No
Forced : No
Original source medium : Blu-ray

Text #7
ID : 17
ID in the original source medium : 4773 (0x12A5)
Format : PGS
Muxing mode : zlib
Codec ID : S_HDMV/PGS
Codec ID/Info : Picture based subtitle format used on BDs/HD-DVDs
Duration : 1 h 51 min
Bit rate : 1 067 b/s
Count of elements : 134
Stream size : 870 KiB (0%)
Title : FORCED
Language : French
Default : No
Forced : No
Original source medium : Blu-ray

Text #8
ID : 18
ID in the original source medium : 4774 (0x12A6)
Format : PGS
Muxing mode : zlib
Codec ID : S_HDMV/PGS
Codec ID/Info : Picture based subtitle format used on BDs/HD-DVDs
Duration : 2 h 0 min
Bit rate : 1 072 b/s
Count of elements : 112
Stream size : 948 KiB (0%)
Title : FORCED
Language : Spanish
Default : No
Forced : No
Original source medium : Blu-ray

Text #9
ID : 19
ID in the original source medium : 4775 (0x12A7)
Format : PGS
Muxing mode : zlib
Codec ID : S_HDMV/PGS
Codec ID/Info : Picture based subtitle format used on BDs/HD-DVDs
Duration : 2 h 11 min
Bit rate : 1 233 b/s
Count of elements : 176
Stream size : 1.16 MiB (0%)
Title : FORCED
Language : Japanese
Default : No
Forced : No
Original source medium : Blu-ray

Menu
00:00:00.000 : Chapter 01
00:04:55.169 : Chapter 02
00:13:10.080 : Chapter 03
00:16:24.566 : Chapter 04
00:18:41.870 : Chapter 05
00:21:41.633 : Chapter 06
00:25:40.747 : Chapter 07
00:30:06.346 : Chapter 08
00:39:05.301 : Chapter 09
00:44:46.058 : Chapter 10
00:53:25.994 : Chapter 11
01:01:38.152 : Chapter 12
01:07:46.270 : Chapter 13
01:11:40.629 : Chapter 14
01:17:48.747 : Chapter 15
01:27:19.192 : Chapter 16
01:33:33.441 : Chapter 17
01:37:37.476 : Chapter 18
01:41:18.655 : Chapter 19
01:45:37.539 : Chapter 20
01:51:41.653 : Chapter 21
01:57:09.105 : Chapter 22
02:01:59.562 : Chapter 23
02:04:25.458 : Chapter 24

本帖子中包含更多资源

您需要 登录 才可以下载或查看,没有帐号?立即注册

x
回复

使用道具 举报

0

主题

899

帖子

4230

积分

论坛元老

Rank: 8Rank: 8

积分
4230
发表于 3 天前 | 显示全部楼层
非常感谢分享
回复

使用道具 举报

0

主题

143

帖子

327

积分

中级会员

Rank: 3Rank: 3

积分
327
发表于 3 天前 | 显示全部楼层
等久旳一部4k藍光原盤,感謝無私分享
回复

使用道具 举报

0

主题

584

帖子

2990

积分

金牌会员

Rank: 6Rank: 6

积分
2990
发表于 3 天前 | 显示全部楼层
非常感谢分享
回复

使用道具 举报

0

主题

2

帖子

9

积分

新手上路

Rank: 1

积分
9
发表于 前天 21:39 | 显示全部楼层
谢谢分享
回复

使用道具 举报

0

主题

101

帖子

497

积分

中级会员

Rank: 3Rank: 3

积分
497
发表于 昨天 00:09 | 显示全部楼层
感謝樓主分享,
回复

使用道具 举报

0

主题

7

帖子

22

积分

VIP月

Rank: 9Rank: 9Rank: 9

积分
22
发表于 昨天 00:34 | 显示全部楼层
等久旳一部4k藍光原盤,感謝無私分享
回复

使用道具 举报

0

主题

13

帖子

86

积分

注册会员

Rank: 2

积分
86
发表于 2 小时前 | 显示全部楼层
这,二块 4K出来了
回复

使用道具 举报

您需要登录后才可以回帖 登录 | 立即注册

本版积分规则

QQ|Archiver|手机版|小黑屋|原盘天堂 好多盘 点击这里给我发消息

GMT+8, 2021-9-16 23:46 , Processed in 0.059539 second(s), 25 queries .

Powered by Discuz! X3.4

Copyright © 2001-2020, Tencent Cloud.

快速回复 返回顶部 返回列表