请选择 进入手机版 | 继续访问电脑版
本站Q群713428235【盘盘多】已满,请新会员加原盘天堂新官方QQ群709708625【好多盘】,验证信息填写您在论坛的会员名,不填会员名的无法入群哈,进群后修改您的群名片名字为您在论坛的会员名,请务必修改,否则群成员多了不知道您是哪个会员。

原盘天堂

 找回密码
 立即注册
京东商城当当华为商城名牌时尚折扣网,一个新型的网上购物平台,我们每周为您精选3~4个国际知名品牌,商品折扣低至2折限时限量售卖,商品囊括时装、护肤品、箱包、皮具、配饰、香水等等,琳琅满目。亿格瑞A10硬盘播放器 苏宁易购
查看: 39|回复: 1

2d蓝光原盘remux 赢利 英语原版 paydirt.2020.1080p.bluray.remux.mpeg-2.dts-hd.ma.5.1[12.8 GB]

[复制链接]

6260

主题

7000

帖子

133万

积分

管理员

Rank: 18Rank: 18Rank: 18Rank: 18Rank: 18

积分
1337486
发表于 4 天前 | 显示全部楼层 |阅读模式




◎译  名 赢利/Pay Dirt
◎片  名 Paydirt
◎年  代 2020
◎产  地 美国
◎类  别 惊悚/犯罪
◎语  言 英语
◎上映日期 2020-08-07(美国)
◎IMDb评分  4/10 from 3920 users
◎IMDb链接  https://www.imdb.com/title/tt11176322/
◎豆瓣评分 /10 from 0 users
◎豆瓣链接 https://douban.com/subject/34935811/
◎导  演 克里斯蒂安·塞斯玛 Christian Sesma
◎编  剧 克里斯蒂安·塞斯玛 Christian Sesma
◎主  演 鲁克·高斯 Luke Goss
       方·基默 Val Kilmer
       迈克·哈顿 Mike Hatton
       保罗·斯隆 Paul Sloan
       尼克·瓦莱隆加 Nick Vallelonga
       米尔塔·米切尔 Mirtha Michelle
       穆里尔·特里奥 Murielle Telio

◎标  签 犯罪 | 动作 | 美国 | 惊悚 | 2020 | 美国电影 | 电影 | 剧情

◎简  介

  
  影片由克里斯蒂安·塞斯玛自编自导,故事讲述一名假释犯和他的老同事们一起,决心找到10年前从一个DEA破产案中偷来的被埋的现金袋,同时被一个退休的警长跟踪的故事。
  
Video
ID : 1
ID in the original source medium : 4113 (0x1011)
Format : MPEG Video
Format version : Version 2
Format profile : [email protected]
Format settings : CustomMatrix / BVOP
Format settings, BVOP : Yes
Format settings, Matrix : Custom
Format settings, GOP : M=3, N=15
Codec ID : V_MPEG2
Codec ID/Info : MPEG 1 or 2 Video
Duration : 1 h 25 min
Bit rate mode : Variable
Bit rate : 17.6 Mb/s
Maximum bit rate : 25.0 Mb/s
Width : 1 920 pixels
Height : 1 080 pixels
Display aspect ratio : 16:9
Frame rate mode : Constant
Frame rate : 23.976 (24000/1001) FPS
Color space : YUV
Chroma subsampling : 4:2:0
Bit depth : 8 bits
Scan type : Progressive
Compression mode : Lossy
Bits/(Pixel*Frame) : 0.355
Time code of first frame : 00:00:00:00
Time code source : Group of pictures header
GOP, Open/Closed : Closed
Stream size : 10.5 GiB (82%)
Language : English
Default : No
Forced : No
Original source medium : Blu-ray

Audio
ID : 2
ID in the original source medium : 4353 (0x1101)
Format : DTS XLL
Format/Info : Digital Theater Systems
Commercial name : DTS-HD Master Audio
Codec ID : A_DTS
Duration : 1 h 25 min
Bit rate mode : Variable
Bit rate : 3 797 kb/s
Channel(s) : 6 channels
Channel layout : C L R Ls Rs LFE
Sampling rate : 48.0 kHz
Frame rate : 93.750 FPS (512 SPF)
Bit depth : 24 bits
Compression mode : Lossless
Stream size : 2.27 GiB (18%)
Title : DTS-HD MA 5.1
Language : English
Default : Yes
Forced : No
Original source medium : Blu-ray

Text
ID : 3
Format : UTF-8
Codec ID : S_TEXT/UTF8
Codec ID/Info : UTF-8 Plain Text
Duration : 1 h 21 min
Bit rate : 65 b/s
Count of elements : 1322
Stream size : 39.1 KiB (0%)
Title : SRT
Language : English
Default : Yes
Forced : No

Menu
00:00:00.000 : de:Chapter 01
00:10:22.371 : de:Chapter 02
00:22:31.099 : de:Chapter 03
00:31:41.566 : de:Chapter 04
00:41:54.136 : de:Chapter 05
00:52:36.153 : de:Chapter 06
01:05:09.655 : de:Chapter 07
01:15:02.498 : de:Chapter 08
01:21:29.634 : de:Chapter 09

本帖子中包含更多资源

您需要 登录 才可以下载或查看,没有帐号?立即注册

x
回复

使用道具 举报

0

主题

143

帖子

327

积分

中级会员

Rank: 3Rank: 3

积分
327
发表于 10 小时前 | 显示全部楼层
感謝無私分享
回复

使用道具 举报

您需要登录后才可以回帖 登录 | 立即注册

本版积分规则

QQ|Archiver|手机版|小黑屋|原盘天堂 好多盘 点击这里给我发消息

GMT+8, 2021-9-16 23:41 , Processed in 0.055307 second(s), 25 queries .

Powered by Discuz! X3.4

Copyright © 2001-2020, Tencent Cloud.

快速回复 返回顶部 返回列表