请选择 进入手机版 | 继续访问电脑版
本站Q群713428235【盘盘多】已满,请新会员加原盘天堂新官方QQ群709708625【好多盘】,验证信息填写您在论坛的会员名,不填会员名的无法入群哈,进群后修改您的群名片名字为您在论坛的会员名,请务必修改,否则群成员多了不知道您是哪个会员。

原盘天堂

 找回密码
 立即注册
京东商城当当华为商城名牌时尚折扣网,一个新型的网上购物平台,我们每周为您精选3~4个国际知名品牌,商品折扣低至2折限时限量售卖,商品囊括时装、护肤品、箱包、皮具、配饰、香水等等,琳琅满目。亿格瑞A10硬盘播放器 苏宁易购
查看: 50|回复: 1

2d蓝光原盘remux 小心身后 英语原版 behind.you.2020.1080p.bluray.remux.avc.dts-hd.ma.5.1[12.32 GB]

[复制链接]

6260

主题

7000

帖子

133万

积分

管理员

Rank: 18Rank: 18Rank: 18Rank: 18Rank: 18

积分
1337486
发表于 6 天前 | 显示全部楼层 |阅读模式






◎译  名 小心身后/小心背后
◎片  名 Behind You
◎年  代 2020
◎产  地 美国
◎类  别 恐怖
◎语  言 英语
◎上映日期 2020-04-17(美国)
◎豆瓣评分 4.3/10 from 220 users
◎豆瓣链接 https://movie.douban.com/subject/34996563/
◎片  长 86分钟
◎主  演 艾迪·米勒 Addy Miller
       伊丽莎白·伯克纳 Elizabeth Birkner
       菲利普·布罗迪 Philip Brodie
       艾梅-林恩-查德威克 Aimee-Lynn Chadwick
       Charan Prabhakar Charan Prabhakar
        James C. Morris

◎标  签 恐怖 | 美国 | 惊悚 | 2020 | 恶灵 | 美国电影 | 附体 | 镜子

◎简  介

  Two young sisters find that all the mirrors in their estranged aunt's house are covered or hidden. When one of them happens upon a mirror in the basement, she unknowingly releases a malicious demon.

      两个小妹妹发现,她们疏远的姑姑家里的镜子都被遮住或藏起来了。当他们中的一个碰巧在地下室的镜子上时,她不知不觉地释放了一个恶毒的恶魔。


Video
ID : 1
ID in the original source medium : 4113 (0x1011)
Format : AVC
Format/Info : Advanced Video Codec
Format profile : [email protected]
Format settings : CABAC / 2 Ref Frames
Format settings, CABAC : Yes
Format settings, Reference frames : 2 frames
Codec ID : V_MPEG4/ISO/AVC
Duration : 1 h 26 min
Bit rate mode : Variable
Bit rate : 19.1 Mb/s
Maximum bit rate : 30.2 Mb/s
Width : 1 920 pixels
Height : 1 080 pixels
Display aspect ratio : 16:9
Frame rate mode : Constant
Frame rate : 23.976 (24000/1001) FPS
Color space : YUV
Chroma subsampling : 4:2:0
Bit depth : 8 bits
Scan type : Progressive
Bits/(Pixel*Frame) : 0.385
Stream size : 11.5 GiB (93%)
Language : English
Default : No
Forced : No
Original source medium : Blu-ray

Audio
ID : 2
ID in the original source medium : 4353 (0x1101)
Format : DTS XLL
Format/Info : Digital Theater Systems
Commercial name : DTS-HD Master Audio
Codec ID : A_DTS
Duration : 1 h 26 min
Bit rate mode : Variable
Bit rate : 1 330 kb/s
Channel(s) : 6 channels
Channel layout : C L R Ls Rs LFE
Sampling rate : 48.0 kHz
Frame rate : 93.750 FPS (512 SPF)
Bit depth : 16 bits
Compression mode : Lossless
Stream size : 820 MiB (6%)
Title : DTS-HD MA 5.1
Language : English
Default : Yes
Forced : No
Original source medium : Blu-ray

Text
ID : 3
Format : UTF-8
Codec ID : S_TEXT/UTF8
Codec ID/Info : UTF-8 Plain Text
Duration : 1 h 20 min
Bit rate : 30 b/s
Count of elements : 768
Stream size : 17.8 KiB (0%)
Title : SRT
Language : English
Default : Yes
Forced : No

Menu
00:00:00.000 : Chapter 01
00:03:14.360 : Chapter 02
00:13:00.362 : Chapter 03
00:21:43.593 : Chapter 04
00:30:31.204 : Chapter 05
00:38:11.205 : Chapter 06
00:43:20.347 : Chapter 07
00:49:06.401 : Chapter 08
00:58:28.671 : Chapter 09
01:03:06.365 : Chapter 10
01:13:03.921 : Chapter 11
01:22:16.640 : Chapter 12

本帖子中包含更多资源

您需要 登录 才可以下载或查看,没有帐号?立即注册

x
回复

使用道具 举报

0

主题

143

帖子

327

积分

中级会员

Rank: 3Rank: 3

积分
327
发表于 6 天前 | 显示全部楼层
感謝無私分享好片
回复

使用道具 举报

您需要登录后才可以回帖 登录 | 立即注册

本版积分规则

QQ|Archiver|手机版|小黑屋|原盘天堂 好多盘 点击这里给我发消息

GMT+8, 2021-9-17 00:34 , Processed in 0.058247 second(s), 25 queries .

Powered by Discuz! X3.4

Copyright © 2001-2020, Tencent Cloud.

快速回复 返回顶部 返回列表