请选择 进入手机版 | 继续访问电脑版
本站Q群713428235【盘盘多】已满,请新会员加原盘天堂新官方QQ群709708625【好多盘】,验证信息填写您在论坛的会员名,不填会员名的无法入群哈,进群后修改您的群名片名字为您在论坛的会员名,请务必修改,否则群成员多了不知道您是哪个会员。

原盘天堂

 找回密码
 立即注册
京东商城当当华为商城名牌时尚折扣网,一个新型的网上购物平台,我们每周为您精选3~4个国际知名品牌,商品折扣低至2折限时限量售卖,商品囊括时装、护肤品、箱包、皮具、配饰、香水等等,琳琅满目。亿格瑞A10硬盘播放器 苏宁易购
查看: 44|回复: 1

2d蓝光原盘remux 我们保守的秘密 英语原版 the.secrets.we.keep.2020.1080p.bluray.remux.avc.dts-hd.ma.5.1-fgt-[rarbg.to][25.46 GB]

[复制链接]

6260

主题

7000

帖子

133万

积分

管理员

Rank: 18Rank: 18Rank: 18Rank: 18Rank: 18

积分
1337486
发表于 5 天前 | 显示全部楼层 |阅读模式






◎译  名 我们保守的秘密/地下弒的秘密(台)
◎片  名 The Secrets We Keep
◎年  代 2020
◎产  地 美国
◎类  别 剧情 / 悬疑 / 惊悚 / 犯罪
◎语  言 英语
◎上映日期 2020-09-16(美国)
◎豆瓣评分 6.3/10 from 700 users
◎豆瓣链接 https://movie.douban.com/subject/30368418/
◎片  长 97分钟
◎导  演 尤瓦尔·阿德勒 Yuval Adler
◎编  剧 瑞安·科文顿 Ryan Covington / 尤瓦尔·阿德勒 Yuval Adler
◎主  演 劳米·拉佩斯 Noomi Rapace
       乔尔·金纳曼 Joel Kinnaman
       克里斯·梅西纳 Chris Messina
       杰克逊·迪恩·文森特 Jackson Dean Vincent
       艾米·西米茨 Amy Seimetz
       米卢特·纳林 Miluette Nalin
       麦迪逊·佩奇·琼斯 Madison Paige Jones
       杰夫·波普 Jeff Pope
       大卫·马尔登那多 David Maldonado
       埃德·阿玛特鲁多 Ed Amatrudo
       里奇·蒙哥马利 Ritchie Montgomery
       维多利亚·希尔 Victoria Hill
       托马斯·弗兰西斯·墨菲 Thomas Francis Murphy
       罗科·布罗卡托 Rocco Brocato
       杰森·博伊尔 Jason Boyle
       露西·浮士德 Lucy Faust

◎标  签 悬疑 | 美国 | 剧情 | 犯罪 | 2020 | 惊悚 | 美国电影 | 乔尔·金纳曼

◎简  介

  影片讲述二战后,玛雅(劳米饰)与丈夫(克里斯饰)在纽约重新开始生活。他们遇到了一个熟悉的男人(乔尔饰),他们的生活开始瓦解。这对夫妇想知道,他是不是那个在奥斯威辛集中营的军官。

Video
ID : 1
ID in the original source medium : 4113 (0x1011)
Format : AVC
Format/Info : Advanced Video Codec
Format profile : [email protected]
Format settings : CABAC / 4 Ref Frames
Format settings, CABAC : Yes
Format settings, Reference frames : 4 frames
Codec ID : V_MPEG4/ISO/AVC
Duration : 1 h 38 min
Bit rate mode : Variable
Bit rate : 33.6 Mb/s
Maximum bit rate : 38.0 Mb/s
Width : 1 920 pixels
Height : 1 080 pixels
Display aspect ratio : 16:9
Frame rate mode : Constant
Frame rate : 23.976 (24000/1001) FPS
Color space : YUV
Chroma subsampling : 4:2:0
Bit depth : 8 bits
Scan type : Progressive
Bits/(Pixel*Frame) : 0.676
Stream size : 23.1 GiB (91%)
Language : English
Default : No
Forced : No
Original source medium : Blu-ray

Audio
ID : 2
ID in the original source medium : 4353 (0x1101)
Format : DTS XLL
Format/Info : Digital Theater Systems
Commercial name : DTS-HD Master Audio
Codec ID : A_DTS
Duration : 1 h 38 min
Bit rate mode : Variable
Bit rate : 3 367 kb/s
Channel(s) : 6 channels
Channel layout : C L R Ls Rs LFE
Sampling rate : 48.0 kHz
Frame rate : 93.750 FPS (512 SPF)
Bit depth : 24 bits
Compression mode : Lossless
Stream size : 2.32 GiB (9%)
Title : DTS-HD M A5.1
Language : English
Default : Yes
Forced : No
Original source medium : Blu-ray

Text
ID : 3
Format : UTF-8
Codec ID : S_TEXT/UTF8
Codec ID/Info : UTF-8 Plain Text
Duration : 1 h 29 min
Bit rate : 44 b/s
Count of elements : 998
Stream size : 29.2 KiB (0%)
Title : SRT
Language : English
Default : Yes
Forced : No

Menu
00:00:00.000 : Chapter 01
00:09:48.921 : Chapter 02
00:22:14.291 : Chapter 03
00:33:00.979 : Chapter 04
00:42:23.874 : Chapter 05
00:51:49.648 : Chapter 06
01:01:59.006 : Chapter 07
01:13:20.437 : Chapter 08
01:22:50.090 : Chapter 09
01:31:54.383 : Chapter 10

本帖子中包含更多资源

您需要 登录 才可以下载或查看,没有帐号?立即注册

x
回复

使用道具 举报

0

主题

143

帖子

327

积分

中级会员

Rank: 3Rank: 3

积分
327
发表于 3 天前 | 显示全部楼层
感謝無私分享好片
回复

使用道具 举报

您需要登录后才可以回帖 登录 | 立即注册

本版积分规则

QQ|Archiver|手机版|小黑屋|原盘天堂 好多盘 点击这里给我发消息

GMT+8, 2021-9-16 23:26 , Processed in 0.052126 second(s), 25 queries .

Powered by Discuz! X3.4

Copyright © 2001-2020, Tencent Cloud.

快速回复 返回顶部 返回列表