请选择 进入手机版 | 继续访问电脑版
本站Q群713428235【盘盘多】已满,请新会员加原盘天堂新官方QQ群709708625【好多盘】,验证信息填写您在论坛的会员名,不填会员名的无法入群哈,进群后修改您的群名片名字为您在论坛的会员名,请务必修改,否则群成员多了不知道您是哪个会员。

原盘天堂

 找回密码
 立即注册
京东商城当当华为商城名牌时尚折扣网,一个新型的网上购物平台,我们每周为您精选3~4个国际知名品牌,商品折扣低至2折限时限量售卖,商品囊括时装、护肤品、箱包、皮具、配饰、香水等等,琳琅满目。亿格瑞A10硬盘播放器 苏宁易购
查看: 52|回复: 2

2d蓝光原盘remux 赛车女孩 英语原版 lady.driver.2020.1080p.bluray.remux.avc.dts-hd.ma.5.1[16.55 GB]

[复制链接]

6260

主题

7000

帖子

133万

积分

管理员

Rank: 18Rank: 18Rank: 18Rank: 18Rank: 18

积分
1337486
发表于 6 天前 | 显示全部楼层 |阅读模式






◎译  名 赛车女孩/女司机
◎片  名 Lady Driver
◎年  代 2020
◎产  地 美国
◎类  别 运动
◎语  言 英语
◎上映日期 2020-05-02(美国)
◎豆瓣评分 6.2/10 from 177 users
◎豆瓣链接 https://movie.douban.com/subject/35056463/
◎片  长 104分钟
◎编  剧 约翰·杜西 John Ducey
◎主  演 格瑞思·范·迪恩 Grace Van Dien
       肖恩·派特里克·弗兰纳里 Sean Patrick Flanery
       克里斯蒂娜·摩尔 Christina Moore
       卡斯帕·范·迪恩 Casper Van Dien
       阿曼达·达特曼 Amanda Detmer
       约翰·杜西 John Ducey
       大卫·格里德利 David Gridley
        Jack Kelly
       塞思·梅里韦瑟 Seth Meriwether
       克里斯托弗·迈克尔·霍利 Christopher Michael Holley
       阿里·阿夫沙尔 Ali Afshar
       威廉·W·巴伯 William W. Barbour
       迈克尔·J·格温 Michael J. Gwynn
       杰夫·里帕瑞 Jeff Lipary
       霍梅洛·洛佩兹 Homero Lopez
       安妮-玛丽·奥尔森 Anne-Marie Olsen

◎标  签 赛车 | 女性 | 美国 | 青春 | 家庭 | 2020 | 电影-剧情-体育运动类 | 人性

◎简  介

  当一个叛逆的青少年开始一个独自的夏季旅程,与她的根连接,她发现自己在一个新的世界,准备她的生活的旅途,并发现她有驱动器在她的一直。

Video
ID : 1
ID in the original source medium : 4113 (0x1011)
Format : AVC
Format/Info : Advanced Video Codec
Format profile : [email protected]
Format settings : CABAC / 4 Ref Frames
Format settings, CABAC : Yes
Format settings, Reference frames : 4 frames
Codec ID : V_MPEG4/ISO/AVC
Duration : 1 h 44 min
Bit rate mode : Variable
Bit rate : 21.0 Mb/s
Maximum bit rate : 35.0 Mb/s
Width : 1 920 pixels
Height : 1 080 pixels
Display aspect ratio : 16:9
Frame rate mode : Constant
Frame rate : 23.976 (24000/1001) FPS
Standard : Component
Color space : YUV
Chroma subsampling : 4:2:0
Bit depth : 8 bits
Scan type : Progressive
Bits/(Pixel*Frame) : 0.422
Stream size : 15.3 GiB (93%)
Writing library : x264 core 155
Encoding settings : cabac=1 / ref=4 / deblock=1:0:0 / analyse=0x3:0x133 / me=umh / subme=9 / psy=1 / psy_rd=1.00:0.00 / mixed_ref=1 / me_range=16 / chroma_me=1 / trellis=2 / 8x8dct=1 / cqm=1 / deadzone=21,11 / fast_pskip=1 / chroma_qp_offset=-2 / threads=24 / lookahead_threads=2 / sliced_threads=0 / slices=4 / nr=0 / decimate=1 / interlaced=0 / minigop=1 / stitchable=1 / constrained_intra=0 / bframes=3 / b_pyramid=0 / b_adapt=2 / b_bias=0 / direct=3 / weightb=1 / open_gop=1 / weightp=1 / keyint=24 / keyint_min=1 / scenecut=40 / intra_refresh=0 / rc_lookahead=24 / rc=2pass / mbtree=1 / bitrate=21000 / ratetol=1.0 / qcomp=0.60 / qpmin=3 / qpmax=69 / qpstep=4 / cplxblur=20.0 / qblur=0.5 / vbv_maxrate=35000 / vbv_bufsize=30000 / nal_hrd=vbr / filler=0 / ip_ratio=1.40 / aq=1:1.00
Language : English
Default : No
Forced : No
Color range : Limited
Color primaries : BT.709
Transfer characteristics : BT.709
Matrix coefficients : BT.709
Original source medium : Blu-ray

Audio
ID : 2
ID in the original source medium : 4353 (0x1101)
Format : DTS XLL
Format/Info : Digital Theater Systems
Commercial name : DTS-HD Master Audio
Codec ID : A_DTS
Duration : 1 h 44 min
Bit rate mode : Variable
Bit rate : 1 680 kb/s
Channel(s) : 6 channels
Channel layout : C L R Ls Rs LFE
Sampling rate : 48.0 kHz
Frame rate : 93.750 FPS (512 SPF)
Bit depth : 16 bits
Compression mode : Lossless
Stream size : 1.23 GiB (7%)
Title : DTS-HD MA 5.1
Language : English
Default : Yes
Forced : No
Original source medium : Blu-ray

Text
ID : 3
Format : UTF-8
Codec ID : S_TEXT/UTF8
Codec ID/Info : UTF-8 Plain Text
Duration : 1 h 40 min
Bit rate : 70 b/s
Count of elements : 1864
Stream size : 52.2 KiB (0%)
Language : English
Default : No
Forced : No

Menu
00:00:00.000 : Chapter 01
00:09:01.582 : Chapter 02
00:20:19.176 : Chapter 03
00:26:33.216 : Chapter 04
00:36:42.783 : Chapter 05
00:52:55.297 : Chapter 06
01:07:11.152 : Chapter 07
01:22:55.178 : Chapter 08
01:35:22.967 : Chapter 09

本帖子中包含更多资源

您需要 登录 才可以下载或查看,没有帐号?立即注册

x
回复

使用道具 举报

0

主题

101

帖子

497

积分

中级会员

Rank: 3Rank: 3

积分
497
发表于 5 天前 | 显示全部楼层
好片子,先来看看
回复

使用道具 举报

0

主题

143

帖子

327

积分

中级会员

Rank: 3Rank: 3

积分
327
发表于 5 天前 | 显示全部楼层
好看,感謝無私分享
回复

使用道具 举报

您需要登录后才可以回帖 登录 | 立即注册

本版积分规则

QQ|Archiver|手机版|小黑屋|原盘天堂 好多盘 点击这里给我发消息

GMT+8, 2021-9-17 00:19 , Processed in 0.058245 second(s), 25 queries .

Powered by Discuz! X3.4

Copyright © 2001-2020, Tencent Cloud.

快速回复 返回顶部 返回列表