请选择 进入手机版 | 继续访问电脑版
本站Q群713428235【盘盘多】已满,请新会员加原盘天堂新官方QQ群709708625【好多盘】,验证信息填写您在论坛的会员名,不填会员名的无法入群哈,进群后修改您的群名片名字为您在论坛的会员名,请务必修改,否则群成员多了不知道您是哪个会员。

原盘天堂

 找回密码
 立即注册
京东商城当当华为商城名牌时尚折扣网,一个新型的网上购物平台,我们每周为您精选3~4个国际知名品牌,商品折扣低至2折限时限量售卖,商品囊括时装、护肤品、箱包、皮具、配饰、香水等等,琳琅满目。亿格瑞A10硬盘播放器 苏宁易购
查看: 42|回复: 0

2d蓝光原盘remux 丛林巡航 英语原版 jungle.run.2021.1080p.bluray.remux.avc.dts-hd.ma.5.1[17.46 GB]

[复制链接]

6260

主题

7000

帖子

133万

积分

管理员

Rank: 18Rank: 18Rank: 18Rank: 18Rank: 18

积分
1337486
发表于 5 天前 | 显示全部楼层 |阅读模式






◎译  名 丛林巡航/丛林大逃亡
◎片  名 Jungle Run
◎年  代 2021
◎产  地 美国
◎类  别 动作
◎语  言 英语
◎上映日期 2021-06-25(美国)
◎豆瓣评分 3.4/10 from 58 users
◎豆瓣链接 https://movie.douban.com/subject/35507662/
◎片  长 85分钟
◎主  演 理查德·格里克 Richard Grieco
       艾莉森·戈尔斯克 Alyson Gorske
       杰克·皮尔森 Jack Pearson

◎标  签 2021 | 冒险 | 特效如渣 | 美国 | 惊悚 | 美国电影 | 欧美电影 | 恐怖

◎简  介

  Sibling adventurers come under attack from jungle animals while searching for their missing father. As they fight back against the relentless onslaught, they soon start to realize something much more sinister is happening.

      兄弟姐妹的冒险家在寻找失踪的父亲时受到丛林动物的袭击。当他们反击无情的攻击时,他们很快就开始意识到更可怕的事情正在发生。

Video
ID : 1
ID in the original source medium : 4113 (0x1011)
Format : AVC
Format/Info : Advanced Video Codec
Format profile : [email protected]
Format settings : CABAC / 4 Ref Frames
Format settings, CABAC : Yes
Format settings, Reference frames : 4 frames
Codec ID : V_MPEG4/ISO/AVC
Duration : 1 h 25 min
Bit rate mode : Variable
Bit rate : 25.2 Mb/s
Maximum bit rate : 30.0 Mb/s
Width : 1 920 pixels
Height : 1 080 pixels
Display aspect ratio : 16:9
Frame rate mode : Constant
Frame rate : 23.976 (24000/1001) FPS
Color space : YUV
Chroma subsampling : 4:2:0
Bit depth : 8 bits
Scan type : Progressive
Bits/(Pixel*Frame) : 0.506
Stream size : 15.1 GiB (86%)
Language : English
Default : No
Forced : No
Color range : Limited
Color primaries : BT.709
Transfer characteristics : BT.709
Matrix coefficients : BT.709
Original source medium : Blu-ray

Audio
ID : 2
ID in the original source medium : 4353 (0x1101)
Format : DTS XLL
Format/Info : Digital Theater Systems
Commercial name : DTS-HD Master Audio
Codec ID : A_DTS
Duration : 1 h 25 min
Bit rate mode : Variable
Bit rate : 4 012 kb/s
Channel(s) : 6 channels
Channel layout : C L R Ls Rs LFE
Sampling rate : 48.0 kHz
Frame rate : 93.750 FPS (512 SPF)
Bit depth : 24 bits
Compression mode : Lossless
Stream size : 2.40 GiB (14%)
Title : DTS-HD MA 5.1
Language : English
Default : Yes
Forced : No
Original source medium : Blu-ray

Text #1
ID : 3
Format : UTF-8
Codec ID : S_TEXT/UTF8
Codec ID/Info : UTF-8 Plain Text
Duration : 40 min 58 s
Bit rate : 4 b/s
Count of elements : 41
Stream size : 1.34 KiB (0%)
Title : FORCED
Language : English
Default : Yes
Forced : Yes

Text #2
ID : 4
Format : UTF-8
Codec ID : S_TEXT/UTF8
Codec ID/Info : UTF-8 Plain Text
Duration : 1 h 20 min
Bit rate : 52 b/s
Count of elements : 1195
Stream size : 30.7 KiB (0%)
Language : English
Default : No
Forced : No

Text #3
ID : 5
ID in the original source medium : 4609 (0x1201)
Format : PGS
Muxing mode : zlib
Codec ID : S_HDMV/PGS
Codec ID/Info : Picture based subtitle format used on BDs/HD-DVDs
Duration : 40 min 58 s
Bit rate : 2 261 b/s
Count of elements : 81
Stream size : 679 KiB (0%)
Language : English
Default : No
Forced : No
Original source medium : Blu-ray

Menu
00:00:00.000 : Chapter 01
00:03:52.482 : Chapter 02
00:10:09.692 : Chapter 03
00:21:12.312 : Chapter 04
00:30:02.008 : Chapter 05
00:40:14.078 : Chapter 06
00:50:43.832 : Chapter 07
01:02:10.560 : Chapter 08
01:11:01.423 : Chapter 09
01:21:57.829 : Chapter 10

本帖子中包含更多资源

您需要 登录 才可以下载或查看,没有帐号?立即注册

x
回复

使用道具 举报

您需要登录后才可以回帖 登录 | 立即注册

本版积分规则

QQ|Archiver|手机版|小黑屋|原盘天堂 好多盘 点击这里给我发消息

GMT+8, 2021-9-16 23:15 , Processed in 0.050903 second(s), 25 queries .

Powered by Discuz! X3.4

Copyright © 2001-2020, Tencent Cloud.

快速回复 返回顶部 返回列表