请选择 进入手机版 | 继续访问电脑版
本站Q群713428235【盘盘多】已满,请新会员加原盘天堂新官方QQ群709708625【好多盘】,验证信息填写您在论坛的会员名,不填会员名的无法入群哈,进群后修改您的群名片名字为您在论坛的会员名,请务必修改,否则群成员多了不知道您是哪个会员。

原盘天堂

 找回密码
 立即注册
京东商城当当华为商城名牌时尚折扣网,一个新型的网上购物平台,我们每周为您精选3~4个国际知名品牌,商品折扣低至2折限时限量售卖,商品囊括时装、护肤品、箱包、皮具、配饰、香水等等,琳琅满目。亿格瑞A10硬盘播放器 苏宁易购
查看: 40|回复: 0

2d蓝光原盘remux 小行星大末日 英语原版 asteroid.a.geddon.2020.1080p.bluray.remux.avc.dts-hd.ma.5.1[17.48 GB]

[复制链接]

6260

主题

7000

帖子

133万

积分

管理员

Rank: 18Rank: 18Rank: 18Rank: 18Rank: 18

积分
1337486
发表于 5 天前 | 显示全部楼层 |阅读模式






◎译  名 小行星大末日
◎片  名 Asteroid-a-Geddon
◎年  代 2020
◎产  地 美国
◎类  别 动作
◎语  言 英语
◎上映日期 2020-10-23(美国)
◎豆瓣评分 /10 from 0 users
◎豆瓣链接 https://movie.douban.com/subject/35237360/
◎片  长 87分钟
◎导  演 吉奥夫·米德 Geoff Meed
◎编  剧 吉奥夫·米德 Geoff Meed
◎主  演 埃里克·罗伯茨 Eric Roberts
       克雷格·格利斯 Craig Gellis
       雷吉娜·麦基·雷德翁 Regina McKee Redwing
       肖恩 C.菲利普斯 Shawn C. Phillips

◎标  签 科幻 | 灾难 | 美国电影 | 美国 | 动作 | 剧情 | 2020 | 睡着了

◎简  介

  A global scientific summit debates and fails on a plan to stop a massive asteroid heading straight for Earth, with all countries blaming each other for the impeding disaster. With communications tense, the daughter of a tech billionaire assembles her own team of specialists to try to destroy the asteroid before it is too late.

      一次全球科学峰会辩论并失败了阻止一颗巨大的小行星直接向地球驶去的计划,所有国家都对这场灾难的阻碍相互指责。在通讯紧张的情况下,一位科技亿万富翁的女儿召集自己的专家团队,试图在为时已晚之前摧毁这颗小行星。

Video
ID : 1
ID in the original source medium : 4113 (0x1011)
Format : AVC
Format/Info : Advanced Video Codec
Format profile : [email protected]
Format settings : CABAC / 4 Ref Frames
Format settings, CABAC : Yes
Format settings, Reference frames : 4 frames
Codec ID : V_MPEG4/ISO/AVC
Duration : 1 h 27 min
Bit rate mode : Variable
Bit rate : 25.1 Mb/s
Maximum bit rate : 30.0 Mb/s
Width : 1 920 pixels
Height : 1 080 pixels
Display aspect ratio : 16:9
Frame rate mode : Constant
Frame rate : 23.976 (24000/1001) FPS
Color space : YUV
Chroma subsampling : 4:2:0
Bit depth : 8 bits
Scan type : Progressive
Bits/(Pixel*Frame) : 0.504
Stream size : 15.3 GiB (87%)
Language : English
Default : No
Forced : No
Color range : Limited
Color primaries : BT.709
Transfer characteristics : BT.709
Matrix coefficients : BT.709
Original source medium : Blu-ray

Audio
ID : 2
ID in the original source medium : 4353 (0x1101)
Format : DTS XLL
Format/Info : Digital Theater Systems
Commercial name : DTS-HD Master Audio
Codec ID : A_DTS
Duration : 1 h 27 min
Bit rate mode : Variable
Bit rate : 3 647 kb/s
Channel(s) : 6 channels
Channel layout : C L R Ls Rs LFE
Sampling rate : 48.0 kHz
Frame rate : 93.750 FPS (512 SPF)
Bit depth : 24 bits
Compression mode : Lossless
Stream size : 2.22 GiB (13%)
Title : DTS-HD MA 5.1
Language : English
Default : Yes
Forced : No
Original source medium : Blu-ray

Text #1
ID : 3
Format : UTF-8
Codec ID : S_TEXT/UTF8
Codec ID/Info : UTF-8 Plain Text
Duration : 1 h 19 min
Bit rate : 0 b/s
Count of elements : 13
Stream size : 364 Bytes (0%)
Title : FORCED
Language : English
Default : Yes
Forced : Yes

Text #2
ID : 4
Format : UTF-8
Codec ID : S_TEXT/UTF8
Codec ID/Info : UTF-8 Plain Text
Duration : 1 h 21 min
Bit rate : 79 b/s
Count of elements : 1435
Stream size : 47.9 KiB (0%)
Language : English
Default : No
Forced : No

Text #3
ID : 5
ID in the original source medium : 4609 (0x1201)
Format : PGS
Muxing mode : zlib
Codec ID : S_HDMV/PGS
Codec ID/Info : Picture based subtitle format used on BDs/HD-DVDs
Duration : 1 h 19 min
Bit rate : 353 b/s
Count of elements : 25
Stream size : 207 KiB (0%)
Language : English
Default : No
Forced : No
Original source medium : Blu-ray

Menu
00:00:00.000 : Chapter 01
00:09:17.181 : Chapter 02
00:20:00.532 : Chapter 03
00:28:19.280 : Chapter 04
00:38:47.950 : Chapter 05
00:49:59.496 : Chapter 06
00:59:56.968 : Chapter 07
01:09:44.180 : Chapter 08
01:20:04.841 : Chapter 09
01:23:59.617 : Chapter 10

本帖子中包含更多资源

您需要 登录 才可以下载或查看,没有帐号?立即注册

x
回复

使用道具 举报

您需要登录后才可以回帖 登录 | 立即注册

本版积分规则

QQ|Archiver|手机版|小黑屋|原盘天堂 好多盘 点击这里给我发消息

GMT+8, 2021-9-16 23:40 , Processed in 0.051241 second(s), 25 queries .

Powered by Discuz! X3.4

Copyright © 2001-2020, Tencent Cloud.

快速回复 返回顶部 返回列表