请选择 进入手机版 | 继续访问电脑版
本站Q群713428235【盘盘多】已满,请新会员加原盘天堂新官方QQ群709708625【好多盘】,验证信息填写您在论坛的会员名,不填会员名的无法入群哈,进群后修改您的群名片名字为您在论坛的会员名,请务必修改,否则群成员多了不知道您是哪个会员。

原盘天堂

 找回密码
 立即注册
京东商城当当华为商城名牌时尚折扣网,一个新型的网上购物平台,我们每周为您精选3~4个国际知名品牌,商品折扣低至2折限时限量售卖,商品囊括时装、护肤品、箱包、皮具、配饰、香水等等,琳琅满目。亿格瑞A10硬盘播放器 苏宁易购
查看: 36|回复: 2

2d蓝光原盘bdmv 小镇缉凶 英语原版 the.dry.2021.1080p.bluray.avc.dts-hd.ma.5.1[28.12 GB]

[复制链接]

6260

主题

7000

帖子

133万

积分

管理员

Rank: 18Rank: 18Rank: 18Rank: 18Rank: 18

积分
1337486
发表于 6 天前 | 显示全部楼层 |阅读模式








◎译  名 小镇缉凶/迷雾中的小镇
◎片  名 The Dry
◎年  代 2021
◎产  地 澳大利亚/美国
◎类  别 剧情
◎语  言 英语
◎上映日期 2021-01-01(澳大利亚)
◎IMDb评分  6.9/10 from 14974 users
◎IMDb链接  https://www.imdb.com/title/tt5144174/
◎豆瓣评分 6.8/10 from 2314 users
◎豆瓣链接 https://douban.com/subject/30391270/
◎片  长 117分钟
◎导  演 罗伯特·康诺利 Robert Connolly
◎编  剧 罗伯特·康诺利 Robert Connolly / 萨曼莎·斯特劳斯 Samantha Strauss / 哈里·克里普斯 Harry Cripps
◎主  演 艾瑞克·巴纳 Eric Bana
       吉娜薇·欧瑞丽 Genevieve O'Reilly
       基尔·奥唐纳 Keir O'Donnell
       约翰·波尔森 John Polson
       朱丽娅·布莱克 Julia Blake
       布鲁斯·斯宾斯 Bruce Spence
       威廉·扎帕 William Zappa
       马特·纳夫莱 Matt Nable
       詹姆斯·弗兰切威勒 James Frecheville
       杰里米·林赛·泰勒 Jeremy Lindsay Taylor
       乔·克洛塞克 Joe Klocek
       碧比·贝登科特 BeBe Bettencourt
       克劳德·斯科特-米歇尔 Claude Scott-Mitchell
       山姆·科利特 Sam Corlett

◎标  签 悬疑 | 犯罪 | 澳大利亚 | 剧情 | 人性 | 2020 | 美国 | 家庭

◎简  介

  
  艾瑞克·巴纳加盟澳大利亚新片[小镇缉凶](The Dry,暂译)。影片改编自简·哈珀同名畅销小说,罗伯特·康诺利(《深暗势力》)自编自导,巴纳、康诺利共同担任监制。影片围绕一个警察回到老家侦破凶案展开,明年二月开机。这也是巴纳自2007年的[我的父亲,罗穆卢斯]后再度拍摄澳大利亚影片。
  
DISC INFO:

Disc Title:     The.Dry.2020.1080p.BluRay.AVC.DTS-HD.MA.5.1-BAKED
Disc Size:      30,188,529,022 bytes
Protection:     AACS
BDInfo:         0.7.5.9 (compatible layout created by DVDFab 12.0.4.5)

PLAYLIST REPORT:

Name:                   00162.MPLS  
Length:                 1:57:16.458 (h:m:s.ms)
Size:                   23,753,011,200 bytes
Total Bitrate:          27.01 Mbps

VIDEO:

Codec                   Bitrate             Description     
-----                   -------             -----------     
MPEG-4 AVC Video        21995 kbps          1080p / 24 fps / 16:9 / High Profile 4.1

AUDIO:

Codec                           Language        Bitrate         Description     
-----                           --------        -------         -----------     
DTS-HD Master Audio             English         2171 kbps       5.1 / 48 kHz / 2171 kbps / 16-bit (DTS Core: 5.1 / 48 kHz / 1509 kbps / 16-bit)
Dolby Digital Audio             English         640 kbps        2.0 / 48 kHz / 640 kbps
Dolby Digital Audio             English         640 kbps        2.0 / 48 kHz / 640 kbps

SUBTITLES:

Codec                           Language        Bitrate         Description     
-----                           --------        -------         -----------     
Presentation Graphics           English         34.099 kbps   


Video
ID : 1
ID in the original source medium : 4113 (0x1011)
Format : AVC
Format/Info : Advanced Video Codec
Format profile : [email protected]
Format settings : CABAC / 4 Ref Frames
Format settings, CABAC : Yes
Format settings, Reference frames : 4 frames
Codec ID : V_MPEG4/ISO/AVC
Duration : 1 h 57 min
Bit rate mode : Variable
Bit rate : 21.7 Mb/s
Maximum bit rate : 38.0 Mb/s
Width : 1 920 pixels
Height : 1 080 pixels
Display aspect ratio : 16:9
Frame rate mode : Constant
Frame rate : 24.000 FPS
Color space : YUV
Chroma subsampling : 4:2:0
Bit depth : 8 bits
Scan type : Progressive
Bits/(Pixel*Frame) : 0.436
Stream size : 17.8 GiB (86%)
Language : English
Default : No
Forced : No
Original source medium : Blu-ray

Audio #1
ID : 2
ID in the original source medium : 4352 (0x1100)
Format : DTS XLL
Format/Info : Digital Theater Systems
Commercial name : DTS-HD Master Audio
Codec ID : A_DTS
Duration : 1 h 57 min
Bit rate mode : Variable
Bit rate : 2 171 kb/s
Channel(s) : 6 channels
Channel layout : C L R Ls Rs LFE
Sampling rate : 48.0 kHz
Frame rate : 93.750 FPS (512 SPF)
Bit depth : 16 bits
Compression mode : Lossless
Stream size : 1.78 GiB (9%)
Title : DTS-HD MA 5.1
Language : English
Default : Yes
Forced : No
Original source medium : Blu-ray

Audio #2
ID : 3
ID in the original source medium : 4353 (0x1101)
Format : AC-3
Format/Info : Audio Coding 3
Commercial name : Dolby Digital
Codec ID : A_AC3
Duration : 1 h 57 min
Bit rate mode : Constant
Bit rate : 640 kb/s
Channel(s) : 2 channels
Channel layout : L R
Sampling rate : 48.0 kHz
Frame rate : 31.250 FPS (1536 SPF)
Compression mode : Lossy
Stream size : 537 MiB (3%)
Title : DD 2.0
Language : English
Service kind : Complete Main
Default : No
Forced : No
Original source medium : Blu-ray

Audio #3
ID : 4
ID in the original source medium : 4354 (0x1102)
Format : AC-3
Format/Info : Audio Coding 3
Commercial name : Dolby Digital
Codec ID : A_AC3
Duration : 1 h 57 min
Bit rate mode : Constant
Bit rate : 640 kb/s
Channel(s) : 2 channels
Channel layout : L R
Sampling rate : 48.0 kHz
Frame rate : 31.250 FPS (1536 SPF)
Compression mode : Lossy
Stream size : 537 MiB (3%)
Title : DD 2.0
Language : English
Service kind : Complete Main
Default : No
Forced : No
Original source medium : Blu-ray

Text #1
ID : 5
Format : UTF-8
Codec ID : S_TEXT/UTF8
Codec ID/Info : UTF-8 Plain Text
Duration : 1 h 53 min
Bit rate : 47 b/s
Count of elements : 1351
Stream size : 39.5 KiB (0%)
Title : SRT
Language : English
Default : Yes
Forced : No

Text #2
ID : 6
ID in the original source medium : 4608 (0x1200)
Format : PGS
Muxing mode : zlib
Codec ID : S_HDMV/PGS
Codec ID/Info : Picture based subtitle format used on BDs/HD-DVDs
Duration : 1 h 54 min
Bit rate : 35.1 kb/s
Count of elements : 3239
Stream size : 28.6 MiB (0%)
Language : English
Default : No
Forced : No
Original source medium : Blu-ray

Menu
00:00:00.000 : Chapter 01
00:10:18.125 : Chapter 02
00:18:41.250 : Chapter 03
00:27:51.458 : Chapter 04
00:37:40.208 : Chapter 05
00:45:57.000 : Chapter 06
00:55:04.041 : Chapter 07
01:03:10.875 : Chapter 08
01:15:37.541 : Chapter 09
01:24:29.375 : Chapter 10
01:32:51.208 : Chapter 11
01:45:40.666 : Chapter 12

本帖子中包含更多资源

您需要 登录 才可以下载或查看,没有帐号?立即注册

x
回复

使用道具 举报

0

主题

584

帖子

2990

积分

金牌会员

Rank: 6Rank: 6

积分
2990
发表于 5 天前 | 显示全部楼层
感谢分享,支持一下,
回复

使用道具 举报

0

主题

143

帖子

327

积分

中级会员

Rank: 3Rank: 3

积分
327
发表于 前天 10:39 | 显示全部楼层
好片,感無私分享
回复

使用道具 举报

您需要登录后才可以回帖 登录 | 立即注册

本版积分规则

QQ|Archiver|手机版|小黑屋|原盘天堂 好多盘 点击这里给我发消息

GMT+8, 2021-9-16 23:33 , Processed in 0.103940 second(s), 25 queries .

Powered by Discuz! X3.4

Copyright © 2001-2020, Tencent Cloud.

快速回复 返回顶部 返回列表