请选择 进入手机版 | 继续访问电脑版
本站Q群713428235【盘盘多】已满,请新会员加原盘天堂新官方QQ群709708625【好多盘】,验证信息填写您在论坛的会员名,不填会员名的无法入群哈,进群后修改您的群名片名字为您在论坛的会员名,请务必修改,否则群成员多了不知道您是哪个会员。

原盘天堂

 找回密码
 立即注册
京东商城当当华为商城名牌时尚折扣网,一个新型的网上购物平台,我们每周为您精选3~4个国际知名品牌,商品折扣低至2折限时限量售卖,商品囊括时装、护肤品、箱包、皮具、配饰、香水等等,琳琅满目。亿格瑞A10硬盘播放器 苏宁易购
查看: 64|回复: 3

4k蓝光原盘bdmv 怪形 英语原版 the.thing.1982.2160p.bluray.hevc.dts-x.7.1[84.26 GB]

[复制链接]

6260

主题

7000

帖子

133万

积分

管理员

Rank: 18Rank: 18Rank: 18Rank: 18Rank: 18

积分
1337486
发表于 2021-9-9 09:52:15 | 显示全部楼层 |阅读模式








◎译  名 怪形/突变第三型(台)
◎片  名 The Thing
◎年  代 1982
◎产  地 美国
◎类  别 科幻/悬疑/恐怖
◎语  言 英语/挪威语
◎上映日期 1982-06-25
◎IMDb链接  https://www.imdb.com/title/tt0084787/
◎豆瓣评分 8.0/10 from 39315 users
◎豆瓣链接 https://douban.com/subject/1296794/
◎片  长 109 分钟
◎导  演 约翰·卡朋特 John Carpenter
◎编  剧 比尔·兰卡斯特 Bill Lancaster / 小约翰·W·坎贝尔 John W. Campbell Jr.
◎主  演 库尔特·拉塞尔 Kurt Russell
       威尔福德·布利姆雷 Wilford Brimley
       TK·卡特 T.K. Carter
       大卫·科列侬 David Clennon
       凯斯·大卫 Keith David
       理查德·戴萨特 Richard Dysart
       查尔斯·哈拉汉 Charles Hallahan
       理查德·马苏尔 Richard Masur
       唐纳德·莫法特 Donald Moffat
       乔尔·波利斯 Joel Polis
       托马斯沃特斯 Thomas G. Waites
       诺伯特·魏塞尔 Norbert Weisser
       拉瑞·弗兰科 Larry J. Franco
       纳特·欧文 Nate Irwin
       阿德里安娜·巴比欧 Adrienne Barbeau
       约翰·卡朋特 John Carpenter
       杰德 Jed

◎标  签 科幻 | 恐怖 | 惊悚 | 美国 | 1982 | 悬疑 | 血腥 | 美国电影

◎简  介

  
  1982年冬天,挪威科考队的一架直升机突然打破了南极大陆的平静,直升机疯狂的追逐一只雪橇犬,最后坠毁在美国科考营地的附近。美国科考队员对挪威考察队近期人员骤减的情况有所耳闻,于是飞行员麦克(Kurt Russell 饰)与众人赶赴挪威营地,结果看到的是一地破败中四处散落着奇怪的尸体,并有证据表明挪威人得到了某种冰封状态中的生物。医生布莱尔(Wilford Brimley 饰)研究了尸体的变异却无法破解成因。当晚,犬笼中的狗遭到袭击并发生了变异,一种不可知的生物正在这孤寂的南极大陆威胁着科考队员们的生命……
  
  本片翻拍自1951年由霍华德•霍克斯指导的《The Thing From Another World》。
  
DISC INFO:

Disc Title:     The.Thing.1982.2160p.BluRay.HEVC.DTS-X.7.1-TASTED
Disc Size:      90,449,680,664 bytes
Protection:     AACS2
Extras:         Ultra HD, BD-Java
BDInfo:         0.7.5.9 (compatible layout created by DVDFab 12.0.4.5)

PLAYLIST REPORT:

Name:                   00800.MPLS  
Length:                 1:48:35.091 (h:m:s.ms)
Size:                   80,322,594,816 bytes
Total Bitrate:          98.63 Mbps

VIDEO:

Codec                   Bitrate             Description     
-----                   -------             -----------     
MPEG-H HEVC Video       85502 kbps          2160p / 23.976 fps / 16:9 / Main 10 @ Level 5.1 @ High / 4:2:0 / 10 bits / 1000nits / HDR10 / BT.2020

AUDIO:

Codec                           Language        Bitrate         Description     
-----                           --------        -------         -----------     
DTS:X Master Audio              English         6697 kbps       7.1-X / 48 kHz / 6697 kbps / 24-bit (DTS Core: 5.1 / 48 kHz / 1509 kbps / 24-bit)
DTS Audio                       Spanish         768 kbps        2.0 / 48 kHz / 768 kbps / 24-bit
DTS Audio                       French          768 kbps        5.1 / 48 kHz / 768 kbps / 24-bit
Dolby Digital Audio             English         192 kbps        2.0 / 48 kHz / 192 kbps / Dolby Surround

SUBTITLES:

Codec                           Language        Bitrate         Description     
-----                           --------        -------         -----------     
Presentation Graphics           English         20.599 kbps                     
Presentation Graphics           Spanish         18.361 kbps                     
Presentation Graphics           French          14.148 kbps                     
Presentation Graphics           English         77.186 kbps                     
Presentation Graphics           Spanish         0.062 kbps                     
Presentation Graphics           French          0.201 kbps   

Video
ID : 1
ID in the original source medium : 4113 (0x1011)
Format : HEVC
Format/Info : High Efficiency Video Coding
Format profile : Main [email protected]@High
HDR format : SMPTE ST 2086, HDR10 compatible
Codec ID : V_MPEGH/ISO/HEVC
Duration : 1 h 48 min
Bit rate : 85.5 Mb/s
Width : 3 840 pixels
Height : 2 160 pixels
Display aspect ratio : 16:9
Frame rate mode : Constant
Frame rate : 23.976 (24000/1001) FPS
Color space : YUV
Chroma subsampling : 4:2:0 (Type 2)
Bit depth : 10 bits
Bits/(Pixel*Frame) : 0.430
Stream size : 64.9 GiB (89%)
Language : English
Default : No
Forced : No
Color range : Limited
Color primaries : BT.2020
Transfer characteristics : PQ
Matrix coefficients : BT.2020 non-constant
Mastering display color primaries : Display P3
Mastering display luminance : min: 0.0050 cd/m2, max: 1000 cd/m2
Maximum Content Light Level : 1000 cd/m2
Maximum Frame-Average Light Level : 323 cd/m2
Original source medium : Blu-ray

Audio #1
ID : 2
ID in the original source medium : 4352 (0x1100)
Format : DTS XLL X
Format/Info : Digital Theater Systems
Commercial name : DTS-HD Master Audio
Codec ID : A_DTS
Duration : 1 h 48 min
Bit rate mode : Variable
Bit rate : 6 697 kb/s
Channel(s) : 8 channels
Channel(s)_Original : Object Based
ChannelLayout_Original : Object Based
Sampling rate : 48.0 kHz
Frame rate : 93.750 FPS (512 SPF)
Bit depth : 24 bits
Stream size : 5.08 GiB (7%)
Title : DTS-X 7.1
Language : English
Default : Yes
Forced : No
Original source medium : Blu-ray

Audio #2
ID : 3
Format : AC-3
Format/Info : Audio Coding 3
Commercial name : Dolby Digital
Codec ID : A_AC3
Duration : 1 h 48 min
Bit rate mode : Constant
Bit rate : 640 kb/s
Channel(s) : 6 channels
Channel layout : L R C LFE Ls Rs
Sampling rate : 48.0 kHz
Frame rate : 31.250 FPS (1536 SPF)
Compression mode : Lossy
Stream size : 497 MiB (1%)
Title : DD 5.1
Language : English
Service kind : Complete Main
Default : No
Forced : No

Audio #3
ID : 4
ID in the original source medium : 4352 (0x1100)
Format : DTS
Format/Info : Digital Theater Systems
Codec ID : A_DTS
Duration : 1 h 48 min
Bit rate mode : Constant
Bit rate : 1 509 kb/s
Channel(s) : 6 channels
Channel layout : C L R Ls Rs LFE
Sampling rate : 48.0 kHz
Frame rate : 93.750 FPS (512 SPF)
Bit depth : 24 bits
Compression mode : Lossy
Stream size : 1.14 GiB (2%)
Title : DTS 5.1
Language : English
Default : No
Forced : No
Original source medium : Blu-ray

Audio #4
ID : 5
ID in the original source medium : 4353 (0x1101)
Format : DTS
Format/Info : Digital Theater Systems
Codec ID : A_DTS
Duration : 1 h 48 min
Bit rate mode : Constant
Bit rate : 768 kb/s
Channel(s) : 2 channels
Channel layout : L R
Sampling rate : 48.0 kHz
Frame rate : 93.750 FPS (512 SPF)
Bit depth : 24 bits
Compression mode : Lossy
Stream size : 596 MiB (1%)
Title : DTS 2.0
Language : Spanish
Default : No
Forced : No
Original source medium : Blu-ray

Audio #5
ID : 6
ID in the original source medium : 4354 (0x1102)
Format : DTS
Format/Info : Digital Theater Systems
Codec ID : A_DTS
Duration : 1 h 48 min
Bit rate mode : Constant
Bit rate : 768 kb/s
Channel(s) : 6 channels
Channel layout : C L R Ls Rs LFE
Sampling rate : 48.0 kHz
Frame rate : 93.750 FPS (512 SPF)
Bit depth : 24 bits
Compression mode : Lossy
Stream size : 596 MiB (1%)
Title : DTS 5.1
Language : French
Default : No
Forced : No
Original source medium : Blu-ray

Audio #6
ID : 7
ID in the original source medium : 4355 (0x1103)
Format : AC-3
Format/Info : Audio Coding 3
Commercial name : Dolby Digital
Format settings : Dolby Surround
Codec ID : A_AC3
Duration : 1 h 48 min
Bit rate mode : Constant
Bit rate : 192 kb/s
Channel(s) : 2 channels
Channel layout : L R
Sampling rate : 48.0 kHz
Frame rate : 31.250 FPS (1536 SPF)
Compression mode : Lossy
Stream size : 149 MiB (0%)
Title : DD 2.0
Language : English
Service kind : Complete Main
Default : No
Forced : No
Original source medium : Blu-ray

Text #1
ID : 8
Format : UTF-8
Codec ID : S_TEXT/UTF8
Codec ID/Info : UTF-8 Plain Text
Duration : 1 h 36 min
Bit rate : 32 b/s
Count of elements : 684
Stream size : 22.9 KiB (0%)
Title : SRT
Language : English
Default : Yes
Forced : No

Text #2
ID : 9
ID in the original source medium : 4768 (0x12A0)
Format : PGS
Muxing mode : zlib
Codec ID : S_HDMV/PGS
Codec ID/Info : Picture based subtitle format used on BDs/HD-DVDs
Duration : 1 h 37 min
Bit rate : 23.0 kb/s
Count of elements : 1517
Stream size : 16.0 MiB (0%)
Language : English
Default : No
Forced : No
Original source medium : Blu-ray

Text #3
ID : 10
ID in the original source medium : 4769 (0x12A1)
Format : PGS
Muxing mode : zlib
Codec ID : S_HDMV/PGS
Codec ID/Info : Picture based subtitle format used on BDs/HD-DVDs
Duration : 1 h 39 min
Bit rate : 20.1 kb/s
Count of elements : 1304
Stream size : 14.3 MiB (0%)
Language : Spanish
Default : No
Forced : No
Original source medium : Blu-ray

Text #4
ID : 11
ID in the original source medium : 4770 (0x12A2)
Format : PGS
Muxing mode : zlib
Codec ID : S_HDMV/PGS
Codec ID/Info : Picture based subtitle format used on BDs/HD-DVDs
Duration : 1 h 39 min
Bit rate : 15.5 kb/s
Count of elements : 1301
Stream size : 11.0 MiB (0%)
Language : French
Default : No
Forced : No
Original source medium : Blu-ray

Text #5
ID : 12
ID in the original source medium : 4771 (0x12A3)
Format : PGS
Muxing mode : zlib
Codec ID : S_HDMV/PGS
Codec ID/Info : Picture based subtitle format used on BDs/HD-DVDs
Duration : 1 h 45 min
Bit rate : 79.6 kb/s
Count of elements : 3800
Stream size : 59.9 MiB (0%)
Language : English
Default : No
Forced : No
Original source medium : Blu-ray

Text #6
ID : 13
ID in the original source medium : 4772 (0x12A4)
Format : PGS
Muxing mode : zlib
Codec ID : S_HDMV/PGS
Codec ID/Info : Picture based subtitle format used on BDs/HD-DVDs
Duration : 25 min 8 s
Bit rate : 269 b/s
Count of elements : 4
Stream size : 49.6 KiB (0%)
Language : Spanish
Default : No
Forced : No
Original source medium : Blu-ray

Text #7
ID : 14
ID in the original source medium : 4773 (0x12A5)
Format : PGS
Muxing mode : zlib
Codec ID : S_HDMV/PGS
Codec ID/Info : Picture based subtitle format used on BDs/HD-DVDs
Duration : 1 h 46 min
Bit rate : 205 b/s
Count of elements : 14
Stream size : 160 KiB (0%)
Language : French
Default : No
Forced : No
Original source medium : Blu-ray

Menu
00:00:00.000 : Chapter 01
00:02:06.793 : Chapter 02
00:04:33.773 : Chapter 03
00:07:01.838 : Chapter 04
00:10:23.247 : Chapter 05
00:14:21.861 : Chapter 06
00:15:48.155 : Chapter 07
00:22:13.540 : Chapter 08
00:24:49.446 : Chapter 09
00:27:00.619 : Chapter 10
00:30:12.769 : Chapter 11
00:33:02.438 : Chapter 12
00:34:14.719 : Chapter 13
00:36:02.285 : Chapter 14
00:37:21.280 : Chapter 15
00:40:04.068 : Chapter 16
00:41:43.626 : Chapter 17
00:45:31.061 : Chapter 18
00:46:30.746 : Chapter 19
00:50:17.014 : Chapter 20
00:54:43.029 : Chapter 21
00:57:35.034 : Chapter 22
00:59:07.710 : Chapter 23
01:02:46.387 : Chapter 24
01:05:27.381 : Chapter 25
01:09:50.978 : Chapter 26
01:14:22.291 : Chapter 27
01:17:42.366 : Chapter 28
01:18:43.635 : Chapter 29
01:25:17.278 : Chapter 30
01:26:39.903 : Chapter 31
01:29:18.144 : Chapter 32
01:31:13.968 : Chapter 33
01:34:24.700 : Chapter 34
01:37:18.332 : Chapter 35
01:39:13.447 : Chapter 36
01:42:08.205 : Chapter 37

本帖子中包含更多资源

您需要 登录 才可以下载或查看,没有帐号?立即注册

x
回复

使用道具 举报

0

主题

143

帖子

327

积分

中级会员

Rank: 3Rank: 3

积分
327
发表于 2021-9-9 21:17:18 | 显示全部楼层
感謝無私分享懷舊影片
回复

使用道具 举报

0

主题

101

帖子

497

积分

中级会员

Rank: 3Rank: 3

积分
497
发表于 7 天前 | 显示全部楼层
感谢分享精品资源,辛苦啦!
回复

使用道具 举报

0

主题

101

帖子

497

积分

中级会员

Rank: 3Rank: 3

积分
497
发表于 6 天前 | 显示全部楼层
感谢分享经典资源!
回复

使用道具 举报

您需要登录后才可以回帖 登录 | 立即注册

本版积分规则

QQ|Archiver|手机版|小黑屋|原盘天堂 好多盘 点击这里给我发消息

GMT+8, 2021-9-17 00:07 , Processed in 0.056688 second(s), 24 queries .

Powered by Discuz! X3.4

Copyright © 2001-2020, Tencent Cloud.

快速回复 返回顶部 返回列表