请选择 进入手机版 | 继续访问电脑版
本站Q群713428235【盘盘多】已满,请新会员加原盘天堂新官方QQ群709708625【好多盘】,验证信息填写您在论坛的会员名,不填会员名的无法入群哈,进群后修改您的群名片名字为您在论坛的会员名,请务必修改,否则群成员多了不知道您是哪个会员。

原盘天堂

 找回密码
 立即注册
京东商城当当华为商城名牌时尚折扣网,一个新型的网上购物平台,我们每周为您精选3~4个国际知名品牌,商品折扣低至2折限时限量售卖,商品囊括时装、护肤品、箱包、皮具、配饰、香水等等,琳琅满目。亿格瑞A10硬盘播放器 苏宁易购
查看: 47|回复: 1

4k蓝光原盘bdmv 星际旅行4:抢救未来 英语原版 star.trek.iv.the.voyage.home.1986.2160p.bluray.hevc.truehd.7.1[59.66 GB]

[复制链接]

6260

主题

7000

帖子

133万

积分

管理员

Rank: 18Rank: 18Rank: 18Rank: 18Rank: 18

积分
1337486
发表于 7 天前 | 显示全部楼层 |阅读模式









◎译  名 星际旅行4:抢救未来/星际迷航4/星际争霸战4/星舰迷航记4/星舰奇航记4:抢救未来(台)/星空奇遇记4:抢救未来(港)/Star Trek 4
◎片  名 Star Trek IV: The Voyage Home
◎年  代 1986
◎产  地 美国
◎类  别 喜剧/科幻/冒险
◎语  言 英语
◎上映日期 1986-11-26
◎IMDb链接  https://www.imdb.com/title/tt0092007/
◎豆瓣评分 8.2/10 from 9662 users
◎豆瓣链接 https://douban.com/subject/1293325/
◎片  长 119 分钟
◎导  演 伦纳德·尼莫伊 Leonard Nimoy
◎编  剧 吉恩·罗登贝瑞 Gene Roddenberry / 伦纳德·尼莫伊 Leonard Nimoy / 彼得·克里克斯 Peter Krikes / Steve Meerson Steve Meerson
◎主  演 威廉·夏特纳 William Shatner
       伦纳德·尼莫伊 Leonard Nimoy
       德福雷斯特·凯利 DeForest Kelley
       詹姆斯·杜汉 James Doohan
       武井乔治 George Takei
       沃尔特·凯尼格 Walter Koenig
       尼切尔·尼克斯 Nichelle Nichols
       简·维亚特 Jane Wyatt
       凯瑟琳·海克丝 Catherine Hicks
       马克·雷纳德 Mark Lenard
       罗宾·柯蒂斯 Robin Curtis
       罗伯特·艾伦斯坦 Robert Ellenstein
       约翰·舒克 John Schuck
       布洛克·皮特斯 Brock Peters
       Kirk R. Thatcher Kirk R. Thatcher
       Monique DeSart Monique DeSart
       马杰尔·巴雷特 Majel Barrett
       格雷斯·李·惠特尼 Grace Lee Whitney

◎标  签 科幻 | 美国 | 星际迷航 | 1986 | startrek | StarTrek | 经典 | 美国电影

◎简  介

  
  一艘巨大的外星无人探测器向地球航来,它不断地发出奇特的电波信号:功率强大的信号煮沸了海水,干扰了附近的星舰并造成了广泛的破坏。此时,詹姆斯·柯克中将与他的船员们在完成了让斯波克上校复活的任务后,驾驶着从克林贡人那抢来的猛禽舰(被改名为“赏金号”)从瓦肯星返航,尽管他们已经知道了将面临军事法庭的指控:他们被指控盗窃了联邦星舰进取号,并对她的毁坏负有责任。在此关头,尚在恢复中的斯波克发现这艘外星探测器正尝试与地球上的座头鲸建立联系;但不幸的是,早在3个世纪前座头鲸就因过度的捕猎而灭绝了。
  
  柯克命令“赏金号”进入引力弹射状态,利用太阳的万有引力而穿越时空来到20世纪后期。星舰于1986年抵达了美国加利福尼亚州的旧金山市,船员们将星舰藏在金门公园的一处草坪上。此后,他们开始寻找能与外星探测器沟通的鲸鱼、能将鲸鱼装在星舰上的容器,以及能让猛禽舰恢复能源供应的物质——在星舰穿越时空的旅途中能源几乎被耗尽。柯克与斯波克最终获得了一位鲸类专家吉莉安·泰勒博士的协助,她在索萨利托市鲸鱼协会照料两头座头鲸。
  
  在经历了许多的困难后——包括让泰勒相信他们的确来自未来——进取号的船员们成功地营救了两头座头鲸,并将它们带到未来,及时地拯救了地球。然后船员们被带到了联邦委员会的面前,接受众多的指控。没有被作为被告的斯波克也与其他船员们站在了一起。最后,鉴于他们新近的英勇表现,除了对柯克中将的控告外,针对其余被告的所有控告都被撤销。柯克以作为一名上级军官却违背命令的罪行被判有罪,并象征性地被降职为上校以示惩戒;但作为对他英勇行为的表彰,他被任命为联邦星舰进取号-A的舰长。与进取号船员一同来到23世纪的泰勒博士,决定加入星际舰队并成为一名科学官。
  
  作为情节框架的支线剧情,展现了斯波克逐渐地恢复了他的记忆、他此前获得并接受的人类传统,以及他对自己情感的承认。在影片开始时,他不明白母亲询问他的“感觉”有何意义;但到最后,他已能足够意识到“感觉”对人类的重要性,并托父亲告诉母亲,他“感觉良好”。
  

◎获奖情况

  第59届奥斯卡金像奖  (1987)
  最佳摄影(提名) 唐纳德·彼得曼
  最佳音效剪辑(提名) 马克·马基尼
  最佳音响(提名) 吉恩·S·坎塔梅萨 / 大卫·J·哈德森 / 梅尔·梅特卡夫 / 特里·波特
  最佳原创配乐(提名) 利奥纳德·罗森曼

DISC INFO:

Disc Title:     Star.Trek.IV.The.Voyage.Home.1986.2160p.BluRay.HEVC.TrueHD.7.1-NOGRP
Disc Size:      64,060,849,051 bytes
Protection:     AACS2
Extras:         Ultra HD, BD-Java
BDInfo:         0.7.5.9 (compatible layout created by DVDFab 12.0.4.5)

PLAYLIST REPORT:

Name:                   00800.MPLS  
Length:                 1:58:51.165 (h:m:s.ms)
Size:                   61,827,194,880 bytes
Total Bitrate:          69.36 Mbps

(*) Indicates included stream hidden by this playlist.

VIDEO:

Codec                   Bitrate             Description     
-----                   -------             -----------     
MPEG-H HEVC Video       49201 kbps          2160p / 23.976 fps / 16:9 / Main 10 @ Level 5.1 @ High / 4:2:0 / 10 bits / 1000nits / HDR10 / BT.2020
* MPEG-H HEVC Video     5533 kbps (10.11%)  1080p / 23.976 fps / 16:9 / Main 10 @ Level 5.1 @ High / 4:2:0 / 10 bits / 1000nits / Dolby Vision FEL / BT.2020

AUDIO:

Codec                           Language        Bitrate         Description     
-----                           --------        -------         -----------     
Dolby TrueHD Audio              English         6152 kbps       7.1 / 48 kHz / 5512 kbps / 24-bit (AC3 Core: 5.1-EX / 48 kHz / 640 kbps)
Dolby Digital Audio             German          1413 kbps       2.0 / 48 kHz / 1413 kbps / 24-bit (AC3 Core: 2.0 / 48 kHz / 224 kbps / Dolby Surround)
Dolby Digital Audio             Spanish         224 kbps        2.0 / 48 kHz / 224 kbps / Dolby Surround
Dolby Digital Audio             French          224 kbps        2.0 / 48 kHz / 224 kbps / Dolby Surround
Dolby Digital Audio             Japanese        640 kbps        5.1 / 48 kHz / 640 kbps
Dolby Digital Audio             English         224 kbps        2.0 / 48 kHz / 224 kbps
Dolby Digital Audio             English         224 kbps        2.0 / 48 kHz / 224 kbps

SUBTITLES:

Codec                           Language        Bitrate         Description     
-----                           --------        -------         -----------     
Presentation Graphics           English         37.523 kbps                     
Presentation Graphics           English         39.067 kbps                     
Presentation Graphics           Danish          28.657 kbps                     
Presentation Graphics           German          28.253 kbps                     
Presentation Graphics           Spanish         29.99 kbps                     
Presentation Graphics           French          28.557 kbps                     
Presentation Graphics           Japanese        22.608 kbps                     
Presentation Graphics           Dutch           30.026 kbps                     
Presentation Graphics           Norwegian       29.077 kbps                     
Presentation Graphics           Finnish         27.576 kbps                     
Presentation Graphics           Swedish         26.326 kbps                     
Presentation Graphics           English         44.305 kbps                     
Presentation Graphics           German          43.743 kbps                     
Presentation Graphics           Spanish         41.591 kbps                     
Presentation Graphics           French          37.053 kbps                     
Presentation Graphics           Japanese        33.979 kbps                     
Presentation Graphics           English         43.792 kbps                     
Presentation Graphics           German          41.153 kbps                     
Presentation Graphics           Spanish         39.19 kbps                     
Presentation Graphics           French          31.475 kbps                     
Presentation Graphics           Japanese        25.025 kbps                     
Presentation Graphics           German          0.114 kbps                     
Presentation Graphics           Spanish         0.13 kbps                       
Presentation Graphics           French          0.139 kbps                     
Presentation Graphics           Japanese        0.29 kbps        

Video
ID : 1
ID in the original source medium : 4113 (0x1011)
Format : HEVC
Format/Info : High Efficiency Video Coding
Format profile : Main [email protected]@High
HDR format : Dolby Vision, Version 1.0, dvhe.07.06, BL+EL+RPU, Blu-ray compatible / SMPTE ST 2086, HDR10 compatible
Codec ID : V_MPEGH/ISO/HEVC
Duration : 1 h 58 min
Bit rate : 54.7 Mb/s
Width : 3 840 pixels
Height : 2 160 pixels
Display aspect ratio : 16:9
Frame rate mode : Constant
Frame rate : 23.976 (24000/1001) FPS
Color space : YUV
Chroma subsampling : 4:2:0 (Type 2)
Bit depth : 10 bits
Bits/(Pixel*Frame) : 0.275
Stream size : 45.4 GiB (79%)
Language : English
Default : No
Forced : No
Color range : Limited
Color primaries : BT.2020
Transfer characteristics : PQ
Matrix coefficients : BT.2020 non-constant
Mastering display color primaries : Display P3
Mastering display luminance : min: 0.0001 cd/m2, max: 1000 cd/m2
Original source medium : Blu-ray

Audio #1
ID : 2
ID in the original source medium : 4352 (0x1100)
Format : MLP FBA
Format/Info : Meridian Lossless Packing FBA
Commercial name : Dolby TrueHD
Codec ID : A_TRUEHD
Duration : 1 h 58 min
Bit rate mode : Variable
Bit rate : 5 512 kb/s
Maximum bit rate : 8 076 kb/s
Channel(s) : 8 channels
Channel layout : L R C LFE Ls Rs Lb Rb
Sampling rate : 48.0 kHz
Frame rate : 1 200.000 FPS (40 SPF)
Bit depth : 24 bits
Compression mode : Lossless
Stream size : 4.58 GiB (8%)
Title : TrueHD 7.1
Language : English
Default : Yes
Forced : No
Original source medium : Blu-ray

Audio #2
ID : 3
Format : DTS XLL
Format/Info : Digital Theater Systems
Commercial name : DTS-HD Master Audio
Codec ID : A_DTS
Duration : 1 h 58 min
Bit rate mode : Variable
Bit rate : 4 863 kb/s
Channel(s) : 8 channels
Channel layout : C L R LFE Lb Rb Lss Rss
Sampling rate : 48.0 kHz
Frame rate : 93.750 FPS (512 SPF)
Bit depth : 24 bits
Compression mode : Lossless
Stream size : 4.04 GiB (7%)
Title : DTS-HD MA 7.1
Language : English
Default : No
Forced : No

Audio #3
ID : 4
ID in the original source medium : 4352 (0x1100)
Format : AC-3
Format/Info : Audio Coding 3
Commercial name : Dolby Digital
Format settings : Dolby Surround EX
Codec ID : A_AC3
Duration : 1 h 58 min
Bit rate mode : Constant
Bit rate : 640 kb/s
Channel(s) : 6 channels
Channel layout : L R C LFE Ls Rs
Sampling rate : 48.0 kHz
Frame rate : 31.250 FPS (1536 SPF)
Compression mode : Lossy
Stream size : 544 MiB (1%)
Title : DD 5.1
Language : English
Service kind : Complete Main
Default : No
Forced : No
Original source medium : Blu-ray

Audio #4
ID : 5
ID in the original source medium : 4353 (0x1101)
Format : MLP FBA
Format/Info : Meridian Lossless Packing FBA
Commercial name : Dolby TrueHD
Codec ID : A_TRUEHD
Duration : 1 h 58 min
Bit rate mode : Variable
Bit rate : 1 189 kb/s
Maximum bit rate : 1 614 kb/s
Channel(s) : 2 channels
Channel layout : L R
Sampling rate : 48.0 kHz
Frame rate : 1 200.000 FPS (40 SPF)
Bit depth : 24 bits
Compression mode : Lossless
Stream size : 1 011 MiB (2%)
Title : TrueHD 2.0
Language : German
Default : No
Forced : No
Original source medium : Blu-ray

Audio #5
ID : 6
ID in the original source medium : 4353 (0x1101)
Format : AC-3
Format/Info : Audio Coding 3
Commercial name : Dolby Digital
Format settings : Dolby Surround
Codec ID : A_AC3
Duration : 1 h 58 min
Bit rate mode : Constant
Bit rate : 224 kb/s
Channel(s) : 2 channels
Channel layout : L R
Sampling rate : 48.0 kHz
Frame rate : 31.250 FPS (1536 SPF)
Compression mode : Lossy
Stream size : 190 MiB (0%)
Title : DD 2.0
Language : German
Service kind : Complete Main
Default : No
Forced : No
Original source medium : Blu-ray

Audio #6
ID : 7
ID in the original source medium : 4354 (0x1102)
Format : AC-3
Format/Info : Audio Coding 3
Commercial name : Dolby Digital
Format settings : Dolby Surround
Codec ID : A_AC3
Duration : 1 h 58 min
Bit rate mode : Constant
Bit rate : 224 kb/s
Channel(s) : 2 channels
Channel layout : L R
Sampling rate : 48.0 kHz
Frame rate : 31.250 FPS (1536 SPF)
Compression mode : Lossy
Stream size : 190 MiB (0%)
Title : DD 2.0
Language : Spanish
Service kind : Complete Main
Default : No
Forced : No
Original source medium : Blu-ray

Audio #7
ID : 8
ID in the original source medium : 4355 (0x1103)
Format : AC-3
Format/Info : Audio Coding 3
Commercial name : Dolby Digital
Format settings : Dolby Surround
Codec ID : A_AC3
Duration : 1 h 58 min
Bit rate mode : Constant
Bit rate : 224 kb/s
Channel(s) : 2 channels
Channel layout : L R
Sampling rate : 48.0 kHz
Frame rate : 31.250 FPS (1536 SPF)
Compression mode : Lossy
Stream size : 190 MiB (0%)
Title : DD 2.0
Language : French
Service kind : Complete Main
Default : No
Forced : No
Original source medium : Blu-ray

Audio #8
ID : 9
ID in the original source medium : 4356 (0x1104)
Format : AC-3
Format/Info : Audio Coding 3
Commercial name : Dolby Digital
Codec ID : A_AC3
Duration : 1 h 58 min
Bit rate mode : Constant
Bit rate : 640 kb/s
Channel(s) : 6 channels
Channel layout : L R C LFE Ls Rs
Sampling rate : 48.0 kHz
Frame rate : 31.250 FPS (1536 SPF)
Compression mode : Lossy
Stream size : 544 MiB (1%)
Title : DD 5.1
Language : Japanese
Service kind : Complete Main
Default : No
Forced : No
Original source medium : Blu-ray

Audio #9
ID : 10
ID in the original source medium : 4357 (0x1105)
Format : AC-3
Format/Info : Audio Coding 3
Commercial name : Dolby Digital
Codec ID : A_AC3
Duration : 1 h 58 min
Bit rate mode : Constant
Bit rate : 224 kb/s
Channel(s) : 2 channels
Channel layout : L R
Sampling rate : 48.0 kHz
Frame rate : 31.250 FPS (1536 SPF)
Compression mode : Lossy
Stream size : 190 MiB (0%)
Title : DD 2.0
Language : English
Service kind : Complete Main
Default : No
Forced : No
Original source medium : Blu-ray

Audio #10
ID : 11
ID in the original source medium : 4358 (0x1106)
Format : AC-3
Format/Info : Audio Coding 3
Commercial name : Dolby Digital
Codec ID : A_AC3
Duration : 1 h 58 min
Bit rate mode : Constant
Bit rate : 224 kb/s
Channel(s) : 2 channels
Channel layout : L R
Sampling rate : 48.0 kHz
Frame rate : 31.250 FPS (1536 SPF)
Compression mode : Lossy
Stream size : 190 MiB (0%)
Title : DD 2.0
Language : English
Service kind : Complete Main
Default : No
Forced : No
Original source medium : Blu-ray

Text #1
ID : 12
Format : UTF-8
Codec ID : S_TEXT/UTF8
Codec ID/Info : UTF-8 Plain Text
Duration : 1 h 51 min
Bit rate : 63 b/s
Count of elements : 1325
Stream size : 51.7 KiB (0%)
Title : SRT
Language : English
Default : Yes
Forced : No

Text #2
ID : 13
ID in the original source medium : 4768 (0x12A0)
Format : PGS
Muxing mode : zlib
Codec ID : S_HDMV/PGS
Codec ID/Info : Picture based subtitle format used on BDs/HD-DVDs
Duration : 1 h 51 min
Bit rate : 40.0 kb/s
Count of elements : 2674
Stream size : 31.9 MiB (0%)
Language : English
Default : No
Forced : No
Original source medium : Blu-ray

Text #3
ID : 14
ID in the original source medium : 4769 (0x12A1)
Format : PGS
Muxing mode : zlib
Codec ID : S_HDMV/PGS
Codec ID/Info : Picture based subtitle format used on BDs/HD-DVDs
Duration : 1 h 51 min
Bit rate : 41.6 kb/s
Count of elements : 2800
Stream size : 33.2 MiB (0%)
Language : English
Default : No
Forced : No
Original source medium : Blu-ray

Text #4
ID : 15
ID in the original source medium : 4770 (0x12A2)
Format : PGS
Muxing mode : zlib
Codec ID : S_HDMV/PGS
Codec ID/Info : Picture based subtitle format used on BDs/HD-DVDs
Duration : 1 h 58 min
Bit rate : 28.7 kb/s
Count of elements : 1986
Stream size : 24.4 MiB (0%)
Language : Danish
Default : No
Forced : No
Original source medium : Blu-ray

Text #5
ID : 16
ID in the original source medium : 4771 (0x12A3)
Format : PGS
Muxing mode : zlib
Codec ID : S_HDMV/PGS
Codec ID/Info : Picture based subtitle format used on BDs/HD-DVDs
Duration : 1 h 58 min
Bit rate : 28.3 kb/s
Count of elements : 1870
Stream size : 24.0 MiB (0%)
Language : German
Default : No
Forced : No
Original source medium : Blu-ray

Text #6
ID : 17
ID in the original source medium : 4772 (0x12A4)
Format : PGS
Muxing mode : zlib
Codec ID : S_HDMV/PGS
Codec ID/Info : Picture based subtitle format used on BDs/HD-DVDs
Duration : 1 h 58 min
Bit rate : 30.1 kb/s
Count of elements : 1848
Stream size : 25.5 MiB (0%)
Language : Spanish
Default : No
Forced : No
Original source medium : Blu-ray

Text #7
ID : 18
ID in the original source medium : 4773 (0x12A5)
Format : PGS
Muxing mode : zlib
Codec ID : S_HDMV/PGS
Codec ID/Info : Picture based subtitle format used on BDs/HD-DVDs
Duration : 1 h 58 min
Bit rate : 28.6 kb/s
Count of elements : 2146
Stream size : 24.3 MiB (0%)
Language : French
Default : No
Forced : No
Original source medium : Blu-ray

Text #8
ID : 19
ID in the original source medium : 4774 (0x12A6)
Format : PGS
Muxing mode : zlib
Codec ID : S_HDMV/PGS
Codec ID/Info : Picture based subtitle format used on BDs/HD-DVDs
Duration : 1 h 54 min
Bit rate : 23.4 kb/s
Count of elements : 2472
Stream size : 19.2 MiB (0%)
Language : Japanese
Default : No
Forced : No
Original source medium : Blu-ray

Text #9
ID : 20
ID in the original source medium : 4775 (0x12A7)
Format : PGS
Muxing mode : zlib
Codec ID : S_HDMV/PGS
Codec ID/Info : Picture based subtitle format used on BDs/HD-DVDs
Duration : 1 h 58 min
Bit rate : 30.1 kb/s
Count of elements : 1844
Stream size : 25.5 MiB (0%)
Language : Dutch
Default : No
Forced : No
Original source medium : Blu-ray

Text #10
ID : 21
ID in the original source medium : 4776 (0x12A8)
Format : PGS
Muxing mode : zlib
Codec ID : S_HDMV/PGS
Codec ID/Info : Picture based subtitle format used on BDs/HD-DVDs
Duration : 1 h 58 min
Bit rate : 29.2 kb/s
Count of elements : 1824
Stream size : 24.7 MiB (0%)
Language : Norwegian
Default : No
Forced : No
Original source medium : Blu-ray

Text #11
ID : 22
ID in the original source medium : 4777 (0x12A9)
Format : PGS
Muxing mode : zlib
Codec ID : S_HDMV/PGS
Codec ID/Info : Picture based subtitle format used on BDs/HD-DVDs
Duration : 1 h 58 min
Bit rate : 27.6 kb/s
Count of elements : 1838
Stream size : 23.4 MiB (0%)
Language : Finnish
Default : No
Forced : No
Original source medium : Blu-ray

Text #12
ID : 23
ID in the original source medium : 4778 (0x12AA)
Format : PGS
Muxing mode : zlib
Codec ID : S_HDMV/PGS
Codec ID/Info : Picture based subtitle format used on BDs/HD-DVDs
Duration : 1 h 58 min
Bit rate : 26.4 kb/s
Count of elements : 1818
Stream size : 22.4 MiB (0%)
Language : Swedish
Default : No
Forced : No
Original source medium : Blu-ray

Text #13
ID : 24
ID in the original source medium : 4779 (0x12AB)
Format : PGS
Muxing mode : zlib
Codec ID : S_HDMV/PGS
Codec ID/Info : Picture based subtitle format used on BDs/HD-DVDs
Duration : 1 h 54 min
Bit rate : 46.1 kb/s
Count of elements : 2626
Stream size : 37.7 MiB (0%)
Language : English
Default : No
Forced : No
Original source medium : Blu-ray

Text #14
ID : 25
ID in the original source medium : 4780 (0x12AC)
Format : PGS
Muxing mode : zlib
Codec ID : S_HDMV/PGS
Codec ID/Info : Picture based subtitle format used on BDs/HD-DVDs
Duration : 1 h 58 min
Bit rate : 43.9 kb/s
Count of elements : 2628
Stream size : 37.2 MiB (0%)
Language : German
Default : No
Forced : No
Original source medium : Blu-ray

Text #15
ID : 26
ID in the original source medium : 4781 (0x12AD)
Format : PGS
Muxing mode : zlib
Codec ID : S_HDMV/PGS
Codec ID/Info : Picture based subtitle format used on BDs/HD-DVDs
Duration : 1 h 58 min
Bit rate : 41.8 kb/s
Count of elements : 2630
Stream size : 35.4 MiB (0%)
Language : Spanish
Default : No
Forced : No
Original source medium : Blu-ray

Text #16
ID : 27
ID in the original source medium : 4782 (0x12AE)
Format : PGS
Muxing mode : zlib
Codec ID : S_HDMV/PGS
Codec ID/Info : Picture based subtitle format used on BDs/HD-DVDs
Duration : 1 h 58 min
Bit rate : 37.2 kb/s
Count of elements : 2628
Stream size : 31.5 MiB (0%)
Language : French
Default : No
Forced : No
Original source medium : Blu-ray

Text #17
ID : 28
ID in the original source medium : 4783 (0x12AF)
Format : PGS
Muxing mode : zlib
Codec ID : S_HDMV/PGS
Codec ID/Info : Picture based subtitle format used on BDs/HD-DVDs
Duration : 1 h 54 min
Bit rate : 35.3 kb/s
Count of elements : 1682
Stream size : 28.9 MiB (0%)
Language : Japanese
Default : No
Forced : No
Original source medium : Blu-ray

Text #18
ID : 29
ID in the original source medium : 4784 (0x12B0)
Format : PGS
Muxing mode : zlib
Codec ID : S_HDMV/PGS
Codec ID/Info : Picture based subtitle format used on BDs/HD-DVDs
Duration : 1 h 56 min
Bit rate : 44.9 kb/s
Count of elements : 2722
Stream size : 37.2 MiB (0%)
Title : COMMENTARY
Language : English
Default : No
Forced : No
Original source medium : Blu-ray

Text #19
ID : 30
ID in the original source medium : 4785 (0x12B1)
Format : PGS
Muxing mode : zlib
Codec ID : S_HDMV/PGS
Codec ID/Info : Picture based subtitle format used on BDs/HD-DVDs
Duration : 1 h 58 min
Bit rate : 41.3 kb/s
Count of elements : 2722
Stream size : 35.0 MiB (0%)
Title : COMMENTARY
Language : German
Default : No
Forced : No
Original source medium : Blu-ray

Text #20
ID : 31
ID in the original source medium : 4786 (0x12B2)
Format : PGS
Muxing mode : zlib
Codec ID : S_HDMV/PGS
Codec ID/Info : Picture based subtitle format used on BDs/HD-DVDs
Duration : 1 h 58 min
Bit rate : 39.3 kb/s
Count of elements : 2724
Stream size : 33.3 MiB (0%)
Title : COMMENTARY
Language : Spanish
Default : No
Forced : No
Original source medium : Blu-ray

Text #21
ID : 32
ID in the original source medium : 4787 (0x12B3)
Format : PGS
Muxing mode : zlib
Codec ID : S_HDMV/PGS
Codec ID/Info : Picture based subtitle format used on BDs/HD-DVDs
Duration : 1 h 58 min
Bit rate : 31.6 kb/s
Count of elements : 2724
Stream size : 26.8 MiB (0%)
Title : COMMENTARY
Language : French
Default : No
Forced : No
Original source medium : Blu-ray

Text #22
ID : 33
ID in the original source medium : 4788 (0x12B4)
Format : PGS
Muxing mode : zlib
Codec ID : S_HDMV/PGS
Codec ID/Info : Picture based subtitle format used on BDs/HD-DVDs
Duration : 1 h 56 min
Bit rate : 25.6 kb/s
Count of elements : 2070
Stream size : 21.3 MiB (0%)
Title : COMMENTARY
Language : Japanese
Default : No
Forced : No
Original source medium : Blu-ray

Text #23
ID : 34
ID in the original source medium : 4789 (0x12B5)
Format : PGS
Muxing mode : zlib
Codec ID : S_HDMV/PGS
Codec ID/Info : Picture based subtitle format used on BDs/HD-DVDs
Duration : 54 s 117 ms
Bit rate : 15.0 kb/s
Count of elements : 6
Stream size : 99.2 KiB (0%)
Title : COMMENTARY
Language : German
Default : No
Forced : No
Original source medium : Blu-ray

Text #24
ID : 35
ID in the original source medium : 4790 (0x12B6)
Format : PGS
Muxing mode : zlib
Codec ID : S_HDMV/PGS
Codec ID/Info : Picture based subtitle format used on BDs/HD-DVDs
Duration : 54 s 34 ms
Bit rate : 17.1 kb/s
Count of elements : 6
Stream size : 113 KiB (0%)
Title : COMMENTARY
Language : Spanish
Default : No
Forced : No
Original source medium : Blu-ray

Text #25
ID : 36
ID in the original source medium : 4791 (0x12B7)
Format : PGS
Muxing mode : zlib
Codec ID : S_HDMV/PGS
Codec ID/Info : Picture based subtitle format used on BDs/HD-DVDs
Duration : 54 s 117 ms
Bit rate : 18.3 kb/s
Count of elements : 8
Stream size : 121 KiB (0%)
Title : COMMENTARY
Language : French
Default : No
Forced : No
Original source medium : Blu-ray

Menu
00:00:00.000 : Chapter 01
00:03:08.897 : Chapter 02
00:07:02.171 : Chapter 03
00:13:35.898 : Chapter 04
00:16:42.960 : Chapter 05
00:27:29.939 : Chapter 06
00:36:06.581 : Chapter 07
00:45:25.389 : Chapter 08
00:51:33.423 : Chapter 09
00:58:01.769 : Chapter 10
01:02:57.356 : Chapter 11
01:12:17.416 : Chapter 12
01:17:38.654 : Chapter 13
01:22:44.542 : Chapter 14
01:28:29.304 : Chapter 15
01:37:17.081 : Chapter 16
01:48:14.279 : Chapter 17
01:55:00.727 : Chapter 18

本帖子中包含更多资源

您需要 登录 才可以下载或查看,没有帐号?立即注册

x
回复

使用道具 举报

0

主题

143

帖子

327

积分

中级会员

Rank: 3Rank: 3

积分
327
发表于 6 天前 | 显示全部楼层
藍光4k原盤,感謝無私分享
回复

使用道具 举报

您需要登录后才可以回帖 登录 | 立即注册

本版积分规则

QQ|Archiver|手机版|小黑屋|原盘天堂 好多盘 点击这里给我发消息

GMT+8, 2021-9-16 23:02 , Processed in 0.053666 second(s), 24 queries .

Powered by Discuz! X3.4

Copyright © 2001-2020, Tencent Cloud.

快速回复 返回顶部 返回列表