请选择 进入手机版 | 继续访问电脑版
本站Q群713428235【盘盘多】已满,请新会员加原盘天堂新官方QQ群709708625【好多盘】,验证信息填写您在论坛的会员名,不填会员名的无法入群哈,进群后修改您的群名片名字为您在论坛的会员名,请务必修改,否则群成员多了不知道您是哪个会员。

原盘天堂

 找回密码
 立即注册
京东商城当当华为商城名牌时尚折扣网,一个新型的网上购物平台,我们每周为您精选3~4个国际知名品牌,商品折扣低至2折限时限量售卖,商品囊括时装、护肤品、箱包、皮具、配饰、香水等等,琳琅满目。亿格瑞A10硬盘播放器 苏宁易购
查看: 43|回复: 1

4k蓝光原盘bdmv星际旅行3:石破天惊 英语原版 star.trek.iii.the.search.for.spock.1984.2160p.bluray.hevc.truehd.7.1[59.17 GB]

[复制链接]

6260

主题

7000

帖子

133万

积分

管理员

Rank: 18Rank: 18Rank: 18Rank: 18Rank: 18

积分
1337486
发表于 2021-9-9 09:16:32 | 显示全部楼层 |阅读模式









◎译  名 星际旅行3:石破天惊/星际迷航:寻找史波克/星际迷航3/星际争霸战3/星舰迷航记3/星舰奇航记3:石破天惊(台)/星空奇遇记3:魔宫龙虎斗(港)/Star Trek 3
◎片  名 Star Trek III: The Search for Spock
◎年  代 1984
◎产  地 美国
◎类  别 动作/科幻/惊悚/冒险
◎语  言 英语
◎上映日期 1984-06-01
◎IMDb链接  https://www.imdb.com/title/tt0088170/
◎豆瓣评分 7.3/10 from 7863 users
◎豆瓣链接 https://douban.com/subject/1294015/
◎片  长 105分钟
◎导  演 伦纳德·尼莫伊 Leonard Nimoy
◎编  剧 阿尔夫·贝内 Harve Bennett
◎主  演 威廉·夏特纳 William Shatner
       伦纳德·尼莫伊 Leonard Nimoy
       德福雷斯特·凯利 DeForest Kelley
       詹姆斯·杜汉 James Doohan
       沃尔特·凯尼格 Walter Koenig
       约翰·拉尔奎特 John Larroquette
       米盖尔·弗尔 Miguel Ferrer
       Scott McGinnis Scott McGinnis
       马克·雷纳德 Mark Lenard
       克里斯托弗·洛伊德 Christopher Lloyd
       珍妮·莫里 Jeanne Mori
       菲尔·莫里斯 Phil Morris
       梅里特·布瑞克 Merritt Butrick
       尼切尔·尼克斯 Nichelle Nichols
       武井乔治 George Takei
       罗宾·柯蒂斯 Robin Curtis
       卡尔·斯蒂文 Carl Steven

◎标  签 科幻 | 美国 | StarTrek | 星际迷航 | 1984 | 经典 | 电影 | 美国电影

◎简  介

  
  2285年,在与可汗的战斗中损坏的联邦星舰进取号,返回了地球的太空港以进行维修。柯克还在为斯波克的死感到悲伤。麦科伊医生出现了种种异常的行为:如擅自闯入被封锁的斯波克原来的舱房、胡言乱语等,最后他被送进了医院进行精神检查。斯科提被另分派到了联邦星舰精进号。星际舰队指挥部 对新形成的创世星下达了禁入令。柯克被告知,进取号即将除役。
  
  斯波克的父亲沙瑞克找到柯克并告诉他,斯波克的遗体必须返回瓦肯星,否则他的灵魂就不得安息。沙瑞克要求柯克必须回到创世星,寻回斯波克的遗棺并将它带回瓦肯星——而斯波克临死前与麦科伊进行了心灵融合,因此带有斯波克灵魂的麦科伊也必须前往瓦肯星。
  
  可是,星际舰队拒绝让陈旧的进取号离开太空港。从医院出来后听闻消息的麦科伊,企图招募一艘飞船回到创世星。在与人争吵时他被逮捕,但这并没有影响到整个计划:在柯克、斯科特、苏鲁、乌乎拉和切科夫的帮助下麦科伊顺利逃脱,并一同登上了被废弃的进取号。为了避免被追击,斯科提还破坏了精进号的引擎。六名伙伴冒着毁掉毕生事业的风险,驾驶进取号航向创世星。
  
  其间,克林贡人得知了创世计划和创世星的消息。由于担心联邦将其改造为一种新式武器,克鲁格船长率领一艘克林贡猛禽战舰,去夺取或摧毁这一战略性的武器。
  
  在联邦星舰葛瑞森号上,戴维·马库斯博士与莎维可上尉在创世星的轨道上进行着科学观测。他们很快便在地面上发现了生命形式,出于好奇心的驱使,他们俩传送上了星球表面并发现了斯波克空荡的遗棺。循着生命形式的读数,他们发现了幼年斯波克的活体:成长速度奇快,但却没有意识或灵魂。
  
  克林贡人在此时也抵达了创世星,他们摧毁了葛瑞森号并抓获莎维可、马库斯和少年的斯波克作为人质。不一会,进取号也抵达穆塔拉星区(Mutara Sector),很快就被克鲁格与他的一群克林贡战士攻击到瘫痪。由于克林贡人威胁将夺去人质的生命,柯克使用了一个计谋来重新掌控局势,但并未成功。戴维·马库斯随后被克林贡人杀害。由于没有其他的选择,柯克只得向克林贡人投降。柯克为了重新占据上风,冒死一搏启动了进取号的自毁程序。进取号的船员随后传送上了创世星,目睹着进取号在一片亮光中毁灭,同时也捎带上了克鲁格大部分的战士。
  
  柯克最终与他的团队从克林贡人手中营救了斯波克与莎维可,并在与克鲁格的一对一战斗中杀死了他。由于创世星独特的力量,斯波克的遗体得以重生,并随着创世星衰老的速度迅速地成长。在离开不稳定的创世星时,斯波克刚好达到死亡前的年龄。在登上夺来的猛禽舰时,创世星开始了剧烈的爆炸。
  
  在沙瑞克的庇护下,猛禽舰抵达了瓦肯星。在经历了危险的“浮图邦术”仪式后,斯波克的灵魂离开了麦科伊的意识回到了自己的身体中。仪式最终成功,复活的斯波克开始重新回忆他的过去与朋友。他问进取号的船员们,为什么要冒着失去生命与毁掉事业的危险营救他;柯克告诉他,有些时候需要“牺牲小我,成全大我”。
  
DISC INFO:

Disc Title:     Star.Trek.III.The.Search.for.Spock.1984.2160p.BluRay.HEVC.TrueHD.7.1-NOGRP
Disc Size:      63,529,469,780 bytes
Protection:     AACS2
Extras:         Ultra HD, BD-Java
BDInfo:         0.7.5.9 (compatible layout created by DVDFab 12.0.4.5)

PLAYLIST REPORT:

Name:                   00800.MPLS  
Length:                 1:45:14.099 (h:m:s.ms)
Size:                   61,234,268,160 bytes
Total Bitrate:          77.58 Mbps

(*) Indicates included stream hidden by this playlist.

VIDEO:

Codec                   Bitrate             Description     
-----                   -------             -----------     
MPEG-H HEVC Video       56506 kbps          2160p / 23.976 fps / 16:9 / Main 10 @ Level 5.1 @ High / 4:2:0 / 10 bits / 1000nits / HDR10 / BT.2020
* MPEG-H HEVC Video     6287 kbps (10.01%)  1080p / 23.976 fps / 16:9 / Main 10 @ Level 5.1 @ High / 4:2:0 / 10 bits / 1000nits / Dolby Vision FEL / BT.2020

AUDIO:

Codec                           Language        Bitrate         Description     
-----                           --------        -------         -----------     
Dolby TrueHD Audio              English         6041 kbps       7.1 / 48 kHz / 5401 kbps / 24-bit (AC3 Core: 5.1-EX / 48 kHz / 640 kbps)
Dolby Digital Audio             German          1297 kbps       2.0 / 48 kHz / 1297 kbps / 24-bit (AC3 Core: 2.0 / 48 kHz / 224 kbps / Dolby Surround)
Dolby Digital Audio             Spanish         224 kbps        2.0 / 48 kHz / 224 kbps / Dolby Surround
Dolby Digital Audio             French          224 kbps        2.0 / 48 kHz / 224 kbps / Dolby Surround
Dolby Digital Audio             Japanese        640 kbps        5.1 / 48 kHz / 640 kbps
Dolby Digital Audio             English         224 kbps        2.0 / 48 kHz / 224 kbps
Dolby Digital Audio             English         224 kbps        2.0 / 48 kHz / 224 kbps

SUBTITLES:

Codec                           Language        Bitrate         Description     
-----                           --------        -------         -----------     
Presentation Graphics           English         27.01 kbps                     
Presentation Graphics           English         30.38 kbps                     
Presentation Graphics           Danish          22.067 kbps                     
Presentation Graphics           German          26.989 kbps                     
Presentation Graphics           Spanish         26.924 kbps                     
Presentation Graphics           French          23.329 kbps                     
Presentation Graphics           Japanese        18.784 kbps                     
Presentation Graphics           Dutch           21.582 kbps                     
Presentation Graphics           Norwegian       26.174 kbps                     
Presentation Graphics           Finnish         23.297 kbps                     
Presentation Graphics           Swedish         20.794 kbps                     
Presentation Graphics           English         47.525 kbps                     
Presentation Graphics           German          40.888 kbps                     
Presentation Graphics           Spanish         37.355 kbps                     
Presentation Graphics           French          41.719 kbps                     
Presentation Graphics           Japanese        35.843 kbps                     
Presentation Graphics           English         72.331 kbps                     
Presentation Graphics           German          64.541 kbps                     
Presentation Graphics           Spanish         59.944 kbps                     
Presentation Graphics           French          60.889 kbps                     
Presentation Graphics           Japanese        42.589 kbps                     
Presentation Graphics           English         0.606 kbps                     
Presentation Graphics           German          0.069 kbps                     
Presentation Graphics           Spanish         0.677 kbps                     
Presentation Graphics           French          0.688 kbps                     
Presentation Graphics           Japanese        0.208 kbps        

Video
ID : 1
ID in the original source medium : 4113 (0x1011)
Format : HEVC
Format/Info : High Efficiency Video Coding
Format profile : Main [email protected]@High
HDR format : Dolby Vision, Version 1.0, dvhe.07.06, BL+EL+RPU, Blu-ray compatible / SMPTE ST 2086, HDR10 compatible
Codec ID : V_MPEGH/ISO/HEVC
Duration : 1 h 45 min
Bit rate : 62.8 Mb/s
Width : 3 840 pixels
Height : 2 160 pixels
Display aspect ratio : 16:9
Frame rate mode : Constant
Frame rate : 23.976 (24000/1001) FPS
Color space : YUV
Chroma subsampling : 4:2:0 (Type 2)
Bit depth : 10 bits
Bits/(Pixel*Frame) : 0.316
Stream size : 46.2 GiB (82%)
Language : English
Default : No
Forced : No
Color range : Limited
Color primaries : BT.2020
Transfer characteristics : PQ
Matrix coefficients : BT.2020 non-constant
Mastering display color primaries : Display P3
Mastering display luminance : min: 0.0001 cd/m2, max: 1000 cd/m2
Original source medium : Blu-ray

Audio #1
ID : 2
ID in the original source medium : 4352 (0x1100)
Format : MLP FBA
Format/Info : Meridian Lossless Packing FBA
Commercial name : Dolby TrueHD
Codec ID : A_TRUEHD
Duration : 1 h 45 min
Bit rate mode : Variable
Bit rate : 5 401 kb/s
Maximum bit rate : 7 383 kb/s
Channel(s) : 8 channels
Channel layout : L R C LFE Ls Rs Lb Rb
Sampling rate : 48.0 kHz
Frame rate : 1 200.000 FPS (40 SPF)
Bit depth : 24 bits
Compression mode : Lossless
Stream size : 3.97 GiB (7%)
Title : TrueHD 7.1
Language : English
Default : Yes
Forced : No
Original source medium : Blu-ray

Audio #2
ID : 3
Format : DTS XLL
Format/Info : Digital Theater Systems
Commercial name : DTS-HD Master Audio
Codec ID : A_DTS
Duration : 1 h 45 min
Bit rate mode : Variable
Bit rate : 4 678 kb/s
Channel(s) : 8 channels
Channel layout : C L R LFE Lb Rb Lss Rss
Sampling rate : 48.0 kHz
Frame rate : 93.750 FPS (512 SPF)
Bit depth : 24 bits
Compression mode : Lossless
Stream size : 3.44 GiB (6%)
Title : DTS-HD MA 7.1
Language : English
Default : No
Forced : No

Audio #3
ID : 4
ID in the original source medium : 4352 (0x1100)
Format : AC-3
Format/Info : Audio Coding 3
Commercial name : Dolby Digital
Format settings : Dolby Surround EX
Codec ID : A_AC3
Duration : 1 h 45 min
Bit rate mode : Constant
Bit rate : 640 kb/s
Channel(s) : 6 channels
Channel layout : L R C LFE Ls Rs
Sampling rate : 48.0 kHz
Frame rate : 31.250 FPS (1536 SPF)
Compression mode : Lossy
Stream size : 482 MiB (1%)
Title : DD 5.1
Language : English
Service kind : Complete Main
Default : No
Forced : No
Original source medium : Blu-ray

Audio #4
ID : 5
ID in the original source medium : 4353 (0x1101)
Format : MLP FBA
Format/Info : Meridian Lossless Packing FBA
Commercial name : Dolby TrueHD
Codec ID : A_TRUEHD
Duration : 1 h 45 min
Bit rate mode : Variable
Bit rate : 1 073 kb/s
Maximum bit rate : 1 476 kb/s
Channel(s) : 2 channels
Channel layout : L R
Sampling rate : 48.0 kHz
Frame rate : 1 200.000 FPS (40 SPF)
Bit depth : 24 bits
Compression mode : Lossless
Stream size : 807 MiB (1%)
Title : Stereo
Language : German
Default : No
Forced : No
Original source medium : Blu-ray

Audio #5
ID : 6
ID in the original source medium : 4353 (0x1101)
Format : AC-3
Format/Info : Audio Coding 3
Commercial name : Dolby Digital
Format settings : Dolby Surround
Codec ID : A_AC3
Duration : 1 h 45 min
Bit rate mode : Constant
Bit rate : 224 kb/s
Channel(s) : 2 channels
Channel layout : L R
Sampling rate : 48.0 kHz
Frame rate : 31.250 FPS (1536 SPF)
Compression mode : Lossy
Stream size : 169 MiB (0%)
Title : DD 2.0
Language : German
Service kind : Complete Main
Default : No
Forced : No
Original source medium : Blu-ray

Audio #6
ID : 7
ID in the original source medium : 4354 (0x1102)
Format : AC-3
Format/Info : Audio Coding 3
Commercial name : Dolby Digital
Format settings : Dolby Surround
Codec ID : A_AC3
Duration : 1 h 45 min
Bit rate mode : Constant
Bit rate : 224 kb/s
Channel(s) : 2 channels
Channel layout : L R
Sampling rate : 48.0 kHz
Frame rate : 31.250 FPS (1536 SPF)
Compression mode : Lossy
Stream size : 169 MiB (0%)
Title : DD 2.0
Language : Spanish
Service kind : Complete Main
Default : No
Forced : No
Original source medium : Blu-ray

Audio #7
ID : 8
ID in the original source medium : 4355 (0x1103)
Format : AC-3
Format/Info : Audio Coding 3
Commercial name : Dolby Digital
Format settings : Dolby Surround
Codec ID : A_AC3
Duration : 1 h 45 min
Bit rate mode : Constant
Bit rate : 224 kb/s
Channel(s) : 2 channels
Channel layout : L R
Sampling rate : 48.0 kHz
Frame rate : 31.250 FPS (1536 SPF)
Compression mode : Lossy
Stream size : 169 MiB (0%)
Title : DD 2.0
Language : French
Service kind : Complete Main
Default : No
Forced : No
Original source medium : Blu-ray

Audio #8
ID : 9
ID in the original source medium : 4356 (0x1104)
Format : AC-3
Format/Info : Audio Coding 3
Commercial name : Dolby Digital
Codec ID : A_AC3
Duration : 1 h 45 min
Bit rate mode : Constant
Bit rate : 640 kb/s
Channel(s) : 6 channels
Channel layout : L R C LFE Ls Rs
Sampling rate : 48.0 kHz
Frame rate : 31.250 FPS (1536 SPF)
Compression mode : Lossy
Stream size : 482 MiB (1%)
Title : DD 5.1
Language : Japanese
Service kind : Complete Main
Default : No
Forced : No
Original source medium : Blu-ray

Audio #9
ID : 10
ID in the original source medium : 4357 (0x1105)
Format : AC-3
Format/Info : Audio Coding 3
Commercial name : Dolby Digital
Codec ID : A_AC3
Duration : 1 h 45 min
Bit rate mode : Constant
Bit rate : 224 kb/s
Channel(s) : 2 channels
Channel layout : L R
Sampling rate : 48.0 kHz
Frame rate : 31.250 FPS (1536 SPF)
Compression mode : Lossy
Stream size : 169 MiB (0%)
Title : DD 2.0
Language : English
Service kind : Complete Main
Default : No
Forced : No
Original source medium : Blu-ray

Audio #10
ID : 11
ID in the original source medium : 4358 (0x1106)
Format : AC-3
Format/Info : Audio Coding 3
Commercial name : Dolby Digital
Codec ID : A_AC3
Duration : 1 h 45 min
Bit rate mode : Constant
Bit rate : 224 kb/s
Channel(s) : 2 channels
Channel layout : L R
Sampling rate : 48.0 kHz
Frame rate : 31.250 FPS (1536 SPF)
Compression mode : Lossy
Stream size : 169 MiB (0%)
Title : DD 2.0
Language : English
Service kind : Complete Main
Default : No
Forced : No
Original source medium : Blu-ray

Text #1
ID : 12
Format : UTF-8
Codec ID : S_TEXT/UTF8
Codec ID/Info : UTF-8 Plain Text
Duration : 1 h 38 min
Bit rate : 45 b/s
Count of elements : 969
Stream size : 32.6 KiB (0%)
Title : SRT
Language : English
Default : Yes
Forced : No

Text #2
ID : 13
ID in the original source medium : 4768 (0x12A0)
Format : PGS
Muxing mode : zlib
Codec ID : S_HDMV/PGS
Codec ID/Info : Picture based subtitle format used on BDs/HD-DVDs
Duration : 1 h 38 min
Bit rate : 28.9 kb/s
Count of elements : 1952
Stream size : 20.3 MiB (0%)
Language : English
Default : No
Forced : No
Original source medium : Blu-ray

Text #3
ID : 14
ID in the original source medium : 4769 (0x12A1)
Format : PGS
Muxing mode : zlib
Codec ID : S_HDMV/PGS
Codec ID/Info : Picture based subtitle format used on BDs/HD-DVDs
Duration : 1 h 38 min
Bit rate : 32.4 kb/s
Count of elements : 2250
Stream size : 22.9 MiB (0%)
Language : English
Default : No
Forced : No
Original source medium : Blu-ray

Text #4
ID : 15
ID in the original source medium : 4770 (0x12A2)
Format : PGS
Muxing mode : zlib
Codec ID : S_HDMV/PGS
Codec ID/Info : Picture based subtitle format used on BDs/HD-DVDs
Duration : 1 h 44 min
Bit rate : 22.2 kb/s
Count of elements : 1416
Stream size : 16.6 MiB (0%)
Language : Danish
Default : No
Forced : No
Original source medium : Blu-ray

Text #5
ID : 16
ID in the original source medium : 4771 (0x12A3)
Format : PGS
Muxing mode : zlib
Codec ID : S_HDMV/PGS
Codec ID/Info : Picture based subtitle format used on BDs/HD-DVDs
Duration : 1 h 44 min
Bit rate : 27.1 kb/s
Count of elements : 1718
Stream size : 20.3 MiB (0%)
Language : German
Default : No
Forced : No
Original source medium : Blu-ray

Text #6
ID : 17
ID in the original source medium : 4772 (0x12A4)
Format : PGS
Muxing mode : zlib
Codec ID : S_HDMV/PGS
Codec ID/Info : Picture based subtitle format used on BDs/HD-DVDs
Duration : 1 h 44 min
Bit rate : 27.0 kb/s
Count of elements : 1720
Stream size : 20.3 MiB (0%)
Language : Spanish
Default : No
Forced : No
Original source medium : Blu-ray

Text #7
ID : 18
ID in the original source medium : 4773 (0x12A5)
Format : PGS
Muxing mode : zlib
Codec ID : S_HDMV/PGS
Codec ID/Info : Picture based subtitle format used on BDs/HD-DVDs
Duration : 1 h 44 min
Bit rate : 23.4 kb/s
Count of elements : 1726
Stream size : 17.6 MiB (0%)
Language : French
Default : No
Forced : No
Original source medium : Blu-ray

Text #8
ID : 19
ID in the original source medium : 4774 (0x12A6)
Format : PGS
Muxing mode : zlib
Codec ID : S_HDMV/PGS
Codec ID/Info : Picture based subtitle format used on BDs/HD-DVDs
Duration : 1 h 39 min
Bit rate : 19.9 kb/s
Count of elements : 1852
Stream size : 14.1 MiB (0%)
Language : Japanese
Default : No
Forced : No
Original source medium : Blu-ray

Text #9
ID : 20
ID in the original source medium : 4775 (0x12A7)
Format : PGS
Muxing mode : zlib
Codec ID : S_HDMV/PGS
Codec ID/Info : Picture based subtitle format used on BDs/HD-DVDs
Duration : 1 h 44 min
Bit rate : 21.7 kb/s
Count of elements : 1334
Stream size : 16.2 MiB (0%)
Language : Dutch
Default : No
Forced : No
Original source medium : Blu-ray

Text #10
ID : 21
ID in the original source medium : 4776 (0x12A8)
Format : PGS
Muxing mode : zlib
Codec ID : S_HDMV/PGS
Codec ID/Info : Picture based subtitle format used on BDs/HD-DVDs
Duration : 1 h 44 min
Bit rate : 26.3 kb/s
Count of elements : 1716
Stream size : 19.7 MiB (0%)
Language : Norwegian
Default : No
Forced : No
Original source medium : Blu-ray

Text #11
ID : 22
ID in the original source medium : 4777 (0x12A9)
Format : PGS
Muxing mode : zlib
Codec ID : S_HDMV/PGS
Codec ID/Info : Picture based subtitle format used on BDs/HD-DVDs
Duration : 1 h 44 min
Bit rate : 23.4 kb/s
Count of elements : 1538
Stream size : 17.5 MiB (0%)
Language : Finnish
Default : No
Forced : No
Original source medium : Blu-ray

Text #12
ID : 23
ID in the original source medium : 4778 (0x12AA)
Format : PGS
Muxing mode : zlib
Codec ID : S_HDMV/PGS
Codec ID/Info : Picture based subtitle format used on BDs/HD-DVDs
Duration : 1 h 44 min
Bit rate : 20.9 kb/s
Count of elements : 1406
Stream size : 15.7 MiB (0%)
Language : Swedish
Default : No
Forced : No
Original source medium : Blu-ray

Text #13
ID : 24
ID in the original source medium : 4779 (0x12AB)
Format : PGS
Muxing mode : zlib
Codec ID : S_HDMV/PGS
Codec ID/Info : Picture based subtitle format used on BDs/HD-DVDs
Duration : 1 h 40 min
Bit rate : 49.8 kb/s
Count of elements : 2326
Stream size : 35.8 MiB (0%)
Language : English
Default : No
Forced : No
Original source medium : Blu-ray

Text #14
ID : 25
ID in the original source medium : 4780 (0x12AC)
Format : PGS
Muxing mode : zlib
Codec ID : S_HDMV/PGS
Codec ID/Info : Picture based subtitle format used on BDs/HD-DVDs
Duration : 1 h 44 min
Bit rate : 41.1 kb/s
Count of elements : 1904
Stream size : 30.8 MiB (0%)
Language : German
Default : No
Forced : No
Original source medium : Blu-ray

Text #15
ID : 26
ID in the original source medium : 4781 (0x12AD)
Format : PGS
Muxing mode : zlib
Codec ID : S_HDMV/PGS
Codec ID/Info : Picture based subtitle format used on BDs/HD-DVDs
Duration : 1 h 44 min
Bit rate : 37.6 kb/s
Count of elements : 1912
Stream size : 28.1 MiB (0%)
Language : Spanish
Default : No
Forced : No
Original source medium : Blu-ray

Text #16
ID : 27
ID in the original source medium : 4782 (0x12AE)
Format : PGS
Muxing mode : zlib
Codec ID : S_HDMV/PGS
Codec ID/Info : Picture based subtitle format used on BDs/HD-DVDs
Duration : 1 h 44 min
Bit rate : 42.0 kb/s
Count of elements : 2012
Stream size : 31.4 MiB (0%)
Language : French
Default : No
Forced : No
Original source medium : Blu-ray

Text #17
ID : 28
ID in the original source medium : 4783 (0x12AF)
Format : PGS
Muxing mode : zlib
Codec ID : S_HDMV/PGS
Codec ID/Info : Picture based subtitle format used on BDs/HD-DVDs
Duration : 1 h 40 min
Bit rate : 37.6 kb/s
Count of elements : 1954
Stream size : 27.0 MiB (0%)
Language : Japanese
Default : No
Forced : No
Original source medium : Blu-ray

Text #18
ID : 29
ID in the original source medium : 4784 (0x12B0)
Format : PGS
Muxing mode : zlib
Codec ID : S_HDMV/PGS
Codec ID/Info : Picture based subtitle format used on BDs/HD-DVDs
Duration : 1 h 39 min
Bit rate : 76.3 kb/s
Count of elements : 3546
Stream size : 54.4 MiB (0%)
Language : English
Default : No
Forced : No
Original source medium : Blu-ray

Text #19
ID : 30
ID in the original source medium : 4785 (0x12B1)
Format : PGS
Muxing mode : zlib
Codec ID : S_HDMV/PGS
Codec ID/Info : Picture based subtitle format used on BDs/HD-DVDs
Duration : 1 h 45 min
Bit rate : 64.6 kb/s
Count of elements : 3546
Stream size : 48.6 MiB (0%)
Language : German
Default : No
Forced : No
Original source medium : Blu-ray

Text #20
ID : 31
ID in the original source medium : 4786 (0x12B2)
Format : PGS
Muxing mode : zlib
Codec ID : S_HDMV/PGS
Codec ID/Info : Picture based subtitle format used on BDs/HD-DVDs
Duration : 1 h 45 min
Bit rate : 60.0 kb/s
Count of elements : 3548
Stream size : 45.1 MiB (0%)
Language : Spanish
Default : No
Forced : No
Original source medium : Blu-ray

Text #21
ID : 32
ID in the original source medium : 4787 (0x12B3)
Format : PGS
Muxing mode : zlib
Codec ID : S_HDMV/PGS
Codec ID/Info : Picture based subtitle format used on BDs/HD-DVDs
Duration : 1 h 45 min
Bit rate : 60.9 kb/s
Count of elements : 3550
Stream size : 45.8 MiB (0%)
Language : French
Default : No
Forced : No
Original source medium : Blu-ray

Text #22
ID : 33
ID in the original source medium : 4788 (0x12B4)
Format : PGS
Muxing mode : zlib
Codec ID : S_HDMV/PGS
Codec ID/Info : Picture based subtitle format used on BDs/HD-DVDs
Duration : 1 h 39 min
Bit rate : 44.9 kb/s
Count of elements : 2582
Stream size : 32.1 MiB (0%)
Language : Japanese
Default : No
Forced : No
Original source medium : Blu-ray

Text #23
ID : 34
ID in the original source medium : 4789 (0x12B5)
Format : PGS
Muxing mode : zlib
Codec ID : S_HDMV/PGS
Codec ID/Info : Picture based subtitle format used on BDs/HD-DVDs
Duration : 1 h 12 min
Bit rate : 880 b/s
Count of elements : 74
Stream size : 467 KiB (0%)
Title : COMMENTARY
Language : English
Default : No
Forced : No
Original source medium : Blu-ray

Text #24
ID : 35
ID in the original source medium : 4790 (0x12B6)
Format : PGS
Muxing mode : zlib
Codec ID : S_HDMV/PGS
Codec ID/Info : Picture based subtitle format used on BDs/HD-DVDs
Duration : 1 h 36 min
Bit rate : 75 b/s
Count of elements : 4
Stream size : 53.5 KiB (0%)
Title : COMMENTARY
Language : German
Default : No
Forced : No
Original source medium : Blu-ray

Text #25
ID : 36
ID in the original source medium : 4791 (0x12B7)
Format : PGS
Muxing mode : zlib
Codec ID : S_HDMV/PGS
Codec ID/Info : Picture based subtitle format used on BDs/HD-DVDs
Duration : 1 h 18 min
Bit rate : 911 b/s
Count of elements : 68
Stream size : 522 KiB (0%)
Title : COMMENTARY
Language : Spanish
Default : No
Forced : No
Original source medium : Blu-ray

Text #26
ID : 37
ID in the original source medium : 4792 (0x12B8)
Format : PGS
Muxing mode : zlib
Codec ID : S_HDMV/PGS
Codec ID/Info : Picture based subtitle format used on BDs/HD-DVDs
Duration : 1 h 36 min
Bit rate : 749 b/s
Count of elements : 72
Stream size : 530 KiB (0%)
Title : COMMENTARY
Language : French
Default : No
Forced : No
Original source medium : Blu-ray

Menu
00:00:00.000 : Chapter 01
00:11:06.082 : Chapter 02
00:22:36.897 : Chapter 03
00:31:33.683 : Chapter 04
00:41:09.091 : Chapter 05
00:47:22.965 : Chapter 06
00:56:09.491 : Chapter 07
01:11:08.430 : Chapter 08
01:16:25.581 : Chapter 09
01:26:20.300 : Chapter 10
01:39:36.679 : Chapter 11

本帖子中包含更多资源

您需要 登录 才可以下载或查看,没有帐号?立即注册

x
回复

使用道具 举报

0

主题

143

帖子

327

积分

中级会员

Rank: 3Rank: 3

积分
327
发表于 6 天前 | 显示全部楼层
好片,感謝無私分享藍光原盤
回复

使用道具 举报

您需要登录后才可以回帖 登录 | 立即注册

本版积分规则

QQ|Archiver|手机版|小黑屋|原盘天堂 好多盘 点击这里给我发消息

GMT+8, 2021-9-17 00:00 , Processed in 0.056773 second(s), 24 queries .

Powered by Discuz! X3.4

Copyright © 2001-2020, Tencent Cloud.

快速回复 返回顶部 返回列表