请选择 进入手机版 | 继续访问电脑版
本站Q群713428235【盘盘多】已满,请新会员加原盘天堂新官方QQ群709708625【好多盘】,验证信息填写您在论坛的会员名,不填会员名的无法入群哈,进群后修改您的群名片名字为您在论坛的会员名,请务必修改,否则群成员多了不知道您是哪个会员。

原盘天堂

 找回密码
 立即注册
京东商城当当华为商城名牌时尚折扣网,一个新型的网上购物平台,我们每周为您精选3~4个国际知名品牌,商品折扣低至2折限时限量售卖,商品囊括时装、护肤品、箱包、皮具、配饰、香水等等,琳琅满目。亿格瑞A10硬盘播放器 苏宁易购
查看: 41|回复: 0

4k蓝光原盘bdmv 星际旅行2:可汗怒吼 英语原版 star.trek.ii.the.wrath.of.khan.1982.2in1.2160p.bluray.hevc.truehd.7.1[57.85 GB]

[复制链接]

6260

主题

7000

帖子

133万

积分

管理员

Rank: 18Rank: 18Rank: 18Rank: 18Rank: 18

积分
1337486
发表于 7 天前 | 显示全部楼层 |阅读模式








◎译  名 星际旅行2:可汗怒吼/星际迷航2:可汗之怒/星际争霸战2/星舰迷航记2/星舰奇航记2:星战大怒吼(台)/星空奇遇记2:大汗的愤怒(港)/Star Trek 2
◎片  名 Star Trek II: The Wrath of Khan
◎年  代 1982
◎产  地 美国
◎类  别 动作/科幻/惊悚/冒险
◎语  言 英语
◎上映日期 1982-06-04
◎IMDb链接  https://www.imdb.com/title/tt0084726/
◎豆瓣评分 7.7/10 from 12080 users
◎豆瓣链接 https://douban.com/subject/1293316/
◎片  长 113分钟
◎导  演 尼古拉斯·迈耶 Nicholas Meyer
◎编  剧 杰克·B·索厄德斯 Jack B. Sowards / 尼古拉斯·迈耶 Nicholas Meyer
◎主  演 威廉·夏特纳 William Shatner
       伦纳德·尼莫伊 Leonard Nimoy
       德福雷斯特·凯利 DeForest Kelley
       詹姆斯·杜汉 James Doohan
       沃尔特·凯尼格 Walter Koenig
       武井乔治 George Takei
       尼切尔·尼克斯 Nichelle Nichols
       比比·贝什 Bibi Besch
       梅里特·布瑞克 Merritt Butrick
       保罗·温菲尔德 Paul Winfield
       柯尔斯蒂·艾利 Kirstie Alley
       里卡多·蒙特尔班 Ricardo Montalban
       艾克·艾森曼 Ike Eisenmann
       约翰·瓦尔加斯 John Vargas
       约翰·温斯顿 John Winston

◎标  签 科幻 | 美国 | StarTrek | 星际迷航 | 1982 | 经典 | 美国电影 | 电影

◎简  介

  
  邪恶的可汗逃脱十五年前被寇克船长拘禁的星球,他本人是一位智勇双全的领袖,但此刻已变成一个邪恶的狂人,他誓言要向寇克船长讨回血仇。于是他先劫持了一艘联邦战舰,后又偷取了寇克船长的儿子和旧情人制造的毁灭性武器。并引诱企业号投入他精心设计的圈套……
  

Theatrical:
DISC INFO:

Disc Title:     Star.Trek.II.The.Wrath.of.Khan.1982.2in1.2160p.BluRay.HEVC.TrueHD.7.1-NOGRP
Disc Size:      62,120,876,593 bytes
Protection:     AACS2
Extras:         Ultra HD, BD-Java
BDInfo:         0.7.5.9 (compatible layout created by DVDFab 12.0.4.5)

PLAYLIST REPORT:

Name:                   00800.MPLS  
Length:                 1:53:03.693 (h:m:s.ms)
Size:                   56,079,224,832 bytes
Total Bitrate:          66.13 Mbps

(*) Indicates included stream hidden by this playlist.

VIDEO:

Codec                   Bitrate             Description     
-----                   -------             -----------     
MPEG-H HEVC Video       48685 kbps          2160p / 23.976 fps / 16:9 / Main 10 @ Level 5.1 @ High / 4:2:0 / 10 bits / 1000nits / HDR10 / BT.2020
* MPEG-H HEVC Video     5462 kbps (10.09%)  1080p / 23.976 fps / 16:9 / Main 10 @ Level 5.1 @ High / 4:2:0 / 10 bits / 1000nits / Dolby Vision FEL / BT.2020

AUDIO:

Codec                           Language        Bitrate         Description     
-----                           --------        -------         -----------     
Dolby TrueHD Audio              English         3106 kbps       7.1 / 48 kHz / 2466 kbps / 16-bit (AC3 Core: 5.1-EX / 48 kHz / 640 kbps)
Dolby Digital Audio             German          1542 kbps       2.0 / 48 kHz / 1542 kbps / 24-bit (AC3 Core: 2.0 / 48 kHz / 224 kbps / Dolby Surround)
Dolby Digital Audio             Spanish         224 kbps        2.0 / 48 kHz / 224 kbps / Dolby Surround
Dolby Digital Audio             French          224 kbps        2.0 / 48 kHz / 224 kbps / Dolby Surround
Dolby Digital Audio             Japanese        640 kbps        5.1 / 48 kHz / 640 kbps
Dolby Digital Audio             English         224 kbps        2.0 / 48 kHz / 224 kbps
Dolby Digital Audio             English         224 kbps        2.0 / 48 kHz / 224 kbps
* Dolby Digital Audio           English         224 kbps        2.0 / 48 kHz / 224 kbps

SUBTITLES:

Codec                           Language        Bitrate         Description     
-----                           --------        -------         -----------     
Presentation Graphics           English         30.88 kbps                     
Presentation Graphics           English         33.186 kbps                     
Presentation Graphics           Danish          25.421 kbps                     
Presentation Graphics           German          27.546 kbps                     
Presentation Graphics           Spanish         30.167 kbps                     
Presentation Graphics           French          25.64 kbps                     
Presentation Graphics           Japanese        18.107 kbps                     
Presentation Graphics           Dutch           24.418 kbps                     
Presentation Graphics           Norwegian       23.616 kbps                     
Presentation Graphics           Finnish         25.888 kbps                     
Presentation Graphics           Swedish         23.15 kbps                     
Presentation Graphics           English         43.778 kbps                     
Presentation Graphics           German          45.622 kbps                     
Presentation Graphics           Spanish         38.402 kbps                     
Presentation Graphics           French          40.734 kbps                     
Presentation Graphics           Japanese        30.981 kbps                     
Presentation Graphics           English         52.115 kbps                     
Presentation Graphics           German          52.288 kbps                     
Presentation Graphics           Spanish         45.926 kbps                     
Presentation Graphics           French          45.55 kbps                     
Presentation Graphics           Japanese        38.637 kbps                     
Presentation Graphics           Japanese        0.086 kbps                     
* Presentation Graphics         English         43.298 kbps                     
* Presentation Graphics         Japanese        30.696 kbps                     
* Presentation Graphics         Spanish         38.063 kbps                     
* Presentation Graphics         German          45.188 kbps                     
* Presentation Graphics         French          40.252 kbps                     

Directors Cut:
DISC INFO:

Disc Title:     Star.Trek.II.The.Wrath.of.Khan.1982.2in1.2160p.BluRay.HEVC.TrueHD.7.1-NOGRP
Disc Size:      62,120,876,593 bytes
Protection:     AACS2
Extras:         Ultra HD, BD-Java
BDInfo:         0.7.5.9 (compatible layout created by DVDFab 12.0.4.5)

PLAYLIST REPORT:

Name:                   00801.MPLS  
Length:                 1:56:31.526 (h:m:s.ms)
Size:                   57,823,973,376 bytes
Total Bitrate:          66.16 Mbps

(*) Indicates included stream hidden by this playlist.

VIDEO:

Codec                   Bitrate             Description     
-----                   -------             -----------     
MPEG-H HEVC Video       48700 kbps          2160p / 23.976 fps / 16:9 / Main 10 @ Level 5.1 @ High / 4:2:0 / 10 bits / 1000nits / HDR10 / BT.2020
* MPEG-H HEVC Video     5464 kbps (10.09%)  1080p / 23.976 fps / 16:9 / Main 10 @ Level 5.1 @ High / 4:2:0 / 10 bits / 1000nits / Dolby Vision FEL / BT.2020

AUDIO:

Codec                           Language        Bitrate         Description     
-----                           --------        -------         -----------     
Dolby TrueHD Audio              English         3105 kbps       7.1 / 48 kHz / 2465 kbps / 16-bit (AC3 Core: 5.1-EX / 48 kHz / 640 kbps)
Dolby Digital Audio             German          1546 kbps       2.0 / 48 kHz / 1546 kbps / 24-bit (AC3 Core: 2.0 / 48 kHz / 224 kbps / Dolby Surround)
Dolby Digital Audio             Spanish         224 kbps        2.0 / 48 kHz / 224 kbps / Dolby Surround
Dolby Digital Audio             French          224 kbps        2.0 / 48 kHz / 224 kbps / Dolby Surround
Dolby Digital Audio             Japanese        640 kbps        5.1 / 48 kHz / 640 kbps
Dolby Digital Audio             English         224 kbps        2.0 / 48 kHz / 224 kbps
* Dolby Digital Audio           English         224 kbps        2.0 / 48 kHz / 224 kbps
* Dolby Digital Audio           English         224 kbps        2.0 / 48 kHz / 224 kbps

SUBTITLES:

Codec                           Language        Bitrate         Description     
-----                           --------        -------         -----------     
Presentation Graphics           English         31.54 kbps                     
Presentation Graphics           English         33.815 kbps                     
Presentation Graphics           Danish          26.028 kbps                     
Presentation Graphics           German          28.315 kbps                     
Presentation Graphics           Spanish         30.738 kbps                     
Presentation Graphics           French          26.449 kbps                     
Presentation Graphics           Japanese        18.664 kbps                     
Presentation Graphics           Dutch           25.1 kbps                       
Presentation Graphics           Norwegian       24.401 kbps                     
Presentation Graphics           Finnish         26.44 kbps                     
Presentation Graphics           Swedish         23.875 kbps                     
Presentation Graphics           English         43.03 kbps                     
Presentation Graphics           German          44.803 kbps                     
Presentation Graphics           Spanish         37.795 kbps                     
Presentation Graphics           French          40.026 kbps                     
Presentation Graphics           Japanese        30.464 kbps                     
Presentation Graphics           Japanese        0.083 kbps                     
* Presentation Graphics         Spanish         39.286 kbps                     
* Presentation Graphics         English         44.957 kbps                     
* Presentation Graphics         French          45.493 kbps                     
* Presentation Graphics         English         52.089 kbps                     
* Presentation Graphics         French          41.837 kbps                     
* Presentation Graphics         German          46.879 kbps                     
* Presentation Graphics         Spanish         45.971 kbps                     
* Presentation Graphics         German          52.204 kbps                     
* Presentation Graphics         Japanese        38.525 kbps                     
* Presentation Graphics         Japanese        31.921 kbps  


Video
ID : 1
ID in the original source medium : 4113 (0x1011)
Format : HEVC
Format/Info : High Efficiency Video Coding
Format profile : Main [email protected]@High
HDR format : Dolby Vision, Version 1.0, dvhe.07.06, BL+EL+RPU, Blu-ray compatible / SMPTE ST 2086, HDR10 compatible
Codec ID : V_MPEGH/ISO/HEVC
Duration : 1 h 56 min
Bit rate : 54.2 Mb/s
Width : 3 840 pixels
Height : 2 160 pixels
Display aspect ratio : 16:9
Frame rate mode : Constant
Frame rate : 23.976 (24000/1001) FPS
Color space : YUV
Chroma subsampling : 4:2:0 (Type 2)
Bit depth : 10 bits
Bits/(Pixel*Frame) : 0.272
Stream size : 44.1 GiB (84%)
Language : English
Default : No
Forced : No
Color range : Limited
Color primaries : BT.2020
Transfer characteristics : PQ
Matrix coefficients : BT.2020 non-constant
Mastering display color primaries : Display P3
Mastering display luminance : min: 0.0001 cd/m2, max: 1000 cd/m2
Original source medium : Blu-ray

Audio #1
ID : 2
ID in the original source medium : 4352 (0x1100)
Format : MLP FBA
Format/Info : Meridian Lossless Packing FBA
Commercial name : Dolby TrueHD
Codec ID : A_TRUEHD
Duration : 1 h 56 min
Bit rate mode : Variable
Bit rate : 2 465 kb/s
Maximum bit rate : 3 189 kb/s
Channel(s) : 8 channels
Channel layout : L R C LFE Ls Rs Lb Rb
Sampling rate : 48.0 kHz
Frame rate : 1 200.000 FPS (40 SPF)
Bit depth : 24 bits
Compression mode : Lossless
Stream size : 2.01 GiB (4%)
Title : TrueHD 7.1
Language : English
Default : Yes
Forced : No
Original source medium : Blu-ray

Audio #2
ID : 3
Format : DTS XLL
Format/Info : Digital Theater Systems
Commercial name : DTS-HD Master Audio
Codec ID : A_DTS
Duration : 1 h 56 min
Bit rate mode : Variable
Bit rate : 3 949 kb/s
Channel(s) : 8 channels
Channel layout : C L R LFE Lb Rb Lss Rss
Sampling rate : 48.0 kHz
Frame rate : 93.750 FPS (512 SPF)
Bit depth : 24 bits
Compression mode : Lossless
Stream size : 3.21 GiB (6%)
Title : DTS-HD MA 7.1
Language : English
Default : No
Forced : No

Audio #3
ID : 4
ID in the original source medium : 4352 (0x1100)
Format : AC-3
Format/Info : Audio Coding 3
Commercial name : Dolby Digital
Format settings : Dolby Surround EX
Codec ID : A_AC3
Duration : 1 h 56 min
Bit rate mode : Constant
Bit rate : 640 kb/s
Channel(s) : 6 channels
Channel layout : L R C LFE Ls Rs
Sampling rate : 48.0 kHz
Frame rate : 31.250 FPS (1536 SPF)
Compression mode : Lossy
Stream size : 533 MiB (1%)
Title : DD 5.1
Language : English
Service kind : Complete Main
Default : No
Forced : No
Original source medium : Blu-ray

Audio #4
ID : 5
ID in the original source medium : 4353 (0x1101)
Format : MLP FBA
Format/Info : Meridian Lossless Packing FBA
Commercial name : Dolby TrueHD
Codec ID : A_TRUEHD
Duration : 1 h 56 min
Bit rate mode : Variable
Bit rate : 1 322 kb/s
Maximum bit rate : 1 536 kb/s
Channel(s) : 2 channels
Channel layout : L R
Sampling rate : 48.0 kHz
Frame rate : 1 200.000 FPS (40 SPF)
Bit depth : 24 bits
Compression mode : Lossless
Stream size : 1.08 GiB (2%)
Title : TrueHD 2.0
Language : German
Default : No
Forced : No
Original source medium : Blu-ray

Audio #5
ID : 6
ID in the original source medium : 4353 (0x1101)
Format : AC-3
Format/Info : Audio Coding 3
Commercial name : Dolby Digital
Format settings : Dolby Surround
Codec ID : A_AC3
Duration : 1 h 56 min
Bit rate mode : Constant
Bit rate : 224 kb/s
Channel(s) : 2 channels
Channel layout : L R
Sampling rate : 48.0 kHz
Frame rate : 31.250 FPS (1536 SPF)
Compression mode : Lossy
Stream size : 187 MiB (0%)
Title : DD 2.0
Language : German
Service kind : Complete Main
Default : No
Forced : No
Original source medium : Blu-ray

Audio #6
ID : 7
ID in the original source medium : 4354 (0x1102)
Format : AC-3
Format/Info : Audio Coding 3
Commercial name : Dolby Digital
Format settings : Dolby Surround
Codec ID : A_AC3
Duration : 1 h 56 min
Bit rate mode : Constant
Bit rate : 224 kb/s
Channel(s) : 2 channels
Channel layout : L R
Sampling rate : 48.0 kHz
Frame rate : 31.250 FPS (1536 SPF)
Compression mode : Lossy
Stream size : 187 MiB (0%)
Title : DD 2.0
Language : Spanish
Service kind : Complete Main
Default : No
Forced : No
Original source medium : Blu-ray

Audio #7
ID : 8
ID in the original source medium : 4355 (0x1103)
Format : AC-3
Format/Info : Audio Coding 3
Commercial name : Dolby Digital
Format settings : Dolby Surround
Codec ID : A_AC3
Duration : 1 h 56 min
Bit rate mode : Constant
Bit rate : 224 kb/s
Channel(s) : 2 channels
Channel layout : L R
Sampling rate : 48.0 kHz
Frame rate : 31.250 FPS (1536 SPF)
Compression mode : Lossy
Stream size : 187 MiB (0%)
Title : DD 2.0
Language : French
Service kind : Complete Main
Default : No
Forced : No
Original source medium : Blu-ray

Audio #8
ID : 9
ID in the original source medium : 4356 (0x1104)
Format : AC-3
Format/Info : Audio Coding 3
Commercial name : Dolby Digital
Codec ID : A_AC3
Duration : 1 h 56 min
Bit rate mode : Constant
Bit rate : 640 kb/s
Channel(s) : 6 channels
Channel layout : L R C LFE Ls Rs
Sampling rate : 48.0 kHz
Frame rate : 31.250 FPS (1536 SPF)
Compression mode : Lossy
Stream size : 533 MiB (1%)
Title : DD 5.1
Language : Japanese
Service kind : Complete Main
Default : No
Forced : No
Original source medium : Blu-ray

Audio #9
ID : 10
ID in the original source medium : 4359 (0x1107)
Format : AC-3
Format/Info : Audio Coding 3
Commercial name : Dolby Digital
Codec ID : A_AC3
Duration : 1 h 56 min
Bit rate mode : Constant
Bit rate : 224 kb/s
Channel(s) : 2 channels
Channel layout : L R
Sampling rate : 48.0 kHz
Frame rate : 31.250 FPS (1536 SPF)
Compression mode : Lossy
Stream size : 187 MiB (0%)
Title : DD 2.0
Language : English
Service kind : Complete Main
Default : No
Forced : No
Original source medium : Blu-ray

Text #1
ID : 11
Format : UTF-8
Codec ID : S_TEXT/UTF8
Codec ID/Info : UTF-8 Plain Text
Duration : 1 h 47 min
Bit rate : 53 b/s
Count of elements : 1133
Stream size : 42.4 KiB (0%)
Title : SRT
Language : English
Default : Yes
Forced : No

Text #2
ID : 12
ID in the original source medium : 4768 (0x12A0)
Format : PGS
Muxing mode : zlib
Codec ID : S_HDMV/PGS
Codec ID/Info : Picture based subtitle format used on BDs/HD-DVDs
Duration : 1 h 47 min
Bit rate : 34.1 kb/s
Count of elements : 2286
Stream size : 26.3 MiB (0%)
Language : English
Default : No
Forced : No
Original source medium : Blu-ray

Text #3
ID : 13
ID in the original source medium : 4769 (0x12A1)
Format : PGS
Muxing mode : zlib
Codec ID : S_HDMV/PGS
Codec ID/Info : Picture based subtitle format used on BDs/HD-DVDs
Duration : 1 h 47 min
Bit rate : 36.5 kb/s
Count of elements : 2456
Stream size : 28.2 MiB (0%)
Language : English
Default : No
Forced : No
Original source medium : Blu-ray

Text #4
ID : 14
ID in the original source medium : 4770 (0x12A2)
Format : PGS
Muxing mode : zlib
Codec ID : S_HDMV/PGS
Codec ID/Info : Picture based subtitle format used on BDs/HD-DVDs
Duration : 1 h 53 min
Bit rate : 26.7 kb/s
Count of elements : 1910
Stream size : 21.7 MiB (0%)
Language : Danish
Default : No
Forced : No
Original source medium : Blu-ray

Text #5
ID : 15
ID in the original source medium : 4771 (0x12A3)
Format : PGS
Muxing mode : zlib
Codec ID : S_HDMV/PGS
Codec ID/Info : Picture based subtitle format used on BDs/HD-DVDs
Duration : 1 h 55 min
Bit rate : 28.5 kb/s
Count of elements : 2106
Stream size : 23.6 MiB (0%)
Language : German
Default : No
Forced : No
Original source medium : Blu-ray

Text #6
ID : 16
ID in the original source medium : 4771 (0x12A3)
Format : PGS
Muxing mode : zlib
Codec ID : S_HDMV/PGS
Codec ID/Info : Picture based subtitle format used on BDs/HD-DVDs
Duration : 1 h 35 min
Bit rate : 146 b/s
Count of elements : 12
Stream size : 102 KiB (0%)
Language : German
Default : No
Forced : No
Original source medium : Blu-ray

Text #7
ID : 17
ID in the original source medium : 4772 (0x12A4)
Format : PGS
Muxing mode : zlib
Codec ID : S_HDMV/PGS
Codec ID/Info : Picture based subtitle format used on BDs/HD-DVDs
Duration : 1 h 55 min
Bit rate : 31.0 kb/s
Count of elements : 2116
Stream size : 25.6 MiB (0%)
Language : Spanish
Default : No
Forced : No
Original source medium : Blu-ray

Text #8
ID : 18
ID in the original source medium : 4772 (0x12A4)
Format : PGS
Muxing mode : zlib
Codec ID : S_HDMV/PGS
Codec ID/Info : Picture based subtitle format used on BDs/HD-DVDs
Duration : 1 h 35 min
Bit rate : 151 b/s
Count of elements : 14
Stream size : 106 KiB (0%)
Language : Spanish
Default : No
Forced : No
Original source medium : Blu-ray

Text #9
ID : 19
ID in the original source medium : 4773 (0x12A5)
Format : PGS
Muxing mode : zlib
Codec ID : S_HDMV/PGS
Codec ID/Info : Picture based subtitle format used on BDs/HD-DVDs
Duration : 1 h 55 min
Bit rate : 26.6 kb/s
Count of elements : 2150
Stream size : 22.0 MiB (0%)
Language : French
Default : No
Forced : No
Original source medium : Blu-ray

Text #10
ID : 20
ID in the original source medium : 4773 (0x12A5)
Format : PGS
Muxing mode : zlib
Codec ID : S_HDMV/PGS
Codec ID/Info : Picture based subtitle format used on BDs/HD-DVDs
Duration : 27 min 16 s
Bit rate : 518 b/s
Count of elements : 12
Stream size : 104 KiB (0%)
Language : French
Default : No
Forced : No
Original source medium : Blu-ray

Text #11
ID : 21
ID in the original source medium : 4774 (0x12A6)
Format : PGS
Muxing mode : zlib
Codec ID : S_HDMV/PGS
Codec ID/Info : Picture based subtitle format used on BDs/HD-DVDs
Duration : 1 h 48 min
Bit rate : 20.1 kb/s
Count of elements : 2136
Stream size : 15.6 MiB (0%)
Language : Japanese
Default : No
Forced : No
Original source medium : Blu-ray

Text #12
ID : 22
ID in the original source medium : 4775 (0x12A7)
Format : PGS
Muxing mode : zlib
Codec ID : S_HDMV/PGS
Codec ID/Info : Picture based subtitle format used on BDs/HD-DVDs
Duration : 1 h 53 min
Bit rate : 25.7 kb/s
Count of elements : 1646
Stream size : 20.9 MiB (0%)
Language : Dutch
Default : No
Forced : No
Original source medium : Blu-ray

Text #13
ID : 23
ID in the original source medium : 4776 (0x12A8)
Format : PGS
Muxing mode : zlib
Codec ID : S_HDMV/PGS
Codec ID/Info : Picture based subtitle format used on BDs/HD-DVDs
Duration : 1 h 53 min
Bit rate : 25.0 kb/s
Count of elements : 1730
Stream size : 20.3 MiB (0%)
Language : Norwegian
Default : No
Forced : No
Original source medium : Blu-ray

Text #14
ID : 24
ID in the original source medium : 4777 (0x12A9)
Format : PGS
Muxing mode : zlib
Codec ID : S_HDMV/PGS
Codec ID/Info : Picture based subtitle format used on BDs/HD-DVDs
Duration : 1 h 53 min
Bit rate : 27.1 kb/s
Count of elements : 1910
Stream size : 22.0 MiB (0%)
Language : Finnish
Default : No
Forced : No
Original source medium : Blu-ray

Text #15
ID : 25
ID in the original source medium : 4778 (0x12AA)
Format : PGS
Muxing mode : zlib
Codec ID : S_HDMV/PGS
Codec ID/Info : Picture based subtitle format used on BDs/HD-DVDs
Duration : 1 h 53 min
Bit rate : 24.5 kb/s
Count of elements : 1740
Stream size : 19.9 MiB (0%)
Language : Swedish
Default : No
Forced : No
Original source medium : Blu-ray

Text #16
ID : 26
ID in the original source medium : 4789 (0x12B5)
Format : PGS
Muxing mode : zlib
Codec ID : S_HDMV/PGS
Codec ID/Info : Picture based subtitle format used on BDs/HD-DVDs
Duration : 1 h 51 min
Bit rate : 44.9 kb/s
Count of elements : 2500
Stream size : 35.9 MiB (0%)
Title : COMMENTARY
Language : English
Default : No
Forced : No
Original source medium : Blu-ray

Text #17
ID : 27
ID in the original source medium : 4790 (0x12B6)
Format : PGS
Muxing mode : zlib
Codec ID : S_HDMV/PGS
Codec ID/Info : Picture based subtitle format used on BDs/HD-DVDs
Duration : 1 h 55 min
Bit rate : 45.0 kb/s
Count of elements : 2502
Stream size : 37.3 MiB (0%)
Title : COMMENTARY
Language : German
Default : No
Forced : No
Original source medium : Blu-ray

Text #18
ID : 28
ID in the original source medium : 4791 (0x12B7)
Format : PGS
Muxing mode : zlib
Codec ID : S_HDMV/PGS
Codec ID/Info : Picture based subtitle format used on BDs/HD-DVDs
Duration : 1 h 55 min
Bit rate : 38.0 kb/s
Count of elements : 2502
Stream size : 31.5 MiB (0%)
Title : COMMENTARY
Language : Spanish
Default : No
Forced : No
Original source medium : Blu-ray

Text #19
ID : 29
ID in the original source medium : 4792 (0x12B8)
Format : PGS
Muxing mode : zlib
Codec ID : S_HDMV/PGS
Codec ID/Info : Picture based subtitle format used on BDs/HD-DVDs
Duration : 1 h 55 min
Bit rate : 40.2 kb/s
Count of elements : 2502
Stream size : 33.4 MiB (0%)
Title : COMMENTARY
Language : French
Default : No
Forced : No
Original source medium : Blu-ray

Text #20
ID : 30
ID in the original source medium : 4793 (0x12B9)
Format : PGS
Muxing mode : zlib
Codec ID : S_HDMV/PGS
Codec ID/Info : Picture based subtitle format used on BDs/HD-DVDs
Duration : 1 h 51 min
Bit rate : 31.8 kb/s
Count of elements : 1864
Stream size : 25.4 MiB (0%)
Title : COMMENTARY
Language : Japanese
Default : No
Forced : No
Original source medium : Blu-ray

Menu
00:00:00.000 : Chapter 01
00:02:59.137 : Chapter 02
00:07:44.464 : Chapter 03
00:11:53.337 : Chapter 04
00:25:38.662 : Chapter 05
00:31:57.123 : Chapter 06
00:42:53.904 : Chapter 07
00:48:11.930 : Chapter 08
00:57:45.462 : Chapter 09
01:08:36.862 : Chapter 10
01:13:55.431 : Chapter 11
01:18:59.818 : Chapter 12
01:21:23.628 : Chapter 13
01:26:43.948 : Chapter 14
01:32:07.563 : Chapter 15
01:38:48.047 : Chapter 16
01:51:02.072 : Chapter 17

本帖子中包含更多资源

您需要 登录 才可以下载或查看,没有帐号?立即注册

x
回复

使用道具 举报

您需要登录后才可以回帖 登录 | 立即注册

本版积分规则

QQ|Archiver|手机版|小黑屋|原盘天堂 好多盘 点击这里给我发消息

GMT+8, 2021-9-16 23:28 , Processed in 0.053185 second(s), 24 queries .

Powered by Discuz! X3.4

Copyright © 2001-2020, Tencent Cloud.

快速回复 返回顶部 返回列表