请选择 进入手机版 | 继续访问电脑版
本站Q群713428235【盘盘多】已满,请新会员加原盘天堂新官方QQ群709708625【好多盘】,验证信息填写您在论坛的会员名,不填会员名的无法入群哈,进群后修改您的群名片名字为您在论坛的会员名,请务必修改,否则群成员多了不知道您是哪个会员。

原盘天堂

 找回密码
 立即注册
京东商城当当华为商城名牌时尚折扣网,一个新型的网上购物平台,我们每周为您精选3~4个国际知名品牌,商品折扣低至2折限时限量售卖,商品囊括时装、护肤品、箱包、皮具、配饰、香水等等,琳琅满目。亿格瑞A10硬盘播放器 苏宁易购
查看: 49|回复: 2

4k蓝光原盘bdmv 星际旅行1:无限太空 英语原版 star.trek.the.motion.picture.1979.2160p.bluray.hevc.truehd.7.1[59.74 GB]

[复制链接]

6260

主题

7000

帖子

133万

积分

管理员

Rank: 18Rank: 18Rank: 18Rank: 18Rank: 18

积分
1337486
发表于 2021-9-9 08:41:56 | 显示全部楼层 |阅读模式










◎译  名 星际旅行1:无限太空/星际迷航:太空风云/星际迷航1/星际迷航之太空风云/星际争霸战1/星舰迷航记1/星舰奇航记1:星际争霸战(台)/星空奇遇记1:最后战线(港)/Star Trek 1
◎片  名 Star Trek: The Motion Picture
◎年  代 1979
◎产  地 美国
◎类  别 科幻/悬疑/奇幻/冒险
◎语  言 英语/Klingon
◎上映日期 1979-12-06
◎IMDb链接  https://www.imdb.com/title/tt0079945/
◎豆瓣评分 7.7/10 from 14180 users
◎豆瓣链接 https://douban.com/subject/1300089/
◎片  长 132分钟
◎导  演 罗伯特·怀斯 Robert Wise
◎编  剧 哈罗德·利维斯顿 Harold Livingston / 吉恩·罗登贝瑞 Gene Roddenberry / Alan Dean Foster Alan Dean Foster
◎主  演 威廉·夏特纳 William Shatner
       伦纳德·尼莫伊 Leonard Nimoy
       德福雷斯特·凯利 DeForest Kelley
       詹姆斯·杜汉 James Doohan
       武井乔治 George Takei
       珀西丝·汉姆巴塔 Persis Khambatta
       沃尔特·凯尼格 Walter Koenig
       尼切尔·尼克斯 Nichelle Nichols
       Billy Van Zandt Billy Van Zandt
       马杰尔·巴雷特 Majel Barrett
       David Gerrold David Gerrold
       史蒂芬·柯林斯 Stephen Collins
       Christopher Doohan Christopher Doohan
       格雷斯·李·惠特尼 Grace Lee Whitney
       David Gautreaux David Gautreaux
       Norman Stuart Norman Stuart
       Bjo Trimble Bjo Trimble
       Marcy Lafferty Marcy Lafferty
       Michael Rougas Michael Rougas
       Franklyn Seales Franklyn Seales
       汤姆·莫尔加 Tom Morga
       马克·雷纳德 Mark Lenard
       Gary Faga Gary Faga
       Roger Aaron Brown Roger Aaron Brown
       Ralph Byers Ralph Byers
       理查德·阿诺德 Richard Arnold
       乔尔·克莱默 Joel Kramer
        Montgomery Doohan

◎标  签 科幻 | 美国 | 星际迷航 | StarTrek | 1979 | 经典 | 美国电影 | 电影

◎简  介

  
  寇克将军,欢迎您重返企业号!
  
  一团硕大无朋的高能离子云,在遥远而神秘的太空中迅疾地飘移。这团能量云具有无坚不摧的威力,足以毁灭宇宙间任何物质结构。在它所划过的轨迹上,早已有好几艘分属银河三大势力的星舰遇难了……
  
  地球-银河系星球联邦的重镇,星际舰队总部的所在地。在位于北美洲旧金山的星际联邦舰队总部,寇克将军正像往常一样百无聊赖无所事事,突然间却接到了一个再好不过的命令检视企业号准备执行紧急任务。原来地球的防卫体系己经发现了那团高能离子云,而且侦测出它正对准地球飞来。寇克将军的任务,就是要赶在它到达地球之前,率领企业号先迎上去一探究竟。
  
  阔别了将近十年,当寇克重新登上企业号时,内心的兴奋与激动真是难以形容。可是当他 随着现任的舰长迪卡检阅过了人员与装备之后,却又不禁兴起不少陌生的感觉。因为经过 这些年来的不断改良,企业号的功能与威力都增强了许多,但也因而使得前任的舰长寇克 将军有点摸不着头绪了。
  
  不过还好的是,接下来马上就有很大的惊喜冲淡了这份陌生感神通广大的寇克竟然在短时间之内几乎把老战友都找齐了!例外的只有史波克先生,他因为正在瓦肯星进行高深的修炼,所以没有办法赶来,成了这次任务的唯一遗憾。
  
  由于寇克是星际舰队的高级长官,所以在出发之后,迪卡舰长只好很不情愿地暂时交出指挥权。一开始的时候,两位新旧舰长之间难免有些成见与摩擦,但渐渐地就因为相互了解而变得惺惺相惜。寇克发现迪卡的确是个优秀称职的好舰长,而迪卡也开始真正地把寇克 敬作父执。原来迪卡的父亲也曾做过寇克部下,后来却不幸在末日武器那个事件中英勇牺牲了。
  
  企业号上的新面孔,除了迪卡舰长之外,还有一位美丽的女领航员伊莉雅。虽然她是德罗坦星人,但除了有头发之外,却是地球人眼中的标准美女,连迪卡舰长都曾与她有过一段罗曼史。
  
  在迎向能量云的途中,企业号突然发生严重故障,不得不把速度减慢下来。没想到此时史 波克却意外地出现了,使得所有的老战友全都兴奋不已。原来史波克还是没有通过最后的考验,他体内深藏的人性仍然无法根除。当史波克面对现实完全想通之后便决定还是回到星际舰队来继续服役。
  
  不过,在精通心理学而洞悉人性的麦考伊眼中,却已经看出了寇克与史波克的复杂心情。他感觉到他们最关心的似乎并不是这次的任务,而是返企业号的成就感。
  
  由于史波克的高超能力,很快就帮史考特等人排除了一切故障,使得企业号能及时迎上那团能量云。不料正当穿进云层时,伊莉雅却突然被一种不知名的力量掳走,然后却又传送回来了一个与她一模一样的复制人。据这个复制的伊莉雅说,她是那团云派来作为双方沟通的媒介。原来这团云竟然是个有智慧的个体!它透过假伊莉雅,宣称自己的名字叫『威 者』(V'ger),正要航向地球去寻找自己的创造者,并且还要试图与创造者结合。接着假伊莉雅又不顾众人的疑惑,反而开始询问有关企业号的问题。因为过去与伊莉雅的一段渊源,迪卡便理所当然地负责与这位假伊莉雅沟通,他还不时地利用这种特殊关系,试着向她套取更多威者的情报。
  
  当这团能量云还剩几个小时就要到达地球时,史波克擅自偷了一艘小型登陆艇,单枪匹马地驶向云层内部,试着用瓦肯人的心灵感应术与它沟通。结果史波克发现威者竟然是部活机器,它的故乡在银河系的另外一端,是一个全部由机器人统治的星球。
  
  虽然威者具有无比强大的威力,却与人类一样有个始终无法解开的谜-不知道自己的生命从何而来?但史波克不能了解的是,它为什么要到地球去寻找答案?
  
  因为无法阻止威者,企业号只好随着它一起航向地球。到达地球之后,威者立刻开始用各种讯号呼唤它的创造者,结果当然是得不到回音。但又不知是什么缘故,威者却认为这全 是地球上的『碳基生命』干扰所致,因此决定要把所有的生物全部消灭!
  
  好在寇克急中生智,骗假伊莉雅说创造者必须先与威者面对面接触,然后才肯回答它的问 题。假伊莉雅信以为真,便带领寇克、史波克、麦考伊与迪卡一起走向能量云的核心。没想到却发现里面只有一艘老式的宇宙飞船在300年前从地球发射的『航海家二号』(Voyager-Ⅱ)。原来它在飞过了那个机器人的世界之后,被改造成一部有智慧与意识的机器,然后又继续执行人类在三百年前赋予它的原始命令『搜集一切资料并立刻传回地球』。
  
  真相大白之后,威者却又提出一个更惊人的要求,它说它想要真正地拥抱自己的创造者-人类。于是迪卡舰长自告奋勇,在一片奇异耀眼的光芒中,与威者以及复制的伊莉雅结合成一体。威者融合了迪卡与伊莉雅的人性,变成一种崭新的生命形态,心满意足地离开地球,继续它无尽的宇宙探险。地球的危机也就此化解。
  

◎获奖情况

  第52届奥斯卡金像奖  (1980)
  最佳视觉效果(提名) 道格拉斯·特朗布尔 / 约翰·戴克斯特拉 / 理查德·尤里西奇 / 罗伯特·斯沃斯 / 大卫·K·斯图尔特 / 格兰特·麦丘恩
  最佳艺术指导(提名) 约翰·瓦隆 / 琳达·德森纳 / 莱昂·哈里斯 / 哈罗德·迈克尔逊 / 约瑟夫·R·詹宁斯
  最佳原创配乐(提名) 杰瑞·高德史密斯

DISC INFO:

Disc Title:     Star.Trek.The.Motion.Picture.1979.2160p.BluRay.HEVC.TrueHD.7.1-ESiR
Disc Size:      63,868,633,993 bytes
Protection:     AACS2
Extras:         Ultra HD, BD-Java
BDInfo:         0.7.5.9 (compatible layout created by DVDFab 12.0.4.5)

PLAYLIST REPORT:

Name:                   00800.MPLS  
Length:                 2:12:00.162 (h:m:s.ms)
Size:                   61,802,668,032 bytes
Total Bitrate:          62.43 Mbps

(*) Indicates included stream hidden by this playlist.

VIDEO:

Codec                   Bitrate             Description     
-----                   -------             -----------     
MPEG-H HEVC Video       43521 kbps          2160p / 23.976 fps / 16:9 / Main 10 @ Level 5.1 @ High / 4:2:0 / 10 bits / 1000nits / HDR10 / BT.2020
* MPEG-H HEVC Video     4928 kbps (10.17%)  1080p / 23.976 fps / 16:9 / Main 10 @ Level 5.1 @ High / 4:2:0 / 10 bits / 1000nits / Dolby Vision FEL / BT.2020

AUDIO:

Codec                           Language        Bitrate         Description     
-----                           --------        -------         -----------     
Dolby TrueHD Audio              English         6273 kbps       7.1 / 48 kHz / 5633 kbps / 24-bit (AC3 Core: 5.1-EX / 48 kHz / 640 kbps)
Dolby Digital Audio             German          1666 kbps       2.0 / 48 kHz / 1666 kbps / 24-bit (AC3 Core: 2.0 / 48 kHz / 224 kbps / Dolby Surround)
Dolby Digital Audio             Spanish         224 kbps        2.0 / 48 kHz / 224 kbps
Dolby Digital Audio             French          224 kbps        2.0 / 48 kHz / 224 kbps / Dolby Surround
Dolby Digital Audio             Japanese        224 kbps        2.0 / 48 kHz / 224 kbps
Dolby Digital Audio             English         224 kbps        2.0 / 48 kHz / 224 kbps
Dolby Digital Audio             English         224 kbps        2.0 / 48 kHz / 224 kbps

SUBTITLES:

Codec                           Language        Bitrate         Description     
-----                           --------        -------         -----------     
Presentation Graphics           English         25.681 kbps                     
Presentation Graphics           English         27.589 kbps                     
Presentation Graphics           Danish          25.694 kbps                     
Presentation Graphics           German          28.82 kbps                     
Presentation Graphics           Spanish         25.841 kbps                     
Presentation Graphics           French          24.935 kbps                     
Presentation Graphics           Japanese        15.361 kbps                     
Presentation Graphics           Dutch           25.066 kbps                     
Presentation Graphics           Norwegian       23.758 kbps                     
Presentation Graphics           Finnish         22.493 kbps                     
Presentation Graphics           Swedish         26.206 kbps                     
Presentation Graphics           English         54.762 kbps                     
Presentation Graphics           German          56.106 kbps                     
Presentation Graphics           Spanish         51.431 kbps                     
Presentation Graphics           French          51.955 kbps                     
Presentation Graphics           Japanese        37.541 kbps                     
Presentation Graphics           English         0.387 kbps                     
Presentation Graphics           German          0.504 kbps                     
Presentation Graphics           Spanish         0.456 kbps                     
Presentation Graphics           French          0.43 kbps                       
Presentation Graphics           Japanese        0.052 kbps      

Video
ID : 1
ID in the original source medium : 4113 (0x1011)
Format : HEVC
Format/Info : High Efficiency Video Coding
Format profile : Main [email protected]@High
HDR format : Dolby Vision, Version 1.0, dvhe.07.06, BL+EL+RPU, Blu-ray compatible / SMPTE ST 2086, HDR10 compatible
Codec ID : V_MPEGH/ISO/HEVC
Duration : 2 h 12 min
Bit rate : 48.4 Mb/s
Width : 3 840 pixels
Height : 2 160 pixels
Display aspect ratio : 16:9
Frame rate mode : Constant
Frame rate : 23.976 (24000/1001) FPS
Color space : YUV
Chroma subsampling : 4:2:0 (Type 2)
Bit depth : 10 bits
Bits/(Pixel*Frame) : 0.244
Stream size : 44.7 GiB (77%)
Language : English
Default : No
Forced : No
Color range : Limited
Color primaries : BT.2020
Transfer characteristics : PQ
Matrix coefficients : BT.2020 non-constant
Mastering display color primaries : Display P3
Mastering display luminance : min: 0.0001 cd/m2, max: 1000 cd/m2
Original source medium : Blu-ray

Audio #1
ID : 2
ID in the original source medium : 4352 (0x1100)
Format : MLP FBA
Format/Info : Meridian Lossless Packing FBA
Commercial name : Dolby TrueHD
Codec ID : A_TRUEHD
Duration : 2 h 11 min
Bit rate mode : Variable
Bit rate : 5 633 kb/s
Maximum bit rate : 8 199 kb/s
Channel(s) : 8 channels
Channel layout : L R C LFE Ls Rs Lb Rb
Sampling rate : 48.0 kHz
Frame rate : 1 200.000 FPS (40 SPF)
Bit depth : 24 bits
Compression mode : Lossless
Stream size : 5.19 GiB (9%)
Title : TrueHD 7.1
Language : English
Default : Yes
Forced : No
Original source medium : Blu-ray

Audio #2
ID : 3
Format : DTS XLL
Format/Info : Digital Theater Systems
Commercial name : DTS-HD Master Audio
Codec ID : A_DTS
Duration : 2 h 11 min
Bit rate mode : Variable
Bit rate : 5 037 kb/s
Channel(s) : 8 channels
Channel layout : C L R LFE Lb Rb Lss Rss
Sampling rate : 48.0 kHz
Frame rate : 93.750 FPS (512 SPF)
Bit depth : 24 bits
Compression mode : Lossless
Stream size : 4.64 GiB (8%)
Title : DTS-HD MA 7.1
Language : English
Default : No
Forced : No

Audio #3
ID : 4
ID in the original source medium : 4352 (0x1100)
Format : AC-3
Format/Info : Audio Coding 3
Commercial name : Dolby Digital
Format settings : Dolby Surround EX
Codec ID : A_AC3
Duration : 2 h 11 min
Bit rate mode : Constant
Bit rate : 640 kb/s
Channel(s) : 6 channels
Channel layout : L R C LFE Ls Rs
Sampling rate : 48.0 kHz
Frame rate : 31.250 FPS (1536 SPF)
Compression mode : Lossy
Stream size : 604 MiB (1%)
Title : DD 5.1
Language : English
Service kind : Complete Main
Default : No
Forced : No
Original source medium : Blu-ray

Audio #4
ID : 5
ID in the original source medium : 4353 (0x1101)
Format : MLP FBA
Format/Info : Meridian Lossless Packing FBA
Commercial name : Dolby TrueHD
Codec ID : A_TRUEHD
Duration : 2 h 12 min
Bit rate mode : Variable
Bit rate : 1 442 kb/s
Maximum bit rate : 1 782 kb/s
Channel(s) : 2 channels
Channel layout : L R
Sampling rate : 48.0 kHz
Frame rate : 1 200.000 FPS (40 SPF)
Bit depth : 24 bits
Compression mode : Lossless
Stream size : 1.33 GiB (2%)
Title : TrueHD 2.0
Language : German
Default : No
Forced : No
Original source medium : Blu-ray

Audio #5
ID : 6
ID in the original source medium : 4353 (0x1101)
Format : AC-3
Format/Info : Audio Coding 3
Commercial name : Dolby Digital
Format settings : Dolby Surround
Codec ID : A_AC3
Duration : 2 h 12 min
Bit rate mode : Constant
Bit rate : 224 kb/s
Channel(s) : 2 channels
Channel layout : L R
Sampling rate : 48.0 kHz
Frame rate : 31.250 FPS (1536 SPF)
Compression mode : Lossy
Stream size : 211 MiB (0%)
Title : DD 2.0
Language : German
Service kind : Complete Main
Default : No
Forced : No
Original source medium : Blu-ray

Audio #6
ID : 7
ID in the original source medium : 4354 (0x1102)
Format : AC-3
Format/Info : Audio Coding 3
Commercial name : Dolby Digital
Codec ID : A_AC3
Duration : 2 h 12 min
Bit rate mode : Constant
Bit rate : 224 kb/s
Channel(s) : 2 channels
Channel layout : L R
Sampling rate : 48.0 kHz
Frame rate : 31.250 FPS (1536 SPF)
Compression mode : Lossy
Stream size : 211 MiB (0%)
Title : DD 2.0
Language : Spanish
Service kind : Complete Main
Default : No
Forced : No
Original source medium : Blu-ray

Audio #7
ID : 8
ID in the original source medium : 4355 (0x1103)
Format : AC-3
Format/Info : Audio Coding 3
Commercial name : Dolby Digital
Format settings : Dolby Surround
Codec ID : A_AC3
Duration : 2 h 12 min
Bit rate mode : Constant
Bit rate : 224 kb/s
Channel(s) : 2 channels
Channel layout : L R
Sampling rate : 48.0 kHz
Frame rate : 31.250 FPS (1536 SPF)
Compression mode : Lossy
Stream size : 211 MiB (0%)
Title : DD 2.0
Language : French
Service kind : Complete Main
Default : No
Forced : No
Original source medium : Blu-ray

Audio #8
ID : 9
ID in the original source medium : 4356 (0x1104)
Format : AC-3
Format/Info : Audio Coding 3
Commercial name : Dolby Digital
Codec ID : A_AC3
Duration : 2 h 12 min
Bit rate mode : Constant
Bit rate : 224 kb/s
Channel(s) : 2 channels
Channel layout : L R
Sampling rate : 48.0 kHz
Frame rate : 31.250 FPS (1536 SPF)
Compression mode : Lossy
Stream size : 211 MiB (0%)
Title : DD 2.0
Language : Japanese
Service kind : Complete Main
Default : No
Forced : No
Original source medium : Blu-ray

Audio #9
ID : 10
ID in the original source medium : 4357 (0x1105)
Format : AC-3
Format/Info : Audio Coding 3
Commercial name : Dolby Digital
Codec ID : A_AC3
Duration : 2 h 12 min
Bit rate mode : Constant
Bit rate : 224 kb/s
Channel(s) : 2 channels
Channel layout : L R
Sampling rate : 48.0 kHz
Frame rate : 31.250 FPS (1536 SPF)
Compression mode : Lossy
Stream size : 211 MiB (0%)
Title : DD 2.0
Language : English
Service kind : Complete Main
Default : No
Forced : No
Original source medium : Blu-ray

Audio #10
ID : 11
ID in the original source medium : 4358 (0x1106)
Format : AC-3
Format/Info : Audio Coding 3
Commercial name : Dolby Digital
Codec ID : A_AC3
Duration : 2 h 12 min
Bit rate mode : Constant
Bit rate : 224 kb/s
Channel(s) : 2 channels
Channel layout : L R
Sampling rate : 48.0 kHz
Frame rate : 31.250 FPS (1536 SPF)
Compression mode : Lossy
Stream size : 211 MiB (0%)
Title : DD 2.0
Language : English
Service kind : Complete Main
Default : No
Forced : No
Original source medium : Blu-ray

Text #1
ID : 12
Format : UTF-8
Codec ID : S_TEXT/UTF8
Codec ID/Info : UTF-8 Plain Text
Duration : 2 h 2 min
Bit rate : 42 b/s
Count of elements : 1054
Stream size : 38.4 KiB (0%)
Title : SRT
Language : English
Default : Yes
Forced : No

Text #2
ID : 13
ID in the original source medium : 4768 (0x12A0)
Format : PGS
Muxing mode : zlib
Codec ID : S_HDMV/PGS
Codec ID/Info : Picture based subtitle format used on BDs/HD-DVDs
Duration : 2 h 2 min
Bit rate : 27.6 kb/s
Count of elements : 2142
Stream size : 24.2 MiB (0%)
Language : English
Default : No
Forced : No
Original source medium : Blu-ray

Text #3
ID : 14
ID in the original source medium : 4769 (0x12A1)
Format : PGS
Muxing mode : zlib
Codec ID : S_HDMV/PGS
Codec ID/Info : Picture based subtitle format used on BDs/HD-DVDs
Duration : 2 h 2 min
Bit rate : 29.6 kb/s
Count of elements : 2296
Stream size : 26.0 MiB (0%)
Language : English
Default : No
Forced : No
Original source medium : Blu-ray

Text #4
ID : 15
ID in the original source medium : 4770 (0x12A2)
Format : PGS
Muxing mode : zlib
Codec ID : S_HDMV/PGS
Codec ID/Info : Picture based subtitle format used on BDs/HD-DVDs
Duration : 2 h 7 min
Bit rate : 26.6 kb/s
Count of elements : 2148
Stream size : 24.3 MiB (0%)
Language : Danish
Default : No
Forced : No
Original source medium : Blu-ray

Text #5
ID : 16
ID in the original source medium : 4771 (0x12A3)
Format : PGS
Muxing mode : zlib
Codec ID : S_HDMV/PGS
Codec ID/Info : Picture based subtitle format used on BDs/HD-DVDs
Duration : 2 h 9 min
Bit rate : 29.3 kb/s
Count of elements : 2150
Stream size : 27.2 MiB (0%)
Language : German
Default : No
Forced : No
Original source medium : Blu-ray

Text #6
ID : 17
ID in the original source medium : 4772 (0x12A4)
Format : PGS
Muxing mode : zlib
Codec ID : S_HDMV/PGS
Codec ID/Info : Picture based subtitle format used on BDs/HD-DVDs
Duration : 2 h 9 min
Bit rate : 26.3 kb/s
Count of elements : 2150
Stream size : 24.4 MiB (0%)
Language : Spanish
Default : No
Forced : No
Original source medium : Blu-ray

Text #7
ID : 18
ID in the original source medium : 4773 (0x12A5)
Format : PGS
Muxing mode : zlib
Codec ID : S_HDMV/PGS
Codec ID/Info : Picture based subtitle format used on BDs/HD-DVDs
Duration : 2 h 9 min
Bit rate : 25.3 kb/s
Count of elements : 2150
Stream size : 23.5 MiB (0%)
Language : French
Default : No
Forced : No
Original source medium : Blu-ray

Text #8
ID : 19
ID in the original source medium : 4774 (0x12A6)
Format : PGS
Muxing mode : zlib
Codec ID : S_HDMV/PGS
Codec ID/Info : Picture based subtitle format used on BDs/HD-DVDs
Duration : 2 h 3 min
Bit rate : 16.4 kb/s
Count of elements : 1888
Stream size : 14.5 MiB (0%)
Language : Japanese
Default : No
Forced : No
Original source medium : Blu-ray

Text #9
ID : 20
ID in the original source medium : 4775 (0x12A7)
Format : PGS
Muxing mode : zlib
Codec ID : S_HDMV/PGS
Codec ID/Info : Picture based subtitle format used on BDs/HD-DVDs
Duration : 2 h 7 min
Bit rate : 26.0 kb/s
Count of elements : 2148
Stream size : 23.7 MiB (0%)
Language : Dutch
Default : No
Forced : No
Original source medium : Blu-ray

Text #10
ID : 21
ID in the original source medium : 4776 (0x12A8)
Format : PGS
Muxing mode : zlib
Codec ID : S_HDMV/PGS
Codec ID/Info : Picture based subtitle format used on BDs/HD-DVDs
Duration : 2 h 7 min
Bit rate : 24.6 kb/s
Count of elements : 2148
Stream size : 22.4 MiB (0%)
Language : Norwegian
Default : No
Forced : No
Original source medium : Blu-ray

Text #11
ID : 22
ID in the original source medium : 4777 (0x12A9)
Format : PGS
Muxing mode : zlib
Codec ID : S_HDMV/PGS
Codec ID/Info : Picture based subtitle format used on BDs/HD-DVDs
Duration : 2 h 7 min
Bit rate : 23.3 kb/s
Count of elements : 2148
Stream size : 21.2 MiB (0%)
Language : Finnish
Default : No
Forced : No
Original source medium : Blu-ray

Text #12
ID : 23
ID in the original source medium : 4778 (0x12AA)
Format : PGS
Muxing mode : zlib
Codec ID : S_HDMV/PGS
Codec ID/Info : Picture based subtitle format used on BDs/HD-DVDs
Duration : 2 h 7 min
Bit rate : 27.2 kb/s
Count of elements : 2148
Stream size : 24.7 MiB (0%)
Language : Swedish
Default : No
Forced : No
Original source medium : Blu-ray

Text #13
ID : 24
ID in the original source medium : 4779 (0x12AB)
Format : PGS
Muxing mode : zlib
Codec ID : S_HDMV/PGS
Codec ID/Info : Picture based subtitle format used on BDs/HD-DVDs
Duration : 2 h 11 min
Bit rate : 55.1 kb/s
Count of elements : 3826
Stream size : 51.7 MiB (0%)
Language : English
Default : No
Forced : No
Original source medium : Blu-ray

Text #14
ID : 25
ID in the original source medium : 4780 (0x12AC)
Format : PGS
Muxing mode : zlib
Codec ID : S_HDMV/PGS
Codec ID/Info : Picture based subtitle format used on BDs/HD-DVDs
Duration : 2 h 11 min
Bit rate : 56.2 kb/s
Count of elements : 3828
Stream size : 53.0 MiB (0%)
Language : German
Default : No
Forced : No
Original source medium : Blu-ray

Text #15
ID : 26
ID in the original source medium : 4781 (0x12AD)
Format : PGS
Muxing mode : zlib
Codec ID : S_HDMV/PGS
Codec ID/Info : Picture based subtitle format used on BDs/HD-DVDs
Duration : 2 h 11 min
Bit rate : 51.6 kb/s
Count of elements : 3828
Stream size : 48.6 MiB (0%)
Language : Spanish
Default : No
Forced : No
Original source medium : Blu-ray

Text #16
ID : 27
ID in the original source medium : 4782 (0x12AE)
Format : PGS
Muxing mode : zlib
Codec ID : S_HDMV/PGS
Codec ID/Info : Picture based subtitle format used on BDs/HD-DVDs
Duration : 2 h 11 min
Bit rate : 52.1 kb/s
Count of elements : 3828
Stream size : 49.1 MiB (0%)
Language : French
Default : No
Forced : No
Original source medium : Blu-ray

Text #17
ID : 28
ID in the original source medium : 4783 (0x12AF)
Format : PGS
Muxing mode : zlib
Codec ID : S_HDMV/PGS
Codec ID/Info : Picture based subtitle format used on BDs/HD-DVDs
Duration : 2 h 11 min
Bit rate : 37.8 kb/s
Count of elements : 3128
Stream size : 35.4 MiB (0%)
Language : Japanese
Default : No
Forced : No
Original source medium : Blu-ray

Text #18
ID : 29
ID in the original source medium : 4784 (0x12B0)
Format : PGS
Muxing mode : zlib
Codec ID : S_HDMV/PGS
Codec ID/Info : Picture based subtitle format used on BDs/HD-DVDs
Duration : 6 min 52 s
Bit rate : 7 418 b/s
Count of elements : 40
Stream size : 374 KiB (0%)
Language : English
Default : No
Forced : No
Original source medium : Blu-ray

Text #19
ID : 30
ID in the original source medium : 4784 (0x12B0)
Format : PGS
Muxing mode : zlib
Codec ID : S_HDMV/PGS
Codec ID/Info : Picture based subtitle format used on BDs/HD-DVDs
Duration : 6 min 52 s
Bit rate : 7 418 b/s
Count of elements : 40
Stream size : 374 KiB (0%)
Language : English
Default : No
Forced : No
Original source medium : Blu-ray

Text #20
ID : 31
ID in the original source medium : 4785 (0x12B1)
Format : PGS
Muxing mode : zlib
Codec ID : S_HDMV/PGS
Codec ID/Info : Picture based subtitle format used on BDs/HD-DVDs
Duration : 2 h 6 min
Bit rate : 526 b/s
Count of elements : 44
Stream size : 487 KiB (0%)
Language : German
Default : No
Forced : No
Original source medium : Blu-ray

Text #21
ID : 32
ID in the original source medium : 4785 (0x12B1)
Format : PGS
Muxing mode : zlib
Codec ID : S_HDMV/PGS
Codec ID/Info : Picture based subtitle format used on BDs/HD-DVDs
Duration : 2 h 6 min
Bit rate : 526 b/s
Count of elements : 44
Stream size : 487 KiB (0%)
Language : German
Default : No
Forced : No
Original source medium : Blu-ray

Text #22
ID : 33
ID in the original source medium : 4786 (0x12B2)
Format : PGS
Muxing mode : zlib
Codec ID : S_HDMV/PGS
Codec ID/Info : Picture based subtitle format used on BDs/HD-DVDs
Duration : 2 h 6 min
Bit rate : 475 b/s
Count of elements : 44
Stream size : 441 KiB (0%)
Language : Spanish
Default : No
Forced : No
Original source medium : Blu-ray

Text #23
ID : 34
ID in the original source medium : 4786 (0x12B2)
Format : PGS
Muxing mode : zlib
Codec ID : S_HDMV/PGS
Codec ID/Info : Picture based subtitle format used on BDs/HD-DVDs
Duration : 2 h 6 min
Bit rate : 475 b/s
Count of elements : 44
Stream size : 441 KiB (0%)
Language : Spanish
Default : No
Forced : No
Original source medium : Blu-ray

Text #24
ID : 35
ID in the original source medium : 4787 (0x12B3)
Format : PGS
Muxing mode : zlib
Codec ID : S_HDMV/PGS
Codec ID/Info : Picture based subtitle format used on BDs/HD-DVDs
Duration : 2 h 6 min
Bit rate : 448 b/s
Count of elements : 44
Stream size : 415 KiB (0%)
Language : French
Default : No
Forced : No
Original source medium : Blu-ray

Text #25
ID : 36
ID in the original source medium : 4787 (0x12B3)
Format : PGS
Muxing mode : zlib
Codec ID : S_HDMV/PGS
Codec ID/Info : Picture based subtitle format used on BDs/HD-DVDs
Duration : 2 h 6 min
Bit rate : 448 b/s
Count of elements : 44
Stream size : 415 KiB (0%)
Language : French
Default : No
Forced : No
Original source medium : Blu-ray

Text #26
ID : 37
ID in the original source medium : 4788 (0x12B4)
Format : PGS
Muxing mode : zlib
Codec ID : S_HDMV/PGS
Codec ID/Info : Picture based subtitle format used on BDs/HD-DVDs
Duration : 1 h 56 min
Bit rate : 58 b/s
Count of elements : 4
Stream size : 50.1 KiB (0%)
Language : Japanese
Default : No
Forced : No
Original source medium : Blu-ray

Menu
00:00:00.000 : Chapter 01
00:01:41.518 : Chapter 02
00:08:50.905 : Chapter 03
00:11:49.208 : Chapter 04
00:20:46.203 : Chapter 05
00:25:12.636 : Chapter 06
00:28:01.012 : Chapter 07
00:31:31.222 : Chapter 08
00:38:02.822 : Chapter 09
00:44:36.340 : Chapter 10
00:48:07.426 : Chapter 11
00:55:27.907 : Chapter 12
01:01:15.380 : Chapter 13
01:12:20.627 : Chapter 14
01:17:28.769 : Chapter 15
01:21:55.201 : Chapter 16
01:27:21.319 : Chapter 17
01:38:13.846 : Chapter 18
01:46:18.205 : Chapter 19
01:51:56.918 : Chapter 20
02:08:36.250 : Chapter 21

本帖子中包含更多资源

您需要 登录 才可以下载或查看,没有帐号?立即注册

x
回复

使用道具 举报

0

主题

31

帖子

76

积分

注册会员

Rank: 2

积分
76
发表于 2021-9-9 15:22:53 | 显示全部楼层
楼主资源台海了
回复

使用道具 举报

0

主题

584

帖子

2990

积分

金牌会员

Rank: 6Rank: 6

积分
2990
发表于 2021-9-9 17:38:46 | 显示全部楼层
感谢楼主分享,辛苦!
回复

使用道具 举报

您需要登录后才可以回帖 登录 | 立即注册

本版积分规则

QQ|Archiver|手机版|小黑屋|原盘天堂 好多盘 点击这里给我发消息

GMT+8, 2021-9-17 00:22 , Processed in 0.072438 second(s), 24 queries .

Powered by Discuz! X3.4

Copyright © 2001-2020, Tencent Cloud.

快速回复 返回顶部 返回列表