请选择 进入手机版 | 继续访问电脑版
本站Q群713428235【盘盘多】已满,请新会员加原盘天堂新官方QQ群709708625【好多盘】,验证信息填写您在论坛的会员名,不填会员名的无法入群哈,进群后修改您的群名片名字为您在论坛的会员名,请务必修改,否则群成员多了不知道您是哪个会员。

原盘天堂

 找回密码
 立即注册
京东商城当当华为商城名牌时尚折扣网,一个新型的网上购物平台,我们每周为您精选3~4个国际知名品牌,商品折扣低至2折限时限量售卖,商品囊括时装、护肤品、箱包、皮具、配饰、香水等等,琳琅满目。亿格瑞A10硬盘播放器 苏宁易购
查看: 102|回复: 6

2d蓝光原盘bdmv 通道 英语原版 the.gateway.2021.1080p.bluray.avc.dts-hd.ma.5.1[22.25 GB]

[复制链接]

6260

主题

7000

帖子

133万

积分

管理员

Rank: 18Rank: 18Rank: 18Rank: 18Rank: 18

积分
1337486
发表于 2021-9-3 13:14:55 | 显示全部楼层 |阅读模式







◎译  名 通道
◎片  名 The Gateway
◎年  代 2021
◎产  地 美国
◎类  别 剧情
◎语  言 英语
◎IMDb链接  https://www.imdb.com/title/tt10207710/
◎豆瓣评分 /10 from 0 users
◎豆瓣链接 https://douban.com/subject/33431979/
◎导  演 Michele Civetta Michele Civetta
◎编  剧 安德鲁·莱维塔斯 Andrew Levitas / Michele Civetta Michele Civetta
◎主  演 奥立薇娅·玛恩 Olivia Munn
       弗兰克·格里罗 Frank Grillo
       凯斯·大卫 Keith David
       塔恩·曼宁 Taryn Manning
       谢伊·惠格姆 Shea Whigham
       小马克·布恩 Mark Boone Junior
       布鲁斯·邓恩 Bruce Dern
       塔根·伯恩斯 Taegen Burns
       亚历山大·瑞斯 Alexander Wraith
       扎克·艾弗里 Zach Avery
       杰伊·赫农 Jay Hieron

◎标  签 犯罪 | 剧情 | 美国 | 暴力社区 | SheaWhigham | 电影 | 其他电影 | 2021

◎简  介

  
  弗兰克·格里罗、凯斯·大卫([耐撕侦探])、塔恩·曼宁([女子监狱])、小马克·布恩([混乱之子])加盟谢伊·惠格姆、奥立薇娅·玛恩、布鲁斯·邓恩主演新片[通道](The Gateway,暂译)。米歇尔·西梅塔执导。影片围绕一名热情、严肃的社会工作者展开,他负责照顾一名单身母亲的女儿。
  
DISC INFO:

Disc Title:     The.Gateway.2021.1080p.BluRay.AVC.DTS-HD.MA.5.1-FGT
Disc Size:      23,889,249,315 bytes
Protection:     AACS
Extras:         BD-Java
BDInfo:         0.7.5.9 (compatible layout created by DVDFab 12.0.4.5)

PLAYLIST REPORT:

Name:                   00664.MPLS  
Length:                 1:31:15.511 (h:m:s.ms)
Size:                   22,264,774,656 bytes
Total Bitrate:          32.53 Mbps

VIDEO:

Codec                   Bitrate             Description     
-----                   -------             -----------     
MPEG-4 AVC Video        27425 kbps          1080p / 23.976 fps / 16:9 / High Profile 4.1

AUDIO:

Codec                           Language        Bitrate         Description     
-----                           --------        -------         -----------     
DTS-HD Master Audio             English         3349 kbps       5.1 / 48 kHz / 3349 kbps / 24-bit (DTS Core: 5.1 / 48 kHz / 1509 kbps / 24-bit)

SUBTITLES:

Codec                           Language        Bitrate         Description     
-----                           --------        -------         -----------     
Presentation Graphics           English         37.822 kbps                     
Presentation Graphics           Spanish         30.23 kbps                     
Presentation Graphics           French          26.757 kbps

Video
ID : 1
ID in the original source medium : 4113 (0x1011)
Format : AVC
Format/Info : Advanced Video Codec
Format profile : [email protected]
Format settings : CABAC / 4 Ref Frames
Format settings, CABAC : Yes
Format settings, Reference frames : 4 frames
Codec ID : V_MPEG4/ISO/AVC
Duration : 1 h 31 min
Bit rate mode : Variable
Bit rate : 27.1 Mb/s
Maximum bit rate : 37.0 Mb/s
Width : 1 920 pixels
Height : 1 080 pixels
Display aspect ratio : 16:9
Frame rate mode : Constant
Frame rate : 23.976 (24000/1001) FPS
Color space : YUV
Chroma subsampling : 4:2:0
Bit depth : 8 bits
Scan type : Progressive
Bits/(Pixel*Frame) : 0.546
Stream size : 17.3 GiB (89%)
Language : English
Default : No
Forced : No
Original source medium : Blu-ray

Audio
ID : 2
ID in the original source medium : 4352 (0x1100)
Format : DTS XLL
Format/Info : Digital Theater Systems
Commercial name : DTS-HD Master Audio
Codec ID : A_DTS
Duration : 1 h 31 min
Bit rate mode : Variable
Bit rate : 3 349 kb/s
Channel(s) : 6 channels
Channel layout : C L R Ls Rs LFE
Sampling rate : 48.0 kHz
Frame rate : 93.750 FPS (512 SPF)
Bit depth : 24 bits
Compression mode : Lossless
Stream size : 2.13 GiB (11%)
Title : DTS-HD MA 5.1
Language : English
Default : Yes
Forced : No
Original source medium : Blu-ray

Text #1
ID : 3
Format : UTF-8
Codec ID : S_TEXT/UTF8
Codec ID/Info : UTF-8 Plain Text
Duration : 1 h 26 min
Bit rate : 60 b/s
Count of elements : 1129
Stream size : 38.4 KiB (0%)
Title : SRT
Language : English
Default : Yes
Forced : No

Text #2
ID : 4
ID in the original source medium : 4608 (0x1200)
Format : PGS
Muxing mode : zlib
Codec ID : S_HDMV/PGS
Codec ID/Info : Picture based subtitle format used on BDs/HD-DVDs
Duration : 1 h 27 min
Bit rate : 39.4 kb/s
Count of elements : 2456
Stream size : 24.7 MiB (0%)
Language : English
Default : No
Forced : No
Original source medium : Blu-ray

Text #3
ID : 5
ID in the original source medium : 4609 (0x1201)
Format : PGS
Muxing mode : zlib
Codec ID : S_HDMV/PGS
Codec ID/Info : Picture based subtitle format used on BDs/HD-DVDs
Duration : 1 h 29 min
Bit rate : 30.7 kb/s
Count of elements : 2084
Stream size : 19.7 MiB (0%)
Language : Spanish
Default : No
Forced : No
Original source medium : Blu-ray

Text #4
ID : 6
ID in the original source medium : 4610 (0x1202)
Format : PGS
Muxing mode : zlib
Codec ID : S_HDMV/PGS
Codec ID/Info : Picture based subtitle format used on BDs/HD-DVDs
Duration : 1 h 26 min
Bit rate : 28.2 kb/s
Count of elements : 2116
Stream size : 17.5 MiB (0%)
Language : French
Default : No
Forced : No
Original source medium : Blu-ray

Menu
00:00:00.000 : Chapter 01
00:05:06.806 : Chapter 02
00:10:32.548 : Chapter 03
00:15:58.290 : Chapter 04
00:21:08.725 : Chapter 05
00:26:30.672 : Chapter 06
00:32:06.716 : Chapter 07
00:38:28.848 : Chapter 08
00:44:24.203 : Chapter 09
00:49:47.859 : Chapter 10
00:55:15.645 : Chapter 11
01:01:26.140 : Chapter 12
01:06:26.607 : Chapter 13
01:12:10.909 : Chapter 14
01:20:53.932 : Chapter 15
01:24:00.326 : Chapter 16

本帖子中包含更多资源

您需要 登录 才可以下载或查看,没有帐号?立即注册

x
回复

使用道具 举报

0

主题

143

帖子

327

积分

中级会员

Rank: 3Rank: 3

积分
327
发表于 2021-9-3 20:29:41 | 显示全部楼层
好片,感謝無私分享
回复

使用道具 举报

0

主题

3

帖子

10

积分

新手上路

Rank: 1

积分
10
发表于 2021-9-5 09:02:15 | 显示全部楼层
不知道这个电影怎么样???
回复

使用道具 举报

0

主题

101

帖子

497

积分

中级会员

Rank: 3Rank: 3

积分
497
发表于 2021-9-6 18:37:47 | 显示全部楼层
好片,感謝無私分享
回复

使用道具 举报

0

主题

584

帖子

2990

积分

金牌会员

Rank: 6Rank: 6

积分
2990
发表于 2021-9-6 19:35:35 | 显示全部楼层
辛苦了!感谢楼主分享!
回复

使用道具 举报

0

主题

143

帖子

327

积分

中级会员

Rank: 3Rank: 3

积分
327
发表于 2021-9-6 20:23:37 | 显示全部楼层
好片,感謝無私分享
回复

使用道具 举报

0

主题

899

帖子

4230

积分

论坛元老

Rank: 8Rank: 8

积分
4230
发表于 2021-9-7 10:14:55 | 显示全部楼层
谢楼主的分享
回复

使用道具 举报

您需要登录后才可以回帖 登录 | 立即注册

本版积分规则

QQ|Archiver|手机版|小黑屋|原盘天堂 好多盘 点击这里给我发消息

GMT+8, 2021-9-17 00:14 , Processed in 0.057010 second(s), 25 queries .

Powered by Discuz! X3.4

Copyright © 2001-2020, Tencent Cloud.

快速回复 返回顶部 返回列表