请选择 进入手机版 | 继续访问电脑版
本站Q群713428235【盘盘多】已满,请新会员加原盘天堂新官方QQ群709708625【好多盘】,验证信息填写您在论坛的会员名,不填会员名的无法入群哈,进群后修改您的群名片名字为您在论坛的会员名,请务必修改,否则群成员多了不知道您是哪个会员。

原盘天堂

 找回密码
 立即注册
京东商城当当华为商城名牌时尚折扣网,一个新型的网上购物平台,我们每周为您精选3~4个国际知名品牌,商品折扣低至2折限时限量售卖,商品囊括时装、护肤品、箱包、皮具、配饰、香水等等,琳琅满目。亿格瑞A10硬盘播放器 苏宁易购
查看: 62|回复: 1

2d蓝光原盘bdmv 孤儿橄榄球队 中字 12.mighty.orphans.2021.1080p.bluray.avc.dts-hd.ma.5.1[36.11 GB]

[复制链接]

6260

主题

7000

帖子

133万

积分

管理员

Rank: 18Rank: 18Rank: 18Rank: 18Rank: 18

积分
1337486
发表于 2021-9-3 12:17:26 | 显示全部楼层 |阅读模式






◎译  名 孤儿橄榄球队
◎片  名 12 Mighty Orphans
◎年  代 2021
◎产  地 美国
◎类  别 剧情/传记/运动
◎语  言 英语
◎上映日期 2021-06-11(美国)
◎IMDb链接  https://www.imdb.com/title/tt8482584/
◎豆瓣评分 6.3/10 from 65 users
◎豆瓣链接 https://douban.com/subject/34867915/
◎片  长 118分钟
◎导  演 泰·罗伯茨 Ty Roberts
◎编  剧 莱恩·加里逊 Lane Garrison / Kevin Meyer Kevin Meyer / 泰·罗伯茨 Ty Roberts
◎主  演 罗伯特·杜瓦尔 Robert Duvall
       凡妮莎·肖 Vinessa Shaw
       马丁·辛 Martin Sheen
       卢克·威尔逊 Luke Wilson
       韦恩·奈特 Wayne Knight
       特里特·威廉斯 Treat Williams
       卡尔森·扬 Carlson Young
       凯莉·弗莱 Kelly Frye
       扎克·罗斯 Zach Rose
       莱恩·加里逊 Lane Garrison
       露西·浮士德 Lucy Faust
       雅库布·洛弗兰德 Jacob Lofland
       斯科特·黑兹 Scott Haze
       娜塔莎·巴塞特 Natasha Bassett
       朗·怀特 Ron White
       拉里·派恩 Larry Pine
       Heath Freeman Heath Freeman
       杰克·奥斯汀·沃克 Jake Austin Walker
       鲁斯特·麦康纳 Rooster McConaughey
       加文·沃伦 Gavin Warren
       萨普莱·巴里纳 Sampley Barinaga
       迈克尔·格霍尔克 Michael Gohlke
       维多利亚·佩吉·沃特金斯 Victoria Paige Watkins
       Victoria Paige Meyerink Victoria Paige Meyerink
       David Duval David Duval

◎标  签 运动 | 传记 | 2021 | 体育 | 美国 | 美国电影 | 电影 | 真人真事改编

◎简  介

  
  Haunted by his mysterious past, a devoted high school football coach leads a scrawny team of orphans to the state championship during the Great Depression and inspires a broken nation along the way.
  一位忠诚的高中足球教练被他神秘的过去所困扰,带领一支瘦骨嶙峋的孤儿队参加大萧条期间的州锦标赛,并激励着一个破碎的国家。

DISC INFO:

Disc Title:     12.Mighty.Orphans.2021.COMPLETE.BLURAY-iNTEGRUM
Disc Size:      38,771,530,156 bytes
Protection:     AACS
Extras:         BD-Java
BDInfo:         0.7.5.9 (compatible layout created by DVDFab 12.0.4.5)

PLAYLIST REPORT:

Name:                   00001.MPLS  
Length:                 1:57:48.061 (h:m:s.ms)
Size:                   34,419,603,456 bytes
Total Bitrate:          38.96 Mbps

VIDEO:

Codec                   Bitrate             Description     
-----                   -------             -----------     
MPEG-4 AVC Video        27793 kbps          1080p / 23.976 fps / 16:9 / High Profile 4.1

AUDIO:

Codec                           Language        Bitrate         Description     
-----                           --------        -------         -----------     
DTS-HD Master Audio             English         2202 kbps       5.1 / 48 kHz / 2202 kbps / 16-bit (DTS Core: 5.1 / 48 kHz / 1509 kbps / 16-bit)
DTS-HD Master Audio             French          2215 kbps       5.1 / 48 kHz / 2215 kbps / 16-bit (DTS Core: 5.1 / 48 kHz / 1509 kbps / 16-bit)
Dolby Digital Audio             Russian         640 kbps        5.1 / 48 kHz / 640 kbps
DTS-HD Master Audio             Spanish         2211 kbps       5.1 / 48 kHz / 2211 kbps / 16-bit (DTS Core: 5.1 / 48 kHz / 1509 kbps / 16-bit)

SUBTITLES:

Codec                           Language        Bitrate         Description     
-----                           --------        -------         -----------     
Presentation Graphics           English         50.396 kbps                     
Presentation Graphics           English         46.537 kbps                     
Presentation Graphics           English         50.412 kbps                     
Presentation Graphics           English         46.546 kbps                     
Presentation Graphics           Arabic          30.563 kbps                     
Presentation Graphics           Chinese         41.597 kbps                     
Presentation Graphics           Chinese         39.97 kbps                     
Presentation Graphics           Czech           44.553 kbps                     
Presentation Graphics           Danish          45.208 kbps                     
Presentation Graphics           Dutch           44.183 kbps                     
Presentation Graphics           Estonian        40.193 kbps                     
Presentation Graphics           Finnish         48.352 kbps                     
Presentation Graphics           French          34.71 kbps                     
Presentation Graphics           German          47.048 kbps                     
Presentation Graphics           Greek           45.552 kbps                     
Presentation Graphics           Hungarian       46.094 kbps                     
Presentation Graphics           Italian         46.218 kbps                     
Presentation Graphics           Korean          38.674 kbps                     
Presentation Graphics           Latvian         41.558 kbps                     
Presentation Graphics           Lithuanian      43.191 kbps                     
Presentation Graphics           Norwegian       42.543 kbps                     
Presentation Graphics           Polish          40.326 kbps                     
Presentation Graphics           Portuguese      48.977 kbps                     
Presentation Graphics           Romanian        42.389 kbps                     
Presentation Graphics           Russian         45.036 kbps                     
Presentation Graphics           Slovak          43.383 kbps                     
Presentation Graphics           Spanish         49.399 kbps                     
Presentation Graphics           Spanish         49.225 kbps                     
Presentation Graphics           Swedish         44.967 kbps                     
Presentation Graphics           Thai            52.758 kbps                     
Presentation Graphics           Turkish         44.291 kbps  

Video
ID : 1
ID in the original source medium : 4113 (0x1011)
Format : AVC
Format/Info : Advanced Video Codec
Format profile : [email protected]
Format settings : CABAC / 2 Ref Frames
Format settings, CABAC : Yes
Format settings, Reference frames : 2 frames
Codec ID : V_MPEG4/ISO/AVC
Duration : 1 h 57 min
Bit rate mode : Variable
Bit rate : 27.8 Mb/s
Width : 1 920 pixels
Height : 1 080 pixels
Display aspect ratio : 16:9
Frame rate mode : Constant
Frame rate : 23.976 (24000/1001) FPS
Color space : YUV
Chroma subsampling : 4:2:0
Bit depth : 8 bits
Scan type : Progressive
Bits/(Pixel*Frame) : 0.559
Stream size : 22.9 GiB (78%)
Language : English
Default : No
Forced : No
Original source medium : Blu-ray

Audio #1
ID : 2
ID in the original source medium : 4352 (0x1100)
Format : DTS XLL
Format/Info : Digital Theater Systems
Commercial name : DTS-HD Master Audio
Codec ID : A_DTS
Duration : 1 h 57 min
Bit rate mode : Variable
Bit rate : 2 202 kb/s
Channel(s) : 6 channels
Channel layout : C L R Ls Rs LFE
Sampling rate : 48.0 kHz
Frame rate : 93.750 FPS (512 SPF)
Bit depth : 16 bits
Compression mode : Lossless
Stream size : 1.81 GiB (6%)
Title : DTS-HD MA 5.1
Language : English
Default : Yes
Forced : No
Original source medium : Blu-ray

Audio #2
ID : 3
ID in the original source medium : 4353 (0x1101)
Format : DTS XLL
Format/Info : Digital Theater Systems
Commercial name : DTS-HD Master Audio
Codec ID : A_DTS
Duration : 1 h 57 min
Bit rate mode : Variable
Bit rate : 2 215 kb/s
Channel(s) : 6 channels
Channel layout : C L R Ls Rs LFE
Sampling rate : 48.0 kHz
Frame rate : 93.750 FPS (512 SPF)
Bit depth : 16 bits
Compression mode : Lossless
Stream size : 1.82 GiB (6%)
Title : DTS-HD MA 5.1
Language : French
Default : No
Forced : No
Original source medium : Blu-ray

Audio #3
ID : 4
ID in the original source medium : 4354 (0x1102)
Format : AC-3
Format/Info : Audio Coding 3
Commercial name : Dolby Digital
Codec ID : A_AC3
Duration : 1 h 57 min
Bit rate mode : Constant
Bit rate : 640 kb/s
Channel(s) : 6 channels
Channel layout : L R C LFE Ls Rs
Sampling rate : 48.0 kHz
Frame rate : 31.250 FPS (1536 SPF)
Compression mode : Lossy
Stream size : 539 MiB (2%)
Title : DD 5.1
Language : Russian
Service kind : Complete Main
Default : No
Forced : No
Original source medium : Blu-ray

Audio #4
ID : 5
ID in the original source medium : 4355 (0x1103)
Format : DTS XLL
Format/Info : Digital Theater Systems
Commercial name : DTS-HD Master Audio
Codec ID : A_DTS
Duration : 1 h 57 min
Bit rate mode : Variable
Bit rate : 2 211 kb/s
Channel(s) : 6 channels
Channel layout : C L R Ls Rs LFE
Sampling rate : 48.0 kHz
Frame rate : 93.750 FPS (512 SPF)
Bit depth : 16 bits
Compression mode : Lossless
Stream size : 1.82 GiB (6%)
Title : DTS-HD MA 5.1
Language : Spanish
Default : No
Forced : No
Original source medium : Blu-ray

Text #1
ID : 6
Format : UTF-8
Codec ID : S_TEXT/UTF8
Codec ID/Info : UTF-8 Plain Text
Duration : 1 h 50 min
Bit rate : 83 b/s
Count of elements : 1974
Stream size : 67.8 KiB (0%)
Title : SRT
Language : English
Default : Yes
Forced : No

Text #2
ID : 7
ID in the original source medium : 4608 (0x1200)
Format : PGS
Muxing mode : zlib
Codec ID : S_HDMV/PGS
Codec ID/Info : Picture based subtitle format used on BDs/HD-DVDs
Duration : 1 h 54 min
Bit rate : 51.7 kb/s
Count of elements : 4088
Stream size : 42.5 MiB (0%)
Language : English
Default : No
Forced : No
Original source medium : Blu-ray

Text #3
ID : 8
ID in the original source medium : 4609 (0x1201)
Format : PGS
Muxing mode : zlib
Codec ID : S_HDMV/PGS
Codec ID/Info : Picture based subtitle format used on BDs/HD-DVDs
Duration : 1 h 50 min
Bit rate : 49.6 kb/s
Count of elements : 3792
Stream size : 39.2 MiB (0%)
Language : English
Default : No
Forced : No
Original source medium : Blu-ray

Text #4
ID : 9
ID in the original source medium : 4610 (0x1202)
Format : PGS
Muxing mode : zlib
Codec ID : S_HDMV/PGS
Codec ID/Info : Picture based subtitle format used on BDs/HD-DVDs
Duration : 1 h 54 min
Bit rate : 51.7 kb/s
Count of elements : 4088
Stream size : 42.5 MiB (0%)
Language : English
Default : No
Forced : No
Original source medium : Blu-ray

Text #5
ID : 10
ID in the original source medium : 4611 (0x1203)
Format : PGS
Muxing mode : zlib
Codec ID : S_HDMV/PGS
Codec ID/Info : Picture based subtitle format used on BDs/HD-DVDs
Duration : 1 h 50 min
Bit rate : 49.6 kb/s
Count of elements : 3794
Stream size : 39.2 MiB (0%)
Language : English
Default : No
Forced : No
Original source medium : Blu-ray

Text #6
ID : 11
ID in the original source medium : 4612 (0x1204)
Format : PGS
Muxing mode : zlib
Codec ID : S_HDMV/PGS
Codec ID/Info : Picture based subtitle format used on BDs/HD-DVDs
Duration : 1 h 56 min
Bit rate : 30.8 kb/s
Count of elements : 3941
Stream size : 25.8 MiB (0%)
Language : Arabic
Default : No
Forced : No
Original source medium : Blu-ray

Text #7
ID : 12
ID in the original source medium : 4613 (0x1205)
Format : PGS
Muxing mode : zlib
Codec ID : S_HDMV/PGS
Codec ID/Info : Picture based subtitle format used on BDs/HD-DVDs
Duration : 1 h 56 min
Bit rate : 41.9 kb/s
Count of elements : 3951
Stream size : 35.0 MiB (0%)
Language : Chinese
Default : No
Forced : No
Original source medium : Blu-ray

Text #8
ID : 13
ID in the original source medium : 4614 (0x1206)
Format : PGS
Muxing mode : zlib
Codec ID : S_HDMV/PGS
Codec ID/Info : Picture based subtitle format used on BDs/HD-DVDs
Duration : 1 h 56 min
Bit rate : 40.3 kb/s
Count of elements : 3949
Stream size : 33.7 MiB (0%)
Language : Chinese
Default : No
Forced : No
Original source medium : Blu-ray

Text #9
ID : 14
ID in the original source medium : 4615 (0x1207)
Format : PGS
Muxing mode : zlib
Codec ID : S_HDMV/PGS
Codec ID/Info : Picture based subtitle format used on BDs/HD-DVDs
Duration : 1 h 56 min
Bit rate : 44.9 kb/s
Count of elements : 3949
Stream size : 37.5 MiB (0%)
Language : Czech
Default : No
Forced : No
Original source medium : Blu-ray

Text #10
ID : 15
ID in the original source medium : 4616 (0x1208)
Format : PGS
Muxing mode : zlib
Codec ID : S_HDMV/PGS
Codec ID/Info : Picture based subtitle format used on BDs/HD-DVDs
Duration : 1 h 56 min
Bit rate : 45.6 kb/s
Count of elements : 3539
Stream size : 38.1 MiB (0%)
Language : Danish
Default : No
Forced : No
Original source medium : Blu-ray

Text #11
ID : 16
ID in the original source medium : 4617 (0x1209)
Format : PGS
Muxing mode : zlib
Codec ID : S_HDMV/PGS
Codec ID/Info : Picture based subtitle format used on BDs/HD-DVDs
Duration : 1 h 56 min
Bit rate : 44.6 kb/s
Count of elements : 3863
Stream size : 37.2 MiB (0%)
Language : Dutch
Default : No
Forced : No
Original source medium : Blu-ray

Text #12
ID : 17
ID in the original source medium : 4618 (0x120A)
Format : PGS
Muxing mode : zlib
Codec ID : S_HDMV/PGS
Codec ID/Info : Picture based subtitle format used on BDs/HD-DVDs
Duration : 1 h 56 min
Bit rate : 40.5 kb/s
Count of elements : 3947
Stream size : 33.9 MiB (0%)
Language : Estonian
Default : No
Forced : No
Original source medium : Blu-ray

Text #13
ID : 18
ID in the original source medium : 4619 (0x120B)
Format : PGS
Muxing mode : zlib
Codec ID : S_HDMV/PGS
Codec ID/Info : Picture based subtitle format used on BDs/HD-DVDs
Duration : 1 h 56 min
Bit rate : 48.8 kb/s
Count of elements : 3577
Stream size : 40.7 MiB (0%)
Language : Finnish
Default : No
Forced : No
Original source medium : Blu-ray

Text #14
ID : 19
ID in the original source medium : 4620 (0x120C)
Format : PGS
Muxing mode : zlib
Codec ID : S_HDMV/PGS
Codec ID/Info : Picture based subtitle format used on BDs/HD-DVDs
Duration : 1 h 56 min
Bit rate : 35.0 kb/s
Count of elements : 3899
Stream size : 29.2 MiB (0%)
Language : French
Default : No
Forced : No
Original source medium : Blu-ray

Text #15
ID : 20
ID in the original source medium : 4621 (0x120D)
Format : PGS
Muxing mode : zlib
Codec ID : S_HDMV/PGS
Codec ID/Info : Picture based subtitle format used on BDs/HD-DVDs
Duration : 1 h 56 min
Bit rate : 47.4 kb/s
Count of elements : 3801
Stream size : 39.6 MiB (0%)
Language : German
Default : No
Forced : No
Original source medium : Blu-ray

Text #16
ID : 21
ID in the original source medium : 4622 (0x120E)
Format : PGS
Muxing mode : zlib
Codec ID : S_HDMV/PGS
Codec ID/Info : Picture based subtitle format used on BDs/HD-DVDs
Duration : 1 h 56 min
Bit rate : 46.0 kb/s
Count of elements : 3897
Stream size : 38.4 MiB (0%)
Language : Greek
Default : No
Forced : No
Original source medium : Blu-ray

Text #17
ID : 22
ID in the original source medium : 4623 (0x120F)
Format : PGS
Muxing mode : zlib
Codec ID : S_HDMV/PGS
Codec ID/Info : Picture based subtitle format used on BDs/HD-DVDs
Duration : 1 h 56 min
Bit rate : 46.5 kb/s
Count of elements : 3931
Stream size : 38.8 MiB (0%)
Language : Hungarian
Default : No
Forced : No
Original source medium : Blu-ray

Text #18
ID : 23
ID in the original source medium : 4624 (0x1210)
Format : PGS
Muxing mode : zlib
Codec ID : S_HDMV/PGS
Codec ID/Info : Picture based subtitle format used on BDs/HD-DVDs
Duration : 1 h 56 min
Bit rate : 46.6 kb/s
Count of elements : 3891
Stream size : 38.9 MiB (0%)
Language : Italian
Default : No
Forced : No
Original source medium : Blu-ray

Text #19
ID : 24
ID in the original source medium : 4625 (0x1211)
Format : PGS
Muxing mode : zlib
Codec ID : S_HDMV/PGS
Codec ID/Info : Picture based subtitle format used on BDs/HD-DVDs
Duration : 1 h 56 min
Bit rate : 39.0 kb/s
Count of elements : 4063
Stream size : 32.6 MiB (0%)
Language : Korean
Default : No
Forced : No
Original source medium : Blu-ray

Text #20
ID : 25
ID in the original source medium : 4626 (0x1212)
Format : PGS
Muxing mode : zlib
Codec ID : S_HDMV/PGS
Codec ID/Info : Picture based subtitle format used on BDs/HD-DVDs
Duration : 1 h 56 min
Bit rate : 41.9 kb/s
Count of elements : 3949
Stream size : 35.0 MiB (0%)
Language : Latvian
Default : No
Forced : No
Original source medium : Blu-ray

Text #21
ID : 26
ID in the original source medium : 4627 (0x1213)
Format : PGS
Muxing mode : zlib
Codec ID : S_HDMV/PGS
Codec ID/Info : Picture based subtitle format used on BDs/HD-DVDs
Duration : 1 h 56 min
Bit rate : 43.6 kb/s
Count of elements : 3947
Stream size : 36.4 MiB (0%)
Language : Lithuanian
Default : No
Forced : No
Original source medium : Blu-ray

Text #22
ID : 27
ID in the original source medium : 4628 (0x1214)
Format : PGS
Muxing mode : zlib
Codec ID : S_HDMV/PGS
Codec ID/Info : Picture based subtitle format used on BDs/HD-DVDs
Duration : 1 h 56 min
Bit rate : 42.9 kb/s
Count of elements : 3471
Stream size : 35.8 MiB (0%)
Language : Norwegian
Default : No
Forced : No
Original source medium : Blu-ray

Text #23
ID : 28
ID in the original source medium : 4629 (0x1215)
Format : PGS
Muxing mode : zlib
Codec ID : S_HDMV/PGS
Codec ID/Info : Picture based subtitle format used on BDs/HD-DVDs
Duration : 1 h 56 min
Bit rate : 40.7 kb/s
Count of elements : 3791
Stream size : 34.0 MiB (0%)
Language : Polish
Default : No
Forced : No
Original source medium : Blu-ray

Text #24
ID : 29
ID in the original source medium : 4630 (0x1216)
Format : PGS
Muxing mode : zlib
Codec ID : S_HDMV/PGS
Codec ID/Info : Picture based subtitle format used on BDs/HD-DVDs
Duration : 1 h 56 min
Bit rate : 49.4 kb/s
Count of elements : 3953
Stream size : 41.3 MiB (0%)
Language : Portuguese
Default : No
Forced : No
Original source medium : Blu-ray

Text #25
ID : 30
ID in the original source medium : 4631 (0x1217)
Format : PGS
Muxing mode : zlib
Codec ID : S_HDMV/PGS
Codec ID/Info : Picture based subtitle format used on BDs/HD-DVDs
Duration : 1 h 56 min
Bit rate : 42.7 kb/s
Count of elements : 3887
Stream size : 35.7 MiB (0%)
Language : Romanian
Default : No
Forced : No
Original source medium : Blu-ray

Text #26
ID : 31
ID in the original source medium : 4632 (0x1218)
Format : PGS
Muxing mode : zlib
Codec ID : S_HDMV/PGS
Codec ID/Info : Picture based subtitle format used on BDs/HD-DVDs
Duration : 1 h 56 min
Bit rate : 45.4 kb/s
Count of elements : 3951
Stream size : 37.9 MiB (0%)
Language : Russian
Default : No
Forced : No
Original source medium : Blu-ray

Text #27
ID : 32
ID in the original source medium : 4632 (0x1218)
Format : PGS
Muxing mode : zlib
Codec ID : S_HDMV/PGS
Codec ID/Info : Picture based subtitle format used on BDs/HD-DVDs
Duration : 1 h 56 min
Bit rate : 3 604 b/s
Count of elements : 163
Stream size : 3.01 MiB (0%)
Language : Russian
Default : No
Forced : No
Original source medium : Blu-ray

Text #28
ID : 33
ID in the original source medium : 4633 (0x1219)
Format : PGS
Muxing mode : zlib
Codec ID : S_HDMV/PGS
Codec ID/Info : Picture based subtitle format used on BDs/HD-DVDs
Duration : 1 h 56 min
Bit rate : 43.7 kb/s
Count of elements : 3951
Stream size : 36.6 MiB (0%)
Language : Slovak
Default : No
Forced : No
Original source medium : Blu-ray

Text #29
ID : 34
ID in the original source medium : 4634 (0x121A)
Format : PGS
Muxing mode : zlib
Codec ID : S_HDMV/PGS
Codec ID/Info : Picture based subtitle format used on BDs/HD-DVDs
Duration : 1 h 56 min
Bit rate : 49.8 kb/s
Count of elements : 3929
Stream size : 41.6 MiB (0%)
Language : Spanish
Default : No
Forced : No
Original source medium : Blu-ray

Text #30
ID : 35
ID in the original source medium : 4634 (0x121A)
Format : PGS
Muxing mode : zlib
Codec ID : S_HDMV/PGS
Codec ID/Info : Picture based subtitle format used on BDs/HD-DVDs
Duration : 1 h 56 min
Bit rate : 3 246 b/s
Count of elements : 147
Stream size : 2.71 MiB (0%)
Language : Spanish
Default : No
Forced : No
Original source medium : Blu-ray

Text #31
ID : 36
ID in the original source medium : 4635 (0x121B)
Format : PGS
Muxing mode : zlib
Codec ID : S_HDMV/PGS
Codec ID/Info : Picture based subtitle format used on BDs/HD-DVDs
Duration : 1 h 56 min
Bit rate : 49.6 kb/s
Count of elements : 3953
Stream size : 41.5 MiB (0%)
Language : Spanish
Default : No
Forced : No
Original source medium : Blu-ray

Text #32
ID : 37
ID in the original source medium : 4636 (0x121C)
Format : PGS
Muxing mode : zlib
Codec ID : S_HDMV/PGS
Codec ID/Info : Picture based subtitle format used on BDs/HD-DVDs
Duration : 1 h 56 min
Bit rate : 45.3 kb/s
Count of elements : 3735
Stream size : 37.9 MiB (0%)
Language : Swedish
Default : No
Forced : No
Original source medium : Blu-ray

Text #33
ID : 38
ID in the original source medium : 4637 (0x121D)
Format : PGS
Muxing mode : zlib
Codec ID : S_HDMV/PGS
Codec ID/Info : Picture based subtitle format used on BDs/HD-DVDs
Duration : 1 h 56 min
Bit rate : 53.2 kb/s
Count of elements : 3949
Stream size : 44.5 MiB (0%)
Language : Thai
Default : No
Forced : No
Original source medium : Blu-ray

Text #34
ID : 39
ID in the original source medium : 4638 (0x121E)
Format : PGS
Muxing mode : zlib
Codec ID : S_HDMV/PGS
Codec ID/Info : Picture based subtitle format used on BDs/HD-DVDs
Duration : 1 h 56 min
Bit rate : 44.7 kb/s
Count of elements : 3949
Stream size : 37.3 MiB (0%)
Language : Turkish
Default : No
Forced : No
Original source medium : Blu-ray

Menu
00:00:00.000 : Chapter 01
00:08:33.513 : Chapter 02
00:18:05.459 : Chapter 03
00:22:46.281 : Chapter 04
00:30:16.105 : Chapter 05
00:38:09.078 : Chapter 06
00:44:24.828 : Chapter 07
00:48:48.425 : Chapter 08
00:53:53.146 : Chapter 09
00:58:58.910 : Chapter 10
01:05:08.404 : Chapter 11
01:10:51.956 : Chapter 12
01:19:33.977 : Chapter 13
01:29:04.630 : Chapter 14
01:39:28.754 : Chapter 15
01:49:11.294 : Chapter 16

本帖子中包含更多资源

您需要 登录 才可以下载或查看,没有帐号?立即注册

x
回复

使用道具 举报

0

主题

584

帖子

2990

积分

金牌会员

Rank: 6Rank: 6

积分
2990
发表于 2021-9-3 19:53:30 | 显示全部楼层
很好很强大 谢谢楼主分享
回复

使用道具 举报

您需要登录后才可以回帖 登录 | 立即注册

本版积分规则

QQ|Archiver|手机版|小黑屋|原盘天堂 好多盘 点击这里给我发消息

GMT+8, 2021-9-17 00:06 , Processed in 0.055194 second(s), 25 queries .

Powered by Discuz! X3.4

Copyright © 2001-2020, Tencent Cloud.

快速回复 返回顶部 返回列表