请选择 进入手机版 | 继续访问电脑版
本站Q群713428235【盘盘多】已满,请新会员加原盘天堂新官方QQ群709708625【好多盘】,验证信息填写您在论坛的会员名,不填会员名的无法入群哈,进群后修改您的群名片名字为您在论坛的会员名,请务必修改,否则群成员多了不知道您是哪个会员。

原盘天堂

 找回密码
 立即注册
京东商城当当华为商城名牌时尚折扣网,一个新型的网上购物平台,我们每周为您精选3~4个国际知名品牌,商品折扣低至2折限时限量售卖,商品囊括时装、护肤品、箱包、皮具、配饰、香水等等,琳琅满目。亿格瑞A10硬盘播放器 苏宁易购
查看: 114|回复: 8

4k蓝光原盘bdmv 岛码头 英语原版 terminal.island.1973.2160p.bluray.hevc.dts-hd.ma.2.0[59.61 GB]

[复制链接]

6260

主题

7000

帖子

133万

积分

管理员

Rank: 18Rank: 18Rank: 18Rank: 18Rank: 18

积分
1337486
发表于 2021-8-31 08:32:58 | 显示全部楼层 |阅读模式







◎译  名 岛码头
◎片  名 Terminal Island
◎年  代 1973
◎产  地 美国
◎类  别 剧情/动作/科幻/惊悚
◎语  言 英语
◎上映日期 1975-05-02
◎IMDb链接  https://www.imdb.com/title/tt0070782/
◎豆瓣评分 /10 from 0 users
◎豆瓣链接 https://douban.com/subject/3157911/
◎片  长 88 分钟
◎导  演 斯蒂芬·罗斯曼 Stephanie Rothman
◎编  剧 Jim Barnett Jim Barnett / Charles S. Swartz Charles S. Swartz / 斯蒂芬·罗斯曼 Stephanie Rothman
◎主  演 唐·马歇尔 Don Marshall
       菲利斯·戴维斯 Phyllis Davis
       汤姆·塞立克 Tom Selleck
       理查德·斯塔尔 Richard Stahl
       Clyde Ventura Clyde Ventura
       Sandy Ward Sandy Ward
       James Whitworth James Whitworth
        Dirty Denny
       乔·莫罗 Jo Morrow
       芭芭拉·李 Barbara Leigh
       Marta Kristen Marta Kristen
       Geoffrey Deuel Geoffrey Deuel
       Frank Christi Frank Christi
       Randy Boone Randy Boone
       罗杰·E·莫斯利 Roger E. Mosley

◎标  签 exploitation | cult | BDMV | 1973 | 键 | 记号 | 美国电影 | 美国

◎简  介

  
  In the wake of a Supreme Court decision to outlaw the death penalty, California passes an initiative that designates San Bruno island as a dumping spot for first-degree murder convicts, free to do what they like except leave. The main camp of convicts is controlled by the tyrannical Bobby, who rules with an iron hand, and the women are used as sex slaves. A.J. and a group of more free-minded murderers have escaped and gone into hiding. When A.J. and his men liberate the women from Bobby's custody, tensions mount to an all-out confrontation for control of the island.
  在最高法院决定宣布死刑为非法后,加州通过了一项倡议,将圣布鲁诺岛指定为一级谋杀罪犯的倾倒点,除了离开外,他们可以自由地做他们喜欢做的事情。主要的罪犯集中营是由暴政的鲍比控制的,鲍比用铁腕统治,妇女被用作性奴隶。A.J.和一群更自由的杀人犯逃了出来藏起来。当A.J.和他的手下把这些妇女从鲍比的监护中解放出来时,紧张局势就升级到了为了控制这个岛屿而进行的全面对抗。


DISC INFO:

Disc Title:     Terminal.Island.1973.2160p.BluRay.HEVC.DTS-HD.MA.2.0-TASTED
Disc Size:      63,992,311,268 bytes
Protection:     AACS2
Extras:         Ultra HD
BDInfo:         0.7.5.9 (compatible layout created by DVDFab 12.0.4.5)

PLAYLIST REPORT:

Name:                   00001.MPLS  
Length:                 1:28:05.196 (h:m:s.ms)
Size:                   63,526,957,056 bytes
Total Bitrate:          96.16 Mbps

VIDEO:

Codec                   Bitrate             Description     
-----                   -------             -----------     
MPEG-H HEVC Video       89705 kbps          2160p / 23.976 fps / 16:9 / Main 10 @ Level 5.1 @ High / 4:2:0 / 10 bits / HDR10 / BT.2020

AUDIO:

Codec                           Language        Bitrate         Description     
-----                           --------        -------         -----------     
DTS-HD Master Audio             English         2106 kbps       2.0 / 48 kHz / 2106 kbps / 24-bit (DTS Core: 2.0 / 48 kHz / 1509 kbps / 24-bit)

SUBTITLES:

Codec                           Language        Bitrate         Description     
-----                           --------        -------         -----------     
Presentation Graphics           English         21.685 kbps   


Video
ID : 1
ID in the original source medium : 4113 (0x1011)
Format : HEVC
Format/Info : High Efficiency Video Coding
Format profile : Main [email protected]@High
Codec ID : V_MPEGH/ISO/HEVC
Duration : 1 h 28 min
Bit rate : 89.7 Mb/s
Width : 3 840 pixels
Height : 2 160 pixels
Display aspect ratio : 16:9
Frame rate mode : Constant
Frame rate : 23.976 (24000/1001) FPS
Color space : YUV
Chroma subsampling : 4:2:0 (Type 2)
Bit depth : 10 bits
Bits/(Pixel*Frame) : 0.451
Stream size : 55.2 GiB (97%)
Language : English
Default : No
Forced : No
Color range : Limited
Color primaries : BT.2020
Transfer characteristics : PQ
Matrix coefficients : BT.2020 non-constant
Original source medium : Blu-ray

Audio #1
ID : 2
ID in the original source medium : 4352 (0x1100)
Format : DTS XLL
Format/Info : Digital Theater Systems
Commercial name : DTS-HD Master Audio
Codec ID : A_DTS
Duration : 1 h 28 min
Bit rate mode : Variable
Bit rate : 2 106 kb/s
Channel(s) : 2 channels
Channel layout : L R
Sampling rate : 48.0 kHz
Frame rate : 93.750 FPS (512 SPF)
Bit depth : 24 bits
Compression mode : Lossless
Stream size : 1.30 GiB (2%)
Title : DTS-HD MA 2.0
Language : English
Default : Yes
Forced : No
Original source medium : Blu-ray

Audio #2
ID : 3
Format : AC-3
Format/Info : Audio Coding 3
Commercial name : Dolby Digital
Codec ID : A_AC3
Duration : 1 h 28 min
Bit rate mode : Constant
Bit rate : 640 kb/s
Channel(s) : 2 channels
Channel layout : L R
Sampling rate : 48.0 kHz
Frame rate : 31.250 FPS (1536 SPF)
Compression mode : Lossy
Stream size : 403 MiB (1%)
Title : DD 2.0
Language : English
Service kind : Complete Main
Default : No
Forced : No

Text #1
ID : 4
Format : UTF-8
Codec ID : S_TEXT/UTF8
Codec ID/Info : UTF-8 Plain Text
Duration : 1 h 27 min
Bit rate : 28 b/s
Count of elements : 725
Stream size : 18.5 KiB (0%)
Title : English-SRT
Language : English
Default : Yes
Forced : No

Text #2
ID : 5
ID in the original source medium : 4768 (0x12A0)
Format : PGS
Muxing mode : zlib
Codec ID : S_HDMV/PGS
Codec ID/Info : Picture based subtitle format used on BDs/HD-DVDs
Duration : 1 h 27 min
Bit rate : 21.8 kb/s
Count of elements : 2232
Stream size : 13.7 MiB (0%)
Title : English-PGS
Language : English
Default : No
Forced : No
Original source medium : Blu-ray

Menu
00:00:00.000 : Chapter 01
00:17:56.241 : Chapter 02
00:37:01.969 : Chapter 03
00:56:29.094 : Chapter 04
01:15:47.209 : Chapter 05

本帖子中包含更多资源

您需要 登录 才可以下载或查看,没有帐号?立即注册

x
回复

使用道具 举报

0

主题

143

帖子

327

积分

中级会员

Rank: 3Rank: 3

积分
327
发表于 2021-8-31 11:51:10 | 显示全部楼层
懷舊好片,感謝無私分享4k
回复

使用道具 举报

0

主题

899

帖子

4230

积分

论坛元老

Rank: 8Rank: 8

积分
4230
发表于 2021-9-1 11:24:20 | 显示全部楼层
资源不错,前排支持
回复

使用道具 举报

0

主题

77

帖子

417

积分

中级会员

Rank: 3Rank: 3

积分
417
发表于 2021-9-3 01:31:30 | 显示全部楼层
沒有看過的片子 !感謝大大的分享!讚喔!
回复

使用道具 举报

0

主题

899

帖子

4230

积分

论坛元老

Rank: 8Rank: 8

积分
4230
发表于 2021-9-3 12:08:01 | 显示全部楼层
资源不错,前排支持
回复

使用道具 举报

0

主题

38

帖子

143

积分

注册会员

Rank: 2

积分
143
发表于 2021-9-5 19:03:03 | 显示全部楼层
谢谢分享
回复

使用道具 举报

0

主题

82

帖子

480

积分

中级会员

Rank: 3Rank: 3

积分
480
发表于 2021-9-7 11:36:54 | 显示全部楼层

谢谢分享
回复

使用道具 举报

0

主题

523

帖子

3860

积分

论坛元老

Rank: 8Rank: 8

积分
3860
发表于 2021-9-8 08:55:58 | 显示全部楼层

感谢楼主的无私分享
回复

使用道具 举报

0

主题

899

帖子

4230

积分

论坛元老

Rank: 8Rank: 8

积分
4230
发表于 2021-9-8 11:04:37 | 显示全部楼层
谢分享精彩的电影
回复

使用道具 举报

您需要登录后才可以回帖 登录 | 立即注册

本版积分规则

QQ|Archiver|手机版|小黑屋|原盘天堂 好多盘 点击这里给我发消息

GMT+8, 2021-9-16 23:54 , Processed in 0.059026 second(s), 24 queries .

Powered by Discuz! X3.4

Copyright © 2001-2020, Tencent Cloud.

快速回复 返回顶部 返回列表