请选择 进入手机版 | 继续访问电脑版
本站Q群713428235【盘盘多】已满,请新会员加原盘天堂新官方QQ群709708625【好多盘】,验证信息填写您在论坛的会员名,不填会员名的无法入群哈,进群后修改您的群名片名字为您在论坛的会员名,请务必修改,否则群成员多了不知道您是哪个会员。

原盘天堂

 找回密码
 立即注册
京东商城当当华为商城名牌时尚折扣网,一个新型的网上购物平台,我们每周为您精选3~4个国际知名品牌,商品折扣低至2折限时限量售卖,商品囊括时装、护肤品、箱包、皮具、配饰、香水等等,琳琅满目。亿格瑞A10硬盘播放器 苏宁易购
查看: 192|回复: 8

4k蓝光原盘bdmv 沙丘 英语原版 dune.1984.2160p.bluray.hevc.dts-hd.ma.5.1[91 GB]

[复制链接]

6260

主题

7000

帖子

133万

积分

管理员

Rank: 18Rank: 18Rank: 18Rank: 18Rank: 18

积分
1337486
发表于 2021-8-27 10:43:56 | 显示全部楼层 |阅读模式








◎译  名 沙丘/沙丘魔堡(台)/星际奇兵(港)
◎片  名 Dune
◎年  代 1984
◎产  地 美国
◎类  别 动作/科幻/冒险
◎语  言 英语/意大利语
◎上映日期 1984-12-01(美国)
◎IMDb链接  https://www.imdb.com/title/tt0087182/
◎豆瓣评分 6.1/10 from 4561 users
◎豆瓣链接 https://douban.com/subject/1293092/
◎片  长 137 分钟
◎导  演 大卫·林奇 David Lynch
◎编  剧 大卫·林奇 David Lynch / 弗兰克·赫伯特 Frank Herbert
◎主  演 肖恩·杨 Sean Young
       帕特里克·斯图尔特 Patrick Stewart
       斯汀 Sting
       凯尔·麦克拉克伦 Kyle MacLachlan
       理查德·乔丹 Richard Jordan
       西尔瓦娜·曼加诺 Silvana Mangano
       埃沃雷特·麦克吉尔 Everett McGill
       肯尼思·麦克米伦 Kenneth McMillan
       简·菲利普斯 Siân Phillips
       尤尔根·普洛斯诺 Jürgen Prochnow
       保罗·L·史密斯 Paul L. Smith
       迪恩·斯托克维尔 Dean Stockwell
       琳达·亨特 Linda Hunt
       何塞·费勒 José Ferrer
       维吉妮娅·马德森 Virginia Madsen
       艾丽西亚·维特 Alicia Witt
       大卫·林奇 David Lynch
       马克斯·冯·叙多夫 Max von Sydow
       杰克·南斯 Jack Nance
       弗雷迪·琼斯 Freddie Jones
       安杰莉卡·阿拉贡 Angélica Aragón

◎标  签 科幻 | 大卫·林奇 | 美国 | DavidLynch | 沙丘 | 1984 | 美国电影 | 1980s

◎简  介

  
  故事发生在遥远的未来时代,沙丹四世(何塞·费勒 José Ferrer 饰)是宇宙之王,他靠着自己的强权和武力控制着整个帝国。尽管手握大权,但沙丹四世还是没有安全感,他认为自己的表弟亚崔迪公爵(尤尔根·普洛斯诺 Jürgen Prochnow 饰)企图谋权篡位,因此将他发配到了遥远的凯勒丹行星上。
  
  沙丹四世对于亚崔迪公爵的迫害并没有停止,最后,公爵战败自杀,留下妻子和儿子保罗(凯尔·麦克拉克伦 Kyle MacLachlan 饰)流离失所,两人逃到了广袤的沙漠之中,向当地的土著求助。土著们将保罗当做了他们的救世主顶礼膜拜,保罗最终成为了土著领袖,并和名为佳妮(肖恩·杨 Sean Young 饰)的当地女子结为夫妻,然而,复仇的火焰从未在他的心中熄灭过。
  

◎获奖情况

  第57届奥斯卡金像奖  (1985)
  最佳音响(提名) 凯文·奥康奈尔 / 比尔·瓦尼 / 史蒂夫·马斯洛 / 尼尔森·斯托尔


DISC INFO:

Disc Title:     Dune.1984.2160p.BluRay.HEVC.DTS-HD.5.1-TASTED
Disc Size:      97,688,202,718 bytes
Protection:     AACS2
Extras:         Ultra HD
BDInfo:         0.7.5.9 (compatible layout created by DVDFab 12.0.4.4)

PLAYLIST REPORT:

Name:                   00000.MPLS  
Length:                 2:16:50.076 (h:m:s.ms)
Size:                   92,072,970,240 bytes
Total Bitrate:          89.72 Mbps

(*) Indicates included stream hidden by this playlist.

VIDEO:

Codec                   Bitrate             Description     
-----                   -------             -----------     
MPEG-H HEVC Video       82483 kbps          2160p / 23.976 fps / 16:9 / Main 10 @ Level 5.1 @ High / 4:2:0 / 10 bits / 1000nits / HDR10 / BT.2020
* MPEG-H HEVC Video     64 kbps (0.08%)     1080p / 23.976 fps / 16:9 / Main 10 @ Level 5.1 @ High / 4:2:0 / 10 bits / 1000nits / Dolby Vision MEL / BT.2020

AUDIO:

Codec                           Language        Bitrate         Description     
-----                           --------        -------         -----------     
DTS-HD Master Audio             English         991 kbps        2.0 / 48 kHz / 991 kbps / 24-bit (DTS Core: 2.0 / 48 kHz / 768 kbps / 24-bit)
DTS-HD Master Audio             English         1776 kbps       5.1 / 48 kHz / 1776 kbps / 24-bit (DTS Core: 5.1 / 48 kHz / 768 kbps / 24-bit)
Dolby Digital Audio             English         112 kbps        2.0 / 48 kHz / 112 kbps
Dolby Digital Audio             English         112 kbps        2.0 / 48 kHz / 112 kbps

SUBTITLES:

Codec                           Language        Bitrate         Description     
-----                           --------        -------         -----------     
Presentation Graphics           English         25.288 kbps     


Video
ID : 1
ID in the original source medium : 4113 (0x1011)
Format : HEVC
Format/Info : High Efficiency Video Coding
Format profile : Main [email protected]@High
HDR format : Dolby Vision, Version 1.0, dvhe.07.06, BL+EL+RPU, Blu-ray compatible / SMPTE ST 2086, HDR10 compatible
Codec ID : V_MPEGH/ISO/HEVC
Duration : 2 h 16 min
Bit rate : 82.6 Mb/s
Width : 3 840 pixels
Height : 2 160 pixels
Display aspect ratio : 16:9
Frame rate mode : Constant
Frame rate : 23.976 (24000/1001) FPS
Color space : YUV
Chroma subsampling : 4:2:0 (Type 2)
Bit depth : 10 bits
Bits/(Pixel*Frame) : 0.415
Stream size : 78.9 GiB (96%)
Language : English
Default : No
Forced : No
Color range : Limited
Color primaries : BT.2020
Transfer characteristics : PQ
Matrix coefficients : BT.2020 non-constant
Mastering display color primaries : BT.2020
Mastering display luminance : min: 0.0001 cd/m2, max: 1000 cd/m2
Original source medium : Blu-ray

Audio #1
ID : 2
ID in the original source medium : 4353 (0x1101)
Format : DTS XLL
Format/Info : Digital Theater Systems
Commercial name : DTS-HD Master Audio
Codec ID : A_DTS
Duration : 2 h 16 min
Bit rate mode : Variable
Bit rate : 1 776 kb/s
Channel(s) : 6 channels
Channel layout : C L R Ls Rs LFE
Sampling rate : 48.0 kHz
Frame rate : 93.750 FPS (512 SPF)
Bit depth : 24 bits
Compression mode : Lossless
Stream size : 1.69 GiB (2%)
Title : DTS-HD MA 5.1
Language : English
Default : Yes
Forced : No
Original source medium : Blu-ray

Audio #2
ID : 3
Format : AC-3
Format/Info : Audio Coding 3
Commercial name : Dolby Digital
Codec ID : A_AC3
Duration : 2 h 16 min
Bit rate mode : Constant
Bit rate : 640 kb/s
Channel(s) : 6 channels
Channel layout : L R C LFE Ls Rs
Sampling rate : 48.0 kHz
Frame rate : 31.250 FPS (1536 SPF)
Compression mode : Lossy
Stream size : 625 MiB (1%)
Title : DD 5.1
Language : English
Service kind : Complete Main
Default : No
Forced : No

Audio #3
ID : 4
ID in the original source medium : 4352 (0x1100)
Format : DTS XLL
Format/Info : Digital Theater Systems
Commercial name : DTS-HD Master Audio
Codec ID : A_DTS
Duration : 2 h 16 min
Bit rate mode : Variable
Bit rate : 991 kb/s
Channel(s) : 2 channels
Channel layout : L R
Sampling rate : 48.0 kHz
Frame rate : 93.750 FPS (512 SPF)
Bit depth : 24 bits
Compression mode : Lossless
Stream size : 968 MiB (1%)
Title : DTS-HD MA 2.0
Language : English
Default : No
Forced : No
Original source medium : Blu-ray

Audio #4
ID : 5
ID in the original source medium : 4354 (0x1102)
Format : AC-3
Format/Info : Audio Coding 3
Commercial name : Dolby Digital
Codec ID : A_AC3
Duration : 2 h 16 min
Bit rate mode : Constant
Bit rate : 112 kb/s
Channel(s) : 2 channels
Channel layout : L R
Sampling rate : 48.0 kHz
Frame rate : 31.250 FPS (1536 SPF)
Compression mode : Lossy
Stream size : 109 MiB (0%)
Title : DD 2.0
Language : English
Service kind : Complete Main
Default : No
Forced : No
Original source medium : Blu-ray

Audio #5
ID : 6
ID in the original source medium : 4355 (0x1103)
Format : AC-3
Format/Info : Audio Coding 3
Commercial name : Dolby Digital
Codec ID : A_AC3
Duration : 2 h 16 min
Bit rate mode : Constant
Bit rate : 112 kb/s
Channel(s) : 2 channels
Channel layout : L R
Sampling rate : 48.0 kHz
Frame rate : 31.250 FPS (1536 SPF)
Compression mode : Lossy
Stream size : 110 MiB (0%)
Title : DD 2.0
Language : English
Service kind : Complete Main
Default : No
Forced : No
Original source medium : Blu-ray

Text #1
ID : 7
Format : UTF-8
Codec ID : S_TEXT/UTF8
Codec ID/Info : UTF-8 Plain Text
Duration : 2 h 12 min
Bit rate : 36 b/s
Count of elements : 1137
Stream size : 35.5 KiB (0%)
Title : English-SRT
Language : English
Default : Yes
Forced : No

Text #2
ID : 8
ID in the original source medium : 4768 (0x12A0)
Format : PGS
Muxing mode : zlib
Codec ID : S_HDMV/PGS
Codec ID/Info : Picture based subtitle format used on BDs/HD-DVDs
Duration : 2 h 12 min
Bit rate : 26.2 kb/s
Count of elements : 2588
Stream size : 24.7 MiB (0%)
Title : English-PGS
Language : English
Default : No
Forced : No
Original source medium : Blu-ray

Menu
00:00:00.000 : Chapter 01
00:10:34.133 : Chapter 02
00:18:22.768 : Chapter 03
00:30:29.369 : Chapter 04
00:36:52.210 : Chapter 05
00:41:47.254 : Chapter 06
00:54:07.827 : Chapter 07
01:05:05.818 : Chapter 08
01:17:27.017 : Chapter 09
01:33:16.716 : Chapter 10
01:46:13.450 : Chapter 11
01:55:12.363 : Chapter 12
02:01:44.005 : Chapter 13
02:06:48.934 : Chapter 14

本帖子中包含更多资源

您需要 登录 才可以下载或查看,没有帐号?立即注册

x
回复

使用道具 举报

0

主题

143

帖子

327

积分

中级会员

Rank: 3Rank: 3

积分
327
发表于 2021-8-27 16:42:14 | 显示全部楼层
懷舊好片,感謝無私分享
回复

使用道具 举报

0

主题

101

帖子

497

积分

中级会员

Rank: 3Rank: 3

积分
497
发表于 2021-8-28 14:57:00 | 显示全部楼层
谢谢楼主分享佳片!
回复

使用道具 举报

0

主题

35

帖子

140

积分

注册会员

Rank: 2

积分
140
发表于 2021-8-28 17:56:33 | 显示全部楼层
好久了的一部戏,还以为是2021年的,看看就好
回复

使用道具 举报

0

主题

584

帖子

2990

积分

金牌会员

Rank: 6Rank: 6

积分
2990
发表于 2021-8-29 20:41:48 | 显示全部楼层
感谢楼主分享,辛苦!
回复

使用道具 举报

0

主题

101

帖子

497

积分

中级会员

Rank: 3Rank: 3

积分
497
发表于 2021-8-30 01:03:48 | 显示全部楼层
谢谢楼主分享佳片!
回复

使用道具 举报

0

主题

101

帖子

497

积分

中级会员

Rank: 3Rank: 3

积分
497
发表于 2021-8-30 23:46:13 | 显示全部楼层
谢谢大佬分享
回复

使用道具 举报

0

主题

523

帖子

3860

积分

论坛元老

Rank: 8Rank: 8

积分
3860
发表于 2021-9-1 16:47:24 | 显示全部楼层
好高兴,终于找到这个资源了!
回复

使用道具 举报

0

主题

523

帖子

3860

积分

论坛元老

Rank: 8Rank: 8

积分
3860
发表于 2021-9-4 09:08:44 | 显示全部楼层
楼主发贴辛苦了,谢谢楼主分享
回复

使用道具 举报

您需要登录后才可以回帖 登录 | 立即注册

本版积分规则

QQ|Archiver|手机版|小黑屋|原盘天堂 好多盘 点击这里给我发消息

GMT+8, 2021-9-16 23:09 , Processed in 0.085566 second(s), 24 queries .

Powered by Discuz! X3.4

Copyright © 2001-2020, Tencent Cloud.

快速回复 返回顶部 返回列表