请选择 进入手机版 | 继续访问电脑版
本站Q群713428235【盘盘多】已满,请新会员加原盘天堂新官方QQ群709708625【好多盘】,验证信息填写您在论坛的会员名,不填会员名的无法入群哈,进群后修改您的群名片名字为您在论坛的会员名,请务必修改,否则群成员多了不知道您是哪个会员。

原盘天堂

 找回密码
 立即注册
京东商城当当华为商城名牌时尚折扣网,一个新型的网上购物平台,我们每周为您精选3~4个国际知名品牌,商品折扣低至2折限时限量售卖,商品囊括时装、护肤品、箱包、皮具、配饰、香水等等,琳琅满目。亿格瑞A10硬盘播放器 苏宁易购
查看: 213|回复: 7

4k蓝光原盘bdmv 亲切的金子 英语原版 lady.vengeance.2005.korean.2160p.bluray.hevc.dts-hd.ma.5.1[77.25 GB]

[复制链接]

6260

主题

7000

帖子

133万

积分

管理员

Rank: 18Rank: 18Rank: 18Rank: 18Rank: 18

积分
1337486
发表于 2021-8-22 10:21:38 | 显示全部楼层 |阅读模式








◎译  名 亲切的金子/复仇的金子/Sympathy for Lady Vengeance
◎片  名 친절한 금자씨
◎年  代 2005
◎产  地 韩国
◎类  别 剧情/惊悚/犯罪
◎语  言 韩语/英语/日语
◎上映日期 2005-07-29(韩国)
◎IMDb链接  https://www.imdb.com/title/tt0451094/
◎豆瓣评分 7.6/10 from 139550 users
◎豆瓣链接 https://douban.com/subject/1412579/
◎片  长 112分钟
◎导  演 朴赞郁 Chan-wook Park
◎编  剧 郑瑞景 Seo-Gyeong Jeong / 朴赞郁 Chan-wook Park
◎主  演 李英爱 Yeong-ae Lee
       崔岷植 Min-sik Choi
       金时厚 Shi-hoo Kim
       南一祐 Il-woo Nam
       金秉玉 Byeong-ok Kim
       吴达洙 Dal-su Oh
       李胜欣 Seung-Shin Lee
       金富善 Bu-seon Kim
       罗美兰 Mi-ran Ra
       托尼·巴里 Tony Barry
       高素熙 Su-hee Go
       李代延 Dae-yeon Lee
       朴明申 Myung-shin Park
       吴光禄 Kwang-rok Oh
       宋康昊 Kang-ho Song
       申河均 Ha-kyun Shin
       刘智泰 Ji-tae Yu
       姜惠贞 Hye-jeong Kang
       尹珍序 Jin-seo Yun
       柳昇完 Seung-wan Ryoo
       崔政宇 Jung-woo Choi
       
       车顺裴 Cha Soon-bae
       元美媛 Mi-won Won

◎标  签 韩国 | 复仇 | 朴赞郁 | 李英爱 | 韩国电影 | 犯罪 | 暴力 | 剧情

◎简  介

  
  金子(李英爱饰)20岁时,就因被控“诱拐儿童”入狱而成为头条新闻,人们惊诧于她的美貌、她的年轻。
  
  在13年的牢狱生活中,有着天使般容貌的她是狱中绝对的模范。金子尽心尽力地帮助身边的每一个人,因此狱友们都称她为“亲切的金子”。表面上金子似乎比谁都诚实守纪,但内心里的复仇火焰一天也没有熄灭。
  
  当金子出狱后,她还是马上展开复仇计划——它已经暗中策划准备了13年之久的,而狱友们也都在不同的地方帮助着她。
  
  金子的仇人是当年让她入狱的白老师(崔岷植饰),那是什么让他们在13年前结怨呢?金子又将怎样复仇呢?能否成功?
  

◎获奖情况

  第62届威尼斯电影节  (2005)
  主竞赛单元金狮奖(提名) 朴赞郁
  
  第25届香港电影金像奖  (2006)
  最佳亚洲电影(提名)


DISC INFO:

Disc Title:     Lady.Vengeance.2005.KOREAN.2160p.BluRay.HEVC.DTS-HD.MA.5.1-MONUMENT
Disc Size:      82,950,302,984 bytes
Protection:     AACS2
Extras:         Ultra HD
BDInfo:         0.7.5.9 (compatible layout created by DVDFab 12.0.4.4)

PLAYLIST REPORT:

Name:                   00001.MPLS  
Length:                 1:55:01.208 (h:m:s.ms)
Size:                   81,301,106,688 bytes
Total Bitrate:          94.25 Mbps

(*) Indicates included stream hidden by this playlist.

VIDEO:

Codec                   Bitrate             Description     
-----                   -------             -----------     
MPEG-H HEVC Video       84808 kbps          2160p / 24 fps / 16:9 / Main 10 @ Level 5.1 @ High / 4:2:0 / 10 bits / 1000nits / HDR10+ v1 Profile B / BT.2020
* MPEG-H HEVC Video     104 kbps (0.12%)    1080p / 24 fps / 16:9 / Main 10 @ Level 5.1 @ High / 4:2:0 / 10 bits / 1000nits / Dolby Vision MEL / BT.2020

AUDIO:

Codec                           Language        Bitrate         Description     
-----                           --------        -------         -----------     
DTS-HD Master Audio             German          2372 kbps       5.1 / 48 kHz / 2372 kbps / 16-bit (DTS Core: 5.1 / 48 kHz / 1509 kbps / 16-bit)
DTS-HD Master Audio             Korean          1895 kbps       5.1 / 48 kHz / 1895 kbps / 16-bit (DTS Core: 5.1 / 48 kHz / 1509 kbps / 16-bit)
Dolby Digital Audio             Korean          224 kbps        2.0 / 48 kHz / 224 kbps
Dolby Digital Audio             Korean          224 kbps        2.0 / 48 kHz / 224 kbps

SUBTITLES:

Codec                           Language        Bitrate         Description     
-----                           --------        -------         -----------     
Presentation Graphics           German          24.052 kbps                     
Presentation Graphics           German          1.325 kbps                     
Presentation Graphics           German          40.364 kbps                     
Presentation Graphics           German          45.361 kbps   


Video
ID : 1
ID in the original source medium : 4113 (0x1011)
Format : HEVC
Format/Info : High Efficiency Video Coding
Format profile : Main [email protected]@High
HDR format : Dolby Vision, Version 1.0, dvhe.07.06, BL+EL+RPU, Blu-ray compatible / SMPTE ST 2094 App 4, Version 1, HDR10+ Profile B compatible
Codec ID : V_MPEGH/ISO/HEVC
Duration : 1 h 55 min
Bit rate : 84.9 Mb/s
Width : 3 840 pixels
Height : 2 160 pixels
Display aspect ratio : 16:9
Frame rate mode : Constant
Frame rate : 24.000 FPS
Color space : YUV
Chroma subsampling : 4:2:0 (Type 2)
Bit depth : 10 bits
Bits/(Pixel*Frame) : 0.427
Stream size : 68.2 GiB (94%)
Language : English
Default : No
Forced : No
Color range : Limited
Color primaries : BT.2020
Transfer characteristics : PQ
Matrix coefficients : BT.2020 non-constant
Mastering display color primaries : Display P3
Mastering display luminance : min: 0.0001 cd/m2, max: 1000 cd/m2
Maximum Content Light Level : 4944 cd/m2
Maximum Frame-Average Light Level : 757 cd/m2
Original source medium : Blu-ray

Audio #1
ID : 2
ID in the original source medium : 4353 (0x1101)
Format : DTS XLL
Format/Info : Digital Theater Systems
Commercial name : DTS-HD Master Audio
Codec ID : A_DTS
Duration : 1 h 55 min
Bit rate mode : Variable
Bit rate : 1 895 kb/s
Channel(s) : 6 channels
Channel layout : C L R Ls Rs LFE
Sampling rate : 48.0 kHz
Frame rate : 93.750 FPS (512 SPF)
Bit depth : 16 bits
Compression mode : Lossless
Stream size : 1.52 GiB (2%)
Title : DTS-HD MA 5.1
Language : Korean
Default : Yes
Forced : No
Original source medium : Blu-ray

Audio #2
ID : 3
Format : AC-3
Format/Info : Audio Coding 3
Commercial name : Dolby Digital
Codec ID : A_AC3
Duration : 1 h 55 min
Bit rate mode : Constant
Bit rate : 640 kb/s
Channel(s) : 6 channels
Channel layout : L R C LFE Ls Rs
Sampling rate : 48.0 kHz
Frame rate : 31.250 FPS (1536 SPF)
Compression mode : Lossy
Stream size : 527 MiB (1%)
Title : DD 5.1
Language : Korean
Service kind : Complete Main
Default : No
Forced : No

Audio #3
ID : 4
ID in the original source medium : 4352 (0x1100)
Format : DTS XLL
Format/Info : Digital Theater Systems
Commercial name : DTS-HD Master Audio
Codec ID : A_DTS
Duration : 1 h 55 min
Bit rate mode : Variable
Bit rate : 2 372 kb/s
Channel(s) : 6 channels
Channel layout : C L R Ls Rs LFE
Sampling rate : 48.0 kHz
Frame rate : 93.750 FPS (512 SPF)
Bit depth : 16 bits
Compression mode : Lossless
Stream size : 1.91 GiB (3%)
Title : DTS-HD MA 5.1
Language : German
Default : Yes
Forced : No
Original source medium : Blu-ray

Audio #4
ID : 5
ID in the original source medium : 4354 (0x1102)
Format : AC-3
Format/Info : Audio Coding 3
Commercial name : Dolby Digital
Codec ID : A_AC3
Duration : 1 h 55 min
Bit rate mode : Constant
Bit rate : 224 kb/s
Channel(s) : 2 channels
Channel layout : L R
Sampling rate : 48.0 kHz
Frame rate : 31.250 FPS (1536 SPF)
Compression mode : Lossy
Stream size : 184 MiB (0%)
Title : DD 2.0
Language : Korean
Service kind : Complete Main
Default : No
Forced : No
Original source medium : Blu-ray

Audio #5
ID : 6
ID in the original source medium : 4355 (0x1103)
Format : AC-3
Format/Info : Audio Coding 3
Commercial name : Dolby Digital
Codec ID : A_AC3
Duration : 1 h 55 min
Bit rate mode : Constant
Bit rate : 224 kb/s
Channel(s) : 2 channels
Channel layout : L R
Sampling rate : 48.0 kHz
Frame rate : 31.250 FPS (1536 SPF)
Compression mode : Lossy
Stream size : 184 MiB (0%)
Title : DD 2.0
Language : Korean
Service kind : Complete Main
Default : No
Forced : No
Original source medium : Blu-ray

Text #1
ID : 7
Format : UTF-8
Codec ID : S_TEXT/UTF8
Codec ID/Info : UTF-8 Plain Text
Duration : 1 h 48 min
Bit rate : 25 b/s
Count of elements : 630
Stream size : 20.5 KiB (0%)
Title : SRT
Language : English
Default : Yes
Forced : No

Text #2
ID : 8
ID in the original source medium : 4768 (0x12A0)
Format : PGS
Muxing mode : zlib
Codec ID : S_HDMV/PGS
Codec ID/Info : Picture based subtitle format used on BDs/HD-DVDs
Duration : 1 h 48 min
Bit rate : 25.4 kb/s
Count of elements : 1606
Stream size : 19.8 MiB (0%)
Language : German
Default : No
Forced : No
Original source medium : Blu-ray

Text #3
ID : 9
ID in the original source medium : 4769 (0x12A1)
Format : PGS
Muxing mode : zlib
Codec ID : S_HDMV/PGS
Codec ID/Info : Picture based subtitle format used on BDs/HD-DVDs
Duration : 1 h 46 min
Bit rate : 1 427 b/s
Count of elements : 130
Stream size : 1.09 MiB (0%)
Title : FORCED
Language : German
Default : No
Forced : No
Original source medium : Blu-ray

Text #4
ID : 10
ID in the original source medium : 4770 (0x12A2)
Format : PGS
Muxing mode : zlib
Codec ID : S_HDMV/PGS
Codec ID/Info : Picture based subtitle format used on BDs/HD-DVDs
Duration : 1 h 51 min
Bit rate : 41.6 kb/s
Count of elements : 2310
Stream size : 33.2 MiB (0%)
Title : COMMENTARY
Language : German
Default : No
Forced : No
Original source medium : Blu-ray

Text #5
ID : 11
ID in the original source medium : 4771 (0x12A3)
Format : PGS
Muxing mode : zlib
Codec ID : S_HDMV/PGS
Codec ID/Info : Picture based subtitle format used on BDs/HD-DVDs
Duration : 1 h 51 min
Bit rate : 46.9 kb/s
Count of elements : 2772
Stream size : 37.3 MiB (0%)
Title : COMMENTARY
Language : German
Default : No
Forced : No
Original source medium : Blu-ray

Menu
00:00:00.000 : Chapter 01
00:08:15.000 : Chapter 02
00:20:41.000 : Chapter 03
00:37:04.000 : Chapter 04
00:51:31.000 : Chapter 05
01:03:08.000 : Chapter 06
01:07:20.000 : Chapter 07
01:17:44.000 : Chapter 08
01:22:50.000 : Chapter 09
01:28:57.000 : Chapter 10
01:39:13.000 : Chapter 11
01:43:46.000 : Chapter 12

本帖子中包含更多资源

您需要 登录 才可以下载或查看,没有帐号?立即注册

x
回复

使用道具 举报

0

主题

273

帖子

2632

积分

金牌会员

Rank: 6Rank: 6

积分
2632
发表于 2021-8-22 17:11:41 | 显示全部楼层
谢谢楼主分享
回复

使用道具 举报

0

主题

101

帖子

497

积分

中级会员

Rank: 3Rank: 3

积分
497
发表于 2021-8-23 02:18:04 | 显示全部楼层
谢谢楼主分享
回复

使用道具 举报

0

主题

8

帖子

29

积分

新手上路

Rank: 1

积分
29
发表于 2021-8-23 11:34:19 | 显示全部楼层
谢谢分享
回复

使用道具 举报

0

主题

899

帖子

4230

积分

论坛元老

Rank: 8Rank: 8

积分
4230
发表于 2021-8-24 09:36:34 | 显示全部楼层
谢楼主的分享!
回复

使用道具 举报

0

主题

31

帖子

76

积分

注册会员

Rank: 2

积分
76
发表于 2021-8-24 12:09:37 | 显示全部楼层
管理员辛苦,资源多多
回复

使用道具 举报

0

主题

1

帖子

7

积分

新手上路

Rank: 1

积分
7
发表于 2021-8-30 11:15:38 | 显示全部楼层
谢谢楼主分享
回复

使用道具 举报

0

主题

1

帖子

7

积分

新手上路

Rank: 1

积分
7
发表于 5 天前 | 显示全部楼层
感谢楼主
回复

使用道具 举报

您需要登录后才可以回帖 登录 | 立即注册

本版积分规则

QQ|Archiver|手机版|小黑屋|原盘天堂 好多盘 点击这里给我发消息

GMT+8, 2021-9-16 23:50 , Processed in 0.055992 second(s), 24 queries .

Powered by Discuz! X3.4

Copyright © 2001-2020, Tencent Cloud.

快速回复 返回顶部 返回列表