请选择 进入手机版 | 继续访问电脑版
本站Q群713428235【盘盘多】已满,请新会员加原盘天堂新官方QQ群709708625【好多盘】,验证信息填写您在论坛的会员名,不填会员名的无法入群哈,进群后修改您的群名片名字为您在论坛的会员名,请务必修改,否则群成员多了不知道您是哪个会员。

原盘天堂

 找回密码
 立即注册
京东商城当当华为商城名牌时尚折扣网,一个新型的网上购物平台,我们每周为您精选3~4个国际知名品牌,商品折扣低至2折限时限量售卖,商品囊括时装、护肤品、箱包、皮具、配饰、香水等等,琳琅满目。亿格瑞A10硬盘播放器 苏宁易购
查看: 214|回复: 6

4k蓝光原盘bdmv 我要复仇 英语原版 sympathy.for.mr.vengeance.2002.korean.2160p.bluray.hevc.dts-hd.ma.5.1[84.09 GB]

[复制链接]

6260

主题

7000

帖子

133万

积分

管理员

Rank: 18Rank: 18Rank: 18Rank: 18Rank: 18

积分
1337486
发表于 2021-8-20 18:29:30 | 显示全部楼层 |阅读模式








◎译  名 我要复仇/复仇/复仇者的怜悯/Sympathy for  Mr. Vengeance
◎片  名 복수는 나의 것
◎年  代 2002
◎产  地 韩国
◎类  别 剧情/动作/惊悚
◎语  言 韩语/韩国手语
◎上映日期 2002-03-29(韩国)
◎IMDb链接  https://www.imdb.com/title/tt0310775/
◎豆瓣评分 7.9/10 from 61441 users
◎豆瓣链接 https://douban.com/subject/1304026/
◎片  长 120分钟
◎导  演 朴赞郁 Chan-wook Park
◎编  剧 朴赞郁 Chan-wook Park / 李无影 Mu-yeong Lee / 李宗容 Jong-yong Lee
◎主  演 宋康昊 Kang-ho Song
       申河均 Ha-kyun Shin
       裴斗娜 Doona Bae
       林志恩 Ji-Eun Lim
       韩宝贝 Bo-bae Han
       李代延 Dae-yeon Lee
       奇周峯 Joo-bong Ki
       李润美 Yoon-mi Lee
       柳昇范 Seung-beom Ryu
       池大汉 Dae-han Ji
       藤本正史 Masashi Fujimoto
       郑圭洙 Gyu-su Jeong
       郑在咏 Jae-yeong Jeong
       吴光禄 Kwang-rok Oh
       朴赞郁 Chan-wook Park
       柳昇完 Seung-wan Ryoo
       申正根 Jeong-geun Sin
       金益泰 Ik-tae Kim
       崔雅拉 Ah-ra Choi

◎标  签 朴赞郁 | 韩国 | 复仇三部曲 | 犯罪 | 韩国电影 | 宋康昊 | 暴力 | 复仇

◎简  介

  
  Ryu(申河均饰)是名聋哑青年,自父母去世一直和姐姐相依为命。在特殊学校里,他遇上了装作失聪的女友(裴斗娜饰),二人感情发展不错。可是姐姐却患上了绝症,需要移植肾脏以维持生命。
  
  他本想通过黑市以自己肾脏换取适合姐姐移植用的肾脏,却遭诈骗,损失自己肾脏外,还被骗去所有的钱。当有合适姐姐的肾脏时,他却没有医药费。女友提议他去绑架有钱人的小孩再索取赎金,并说这种绑架不算是罪过。
  
  他们看上了工厂老板东劲(宋康昊饰)的女儿,对离了婚的东劲而言,生命中最重要的就是女儿。遭绑架后,他并没有报警而是准备赎金以求换回女儿,但故事并没有朝好的方向走去……
  

DISC INFO:

Disc Title:     Sympathy.for.Mr.Vengeance.2002.MULTi.COMPLETE.UHD.BLURAY.iNTERNAL-SharpHD
Disc Size:      90,286,424,156 bytes
Protection:     AACS2
Extras:         Ultra HD
BDInfo:         0.7.5.9 (compatible layout created by DVDFab 12.0.4.3)

PLAYLIST REPORT:

Name:                   00001.MPLS  
Length:                 2:01:00.253 (h:m:s.ms)
Size:                   68,735,993,856 bytes
Total Bitrate:          75.74 Mbps

VIDEO:

Codec                   Bitrate             Description     
-----                   -------             -----------     
MPEG-H HEVC Video       67393 kbps          2160p / 23.976 fps / 16:9 / Main 10 @ Level 5.1 @ High / 4:2:0 / 10 bits / 1000nits / HDR10+ v1 Profile B / BT.2020

AUDIO:

Codec                           Language        Bitrate         Description     
-----                           --------        -------         -----------     
DTS-HD Master Audio             German          2372 kbps       5.1 / 48 kHz / 2372 kbps / 16-bit (DTS Core: 5.1 / 48 kHz / 1509 kbps / 16-bit)
DTS-HD Master Audio             Korean          1995 kbps       5.1 / 48 kHz / 1995 kbps / 16-bit (DTS Core: 5.1 / 48 kHz / 1509 kbps / 16-bit)
Dolby Digital Audio             Korean          224 kbps        2.0 / 48 kHz / 224 kbps

SUBTITLES:

Codec                           Language        Bitrate         Description     
-----                           --------        -------         -----------     
Presentation Graphics           German          10.84 kbps                     
Presentation Graphics           German          1.253 kbps                     
Presentation Graphics           German          50.401 kbps

Video
ID : 1
ID in the original source medium : 4113 (0x1011)
Format : HEVC
Format/Info : High Efficiency Video Coding
Format profile : Main [email protected]@High
HDR format : SMPTE ST 2094 App 4, Version 1, HDR10+ Profile B compatible
Codec ID : V_MPEGH/ISO/HEVC
Duration : 2 h 1 min
Bit rate : 67.4 Mb/s
Width : 3 840 pixels
Height : 2 160 pixels
Display aspect ratio : 16:9
Frame rate mode : Constant
Frame rate : 23.976 (24000/1001) FPS
Color space : YUV
Chroma subsampling : 4:2:0 (Type 2)
Bit depth : 10 bits
Bits/(Pixel*Frame) : 0.339
Stream size : 57.0 GiB (93%)
Language : English
Default : No
Forced : No
Color range : Limited
Color primaries : BT.2020
Transfer characteristics : PQ
Matrix coefficients : BT.2020 non-constant
Mastering display color primaries : Display P3
Mastering display luminance : min: 0.0001 cd/m2, max: 1000 cd/m2
Maximum Content Light Level : 4797 cd/m2
Maximum Frame-Average Light Level : 741 cd/m2
Original source medium : Blu-ray

Audio #1
ID : 2
ID in the original source medium : 4353 (0x1101)
Format : DTS XLL
Format/Info : Digital Theater Systems
Commercial name : DTS-HD Master Audio
Codec ID : A_DTS
Duration : 2 h 1 min
Bit rate mode : Variable
Bit rate : 1 995 kb/s
Channel(s) : 6 channels
Channel layout : C L R Ls Rs LFE
Sampling rate : 48.0 kHz
Frame rate : 93.750 FPS (512 SPF)
Bit depth : 16 bits
Compression mode : Lossless
Stream size : 1.69 GiB (3%)
Title : DTS-HD MA 5.1
Language : Korean
Default : Yes
Forced : No
Original source medium : Blu-ray

Audio #2
ID : 3
Format : AC-3
Format/Info : Audio Coding 3
Commercial name : Dolby Digital
Codec ID : A_AC3
Duration : 2 h 1 min
Bit rate mode : Constant
Bit rate : 640 kb/s
Channel(s) : 6 channels
Channel layout : L R C LFE Ls Rs
Sampling rate : 48.0 kHz
Frame rate : 31.250 FPS (1536 SPF)
Compression mode : Lossy
Stream size : 554 MiB (1%)
Title : DD 5.1
Language : Korean
Service kind : Complete Main
Default : No
Forced : No

Audio #3
ID : 4
ID in the original source medium : 4352 (0x1100)
Format : DTS XLL
Format/Info : Digital Theater Systems
Commercial name : DTS-HD Master Audio
Codec ID : A_DTS
Duration : 2 h 1 min
Bit rate mode : Variable
Bit rate : 2 372 kb/s
Channel(s) : 6 channels
Channel layout : C L R Ls Rs LFE
Sampling rate : 48.0 kHz
Frame rate : 93.750 FPS (512 SPF)
Bit depth : 16 bits
Compression mode : Lossless
Stream size : 2.00 GiB (3%)
Title : DTS-HD MA 5.1
Language : German
Default : No
Forced : No
Original source medium : Blu-ray

Audio #4
ID : 5
ID in the original source medium : 4354 (0x1102)
Format : AC-3
Format/Info : Audio Coding 3
Commercial name : Dolby Digital
Codec ID : A_AC3
Duration : 2 h 1 min
Bit rate mode : Constant
Bit rate : 224 kb/s
Channel(s) : 2 channels
Channel layout : L R
Sampling rate : 48.0 kHz
Frame rate : 31.250 FPS (1536 SPF)
Compression mode : Lossy
Stream size : 194 MiB (0%)
Title : DD 2.0
Language : Korean
Service kind : Complete Main
Default : No
Forced : No
Original source medium : Blu-ray

Text #1
ID : 6
Format : UTF-8
Codec ID : S_TEXT/UTF8
Codec ID/Info : UTF-8 Plain Text
Duration : 1 h 56 min
Bit rate : 16 b/s
Count of elements : 453
Stream size : 13.7 KiB (0%)
Title : SRT
Language : English
Default : Yes
Forced : No

Text #2
ID : 7
ID in the original source medium : 4768 (0x12A0)
Format : PGS
Muxing mode : zlib
Codec ID : S_HDMV/PGS
Codec ID/Info : Picture based subtitle format used on BDs/HD-DVDs
Duration : 1 h 56 min
Bit rate : 11.3 kb/s
Count of elements : 793
Stream size : 9.38 MiB (0%)
Language : German
Default : No
Forced : No
Original source medium : Blu-ray

Text #3
ID : 8
ID in the original source medium : 4769 (0x12A1)
Format : PGS
Muxing mode : zlib
Codec ID : S_HDMV/PGS
Codec ID/Info : Picture based subtitle format used on BDs/HD-DVDs
Duration : 1 h 52 min
Bit rate : 1 342 b/s
Count of elements : 79
Stream size : 1.08 MiB (0%)
Title : FORCED
Language : German
Default : No
Forced : No
Original source medium : Blu-ray

Text #4
ID : 9
ID in the original source medium : 4770 (0x12A2)
Format : PGS
Muxing mode : zlib
Codec ID : S_HDMV/PGS
Codec ID/Info : Picture based subtitle format used on BDs/HD-DVDs
Duration : 2 h 0 min
Bit rate : 50.7 kb/s
Count of elements : 3437
Stream size : 43.6 MiB (0%)
Language : German
Default : No
Forced : No
Original source medium : Blu-ray

Menu
00:00:00.000 : Chapter 01
00:13:44.824 : Chapter 02
00:19:20.159 : Chapter 03
00:30:22.821 : Chapter 04
00:39:52.390 : Chapter 05
00:47:25.843 : Chapter 06
00:55:10.307 : Chapter 07
01:13:02.378 : Chapter 08
01:21:10.866 : Chapter 09
01:27:54.269 : Chapter 10
01:35:56.751 : Chapter 11
01:46:56.410 : Chapter 12

本帖子中包含更多资源

您需要 登录 才可以下载或查看,没有帐号?立即注册

x
回复

使用道具 举报

0

主题

383

帖子

4332

积分

论坛元老

Rank: 8Rank: 8

积分
4332
发表于 2021-8-20 21:00:13 | 显示全部楼层
thaks for sharing
回复

使用道具 举报

0

主题

77

帖子

417

积分

中级会员

Rank: 3Rank: 3

积分
417
发表于 2021-8-21 01:29:07 | 显示全部楼层
雖然是韓片!太好了啦!謝謝大大分享!!推一下!
回复

使用道具 举报

0

主题

101

帖子

497

积分

中级会员

Rank: 3Rank: 3

积分
497
发表于 2021-8-21 11:15:39 | 显示全部楼层
感謝您的巨大貢獻
回复

使用道具 举报

0

主题

8

帖子

29

积分

新手上路

Rank: 1

积分
29
发表于 2021-8-23 11:42:04 | 显示全部楼层
感谢老师分享
回复

使用道具 举报

0

主题

899

帖子

4230

积分

论坛元老

Rank: 8Rank: 8

积分
4230
发表于 2021-8-24 09:38:44 | 显示全部楼层
谢楼主的分享!
回复

使用道具 举报

0

主题

64

帖子

232

积分

中级会员

Rank: 3Rank: 3

积分
232
发表于 2021-8-26 09:18:26 | 显示全部楼层
支持一下啦
回复

使用道具 举报

您需要登录后才可以回帖 登录 | 立即注册

本版积分规则

QQ|Archiver|手机版|小黑屋|原盘天堂 好多盘 点击这里给我发消息

GMT+8, 2021-9-16 23:47 , Processed in 0.057742 second(s), 24 queries .

Powered by Discuz! X3.4

Copyright © 2001-2020, Tencent Cloud.

快速回复 返回顶部 返回列表