请选择 进入手机版 | 继续访问电脑版
本站Q群713428235【盘盘多】已满,请新会员加原盘天堂新官方QQ群709708625【好多盘】,验证信息填写您在论坛的会员名,不填会员名的无法入群哈,进群后修改您的群名片名字为您在论坛的会员名,请务必修改,否则群成员多了不知道您是哪个会员。

原盘天堂

 找回密码
 立即注册
京东商城当当华为商城名牌时尚折扣网,一个新型的网上购物平台,我们每周为您精选3~4个国际知名品牌,商品折扣低至2折限时限量售卖,商品囊括时装、护肤品、箱包、皮具、配饰、香水等等,琳琅满目。亿格瑞A10硬盘播放器 苏宁易购
查看: 131|回复: 1

4k蓝光原盘bdmv 魔鬼之血 英语原版 blood.for.dracula.1974.2160p.bluray.hevc.dts-hd.ma.2.0[47.49 GB]

[复制链接]

6260

主题

7000

帖子

133万

积分

管理员

Rank: 18Rank: 18Rank: 18Rank: 18Rank: 18

积分
1337486
发表于 2021-8-20 11:08:33 | 显示全部楼层 |阅读模式










◎译  名 魔鬼之血/赤裸之吻/芳心吸血鬼/吸血鬼之血(台)/Andy Warhol's Dracula/Blood for Dracula
◎片  名 Dracula cerca sangue di vergine... e morì di sete!!!
◎年  代 1974
◎产  地 意大利/法国
◎类  别 恐怖
◎语  言 英语
◎上映日期 1974-03-01
◎IMDb链接  https://www.imdb.com/title/tt0071233/
◎豆瓣评分 6.3/10 from 586 users
◎豆瓣链接 https://douban.com/subject/1297364/
◎片  长 103 分钟
◎导  演 保罗·莫里西 Paul Morrissey
◎编  剧 保罗·莫里西 Paul Morrissey / 布莱姆·斯托克 Bram Stoker
◎主  演 乔·达里桑德罗 Joe Dallesandro
       乌多·基尔 Udo Kier
       维托里奥·德西卡 Vittorio De Sica
       Maxime McKendry Maxime McKendry
       Arno Juerging Arno Juerging
       米莱娜·伍柯迪克 Milena Vukotic
       斯蒂芬妮娅·卡西尼 Stefania Casini
       西尔维娅·迪奥尼西奥 Silvia Dionisio
       Stefano Oppedisano Stefano Oppedisano
       罗曼·波兰斯基 Roman Polanski
       Dominique Darel Dominique Darel

◎标  签 意大利 | 吸血鬼 | CULT | 法国 | 1974 | 1970s | Paul_Morrissey | CC

◎简  介

  
  由《行尸走肉》原班人马拍摄的另一部恐怖题材的电影,也是制作人安迪·沃霍尔与导演保罗·莫里塞的另一部作品,风格与《行尸走肉》一脉相承,诡异和恐怖的气氛被表现得淋漓尽致,影片公映时由于血腥暴力和赤裸裸的性场景过多,因此这些场景大部分被剪掉了,标准版DVD则提供了完整的加长版本。
  
DISC INFO:

Disc Title:     Blood.for.Dracula.1974.2160p.BluRay.HEVC.DTS-HD.MA.2.0-TASTED
Disc Size:      50,970,657,951 bytes
Protection:     AACS2
Extras:         Ultra HD
BDInfo:         0.7.5.9 (compatible layout created by DVDFab 12.0.4.3)

PLAYLIST REPORT:

Name:                   00002.MPLS  
Length:                 1:43:06.013 (h:m:s.ms)
Size:                   50,089,568,256 bytes
Total Bitrate:          64.78 Mbps

VIDEO:

Codec                   Bitrate             Description     
-----                   -------             -----------     
MPEG-H HEVC Video       60180 kbps          2160p / 23.976 fps / 16:9 / Main 10 @ Level 5.1 @ High / 4:2:0 / 10 bits / 2000nits / HDR10 / BT.2020

AUDIO:

Codec                           Language        Bitrate         Description     
-----                           --------        -------         -----------     
DTS-HD Master Audio             English         1559 kbps       2.0 / 48 kHz / 1559 kbps / 16-bit (DTS Core: 2.0 / 48 kHz / 1509 kbps / 16-bit)

SUBTITLES:

Codec                           Language        Bitrate         Description     
-----                           --------        -------         -----------     
Presentation Graphics           English         32.563 kbps   


Video
ID : 1
ID in the original source medium : 4113 (0x1011)
Format : HEVC
Format/Info : High Efficiency Video Coding
Format profile : Main [email protected]@High
HDR format : SMPTE ST 2086, HDR10 compatible
Codec ID : V_MPEGH/ISO/HEVC
Duration : 1 h 43 min
Bit rate : 60.2 Mb/s
Width : 3 840 pixels
Height : 2 160 pixels
Display aspect ratio : 16:9
Frame rate mode : Constant
Frame rate : 23.976 (24000/1001) FPS
Color space : YUV
Chroma subsampling : 4:2:0 (Type 2)
Bit depth : 10 bits
Bits/(Pixel*Frame) : 0.303
Stream size : 43.3 GiB (96%)
Writing library : x265 2.3+18-88fd9082764c:[Windows][GCC 5.3.1][64 bit] 10bit
Encoding settings : cpuid=1050111 / frame-threads=8 / numa-pools=20,20 / wpp / no-pmode / no-pme / no-psnr / no-ssim / log-level=2 / input-csp=1 / input-res=3840x2160 / interlace=0 / total-frames=0 / level-idc=51 / high-tier=1 / uhd-bd=1 / ref=3 / no-allow-non-conformance / repeat-headers / annexb / aud / hrd / info / hash=0 / no-temporal-layers / no-open-gop / min-keyint=1 / keyint=24 / bframes=4 / b-adapt=2 / b-pyramid / bframe-bias=0 / rc-lookahead=20 / lookahead-slices=8 / scenecut=40 / no-intra-refresh / ctu=64 / min-cu-size=8 / no-rect / no-amp / max-tu-size=32 / tu-inter-depth=1 / tu-intra-depth=1 / limit-tu=0 / rdoq-level=0 / dynamic-rd=0.00 / signhide / no-tskip / nr-intra=0 / nr-inter=0 / no-constrained-intra / strong-intra-smoothing / max-merge=2 / limit-refs=3 / no-limit-modes / me=1 / subme=2 / merange=57 / temporal-mvp / weightp / no-weightb / no-analyze-src-pics / deblock=0:0 / sao / no-sao-non-deblock / rd=3 / no-early-skip / rskip / no-fast-intra / no-tskip-fast / no-cu-lossless / no-b-intra / rdpenalty=0 / psy-rd=2.00 / psy-rdoq=0.00 / no-rd-refine / analysis-mode=0 / no-lossless / cbqpoffs=0 / crqpoffs=0 / rc=abr / bitrate=60000 / qcomp=0.60 / qpstep=4 / stats-write=0 / stats-read=0 / vbv-maxrate=70000 / vbv-bufsize=60000 / vbv-init=0.9 / ipratio=1.40 / pbratio=1.30 / aq-mode=1 / aq-strength=1.00 / cutree / zone-count=0 / no-strict-cbr / qg-size=32 / no-rc-grain / qpmax=69 / qpmin=0 / sar=1 / overscan=0 / videoformat=5 / range=0 / colorprim=9 / transfer=16 / colormatrix=9 / chromaloc=1 / chromaloc-top=2 / chromaloc-bottom=2 / display-window=0 / master-display=G(13200,34500)B(7500,3000)R(34000,16000)WP(15635,16500)L(20000000,2) / max-cll=10000,400 / min-luma=0 / max-luma=1023 / log2-max-poc-lsb=8 / vui-timing-info / vui-hrd-info / slices=1 / opt-qp-pps / opt-ref-list-length-pps / no-multi-pass-opt-rps / scenecut-bias=0.05 / no-opt-cu-delta-qp / no-aq-motion / hdr / no-hdr-opt / refine-level=5
Language : English
Default : No
Forced : No
Color range : Limited
Color primaries : BT.2020
Transfer characteristics : PQ
Matrix coefficients : BT.2020 non-constant
Mastering display color primaries : R: x=0.680000 y=0.320000, G: x=0.264000 y=0.690000, B: x=0.150000 y=0.060000, White point: x=0.312700 y=0.330000
Mastering display luminance : min: 0.0002 cd/m2, max: 2000 cd/m2
Maximum Content Light Level : 10000 cd/m2
Maximum Frame-Average Light Level : 400 cd/m2
Original source medium : Blu-ray

Audio #1
ID : 2
ID in the original source medium : 4352 (0x1100)
Format : DTS XLL
Format/Info : Digital Theater Systems
Commercial name : DTS-HD Master Audio
Codec ID : A_DTS
Duration : 1 h 43 min
Bit rate mode : Variable
Bit rate : 1 559 kb/s
Channel(s) : 2 channels
Channel layout : L R
Sampling rate : 48.0 kHz
Frame rate : 93.750 FPS (512 SPF)
Bit depth : 16 bits
Compression mode : Lossless
Stream size : 1.12 GiB (2%)
Title : DTS-HD MA 2.0
Language : English
Default : Yes
Forced : No
Original source medium : Blu-ray

Audio #2
ID : 3
Format : AC-3
Format/Info : Audio Coding 3
Commercial name : Dolby Digital
Codec ID : A_AC3
Duration : 1 h 43 min
Bit rate mode : Constant
Bit rate : 640 kb/s
Channel(s) : 2 channels
Channel layout : L R
Sampling rate : 48.0 kHz
Frame rate : 31.250 FPS (1536 SPF)
Compression mode : Lossy
Stream size : 472 MiB (1%)
Title : DD 2.0
Language : English
Service kind : Complete Main
Default : No
Forced : No

Text #1
ID : 4
Format : UTF-8
Codec ID : S_TEXT/UTF8
Codec ID/Info : UTF-8 Plain Text
Duration : 1 h 38 min
Bit rate : 53 b/s
Count of elements : 1295
Stream size : 38.8 KiB (0%)
Title : SRT
Language : English
Default : Yes
Forced : No

Text #2
ID : 5
ID in the original source medium : 4768 (0x12A0)
Format : PGS
Muxing mode : zlib
Codec ID : S_HDMV/PGS
Codec ID/Info : Picture based subtitle format used on BDs/HD-DVDs
Duration : 1 h 41 min
Bit rate : 33.0 kb/s
Count of elements : 2073
Stream size : 24.0 MiB (0%)
Language : English
Default : No
Forced : No
Original source medium : Blu-ray

Menu
00:00:00.000 : Chapter 01
00:09:30.069 : Chapter 02
00:32:18.269 : Chapter 03
00:52:23.181 : Chapter 04
01:08:55.965 : Chapter 05
01:30:22.208 : Chapter 06

本帖子中包含更多资源

您需要 登录 才可以下载或查看,没有帐号?立即注册

x
回复

使用道具 举报

0

主题

584

帖子

2990

积分

金牌会员

Rank: 6Rank: 6

积分
2990
发表于 2021-8-21 22:51:19 | 显示全部楼层
谢谢楼主哦,感谢分享
回复

使用道具 举报

您需要登录后才可以回帖 登录 | 立即注册

本版积分规则

QQ|Archiver|手机版|小黑屋|原盘天堂 好多盘 点击这里给我发消息

GMT+8, 2021-9-16 23:41 , Processed in 0.055114 second(s), 24 queries .

Powered by Discuz! X3.4

Copyright © 2001-2020, Tencent Cloud.

快速回复 返回顶部 返回列表