请选择 进入手机版 | 继续访问电脑版
本站Q群713428235【盘盘多】已满,请新会员加原盘天堂新官方QQ群709708625【好多盘】,验证信息填写您在论坛的会员名,不填会员名的无法入群哈,进群后修改您的群名片名字为您在论坛的会员名,请务必修改,否则群成员多了不知道您是哪个会员。

原盘天堂

 找回密码
 立即注册
京东商城当当华为商城名牌时尚折扣网,一个新型的网上购物平台,我们每周为您精选3~4个国际知名品牌,商品折扣低至2折限时限量售卖,商品囊括时装、护肤品、箱包、皮具、配饰、香水等等,琳琅满目。亿格瑞A10硬盘播放器 苏宁易购
查看: 154|回复: 5

4k蓝光原盘bdmv 九尾怪猫 英语原版 the.cat.o.nine.tails.1971.2160p.bluray.hevc.dts-hd.ma.1.0[85.03 GB]

[复制链接]

6260

主题

7000

帖子

133万

积分

管理员

Rank: 18Rank: 18Rank: 18Rank: 18Rank: 18

积分
1337486
发表于 2021-8-18 08:26:31 | 显示全部楼层 |阅读模式









◎译  名 九尾怪猫/九尾猫/盲侠智多星(港)/Gatto a nove code, Il/The Cat O' Nine Tails
◎片  名 Il gatto a nove code
◎年  代 1971
◎产  地 意大利/法国/西德
◎类  别 悬疑/惊悚/恐怖
◎语  言 意大利语
◎上映日期 1971-02-12(意大利)
◎IMDb链接  https://www.imdb.com/title/tt0065761/
◎豆瓣评分 6.3/10 from 285 users
◎豆瓣链接 https://douban.com/subject/1789490/
◎片  长 112分钟
◎导  演 达里奥·阿基多 Dario Argento
◎编  剧 达里奥·阿基多 Dario Argento / 达尔达诺·萨凯蒂 Dardano Sacchetti / Bryan Edgar Wallace Bryan Edgar Wallace
◎主  演 詹姆斯·弗朗西斯 James Franciscus
       卡尔·莫尔登 Karl Malden
       凯瑟琳·斯巴克 Catherine Spaak
       皮耶尔·保罗·卡波尼 Pier Paolo Capponi
       霍斯特·弗兰克 Horst Frank
       拉达·拉西莫夫 Rada Rassimov
       奥尔多·雷吉亚尼 Aldo Reggiani
       Carlo Alighiero Carlo Alighiero
       Vittorio Congia Vittorio Congia
       乌戈·方盖勒季 Ugo Fangareggi
       Tom Felleghy Tom Felleghy
       Corrado Olmi Corrado Olmi
       玛格丽特·霍洛维茨 Margherita Horowitz
       Umberto Raho Umberto Raho
       Stefano Oppedisano Stefano Oppedisano
       Werner Pochath Werner Pochath
       竞茨娅·德·克罗里斯 Cinzia De Carolis
       Aristide Caporale Aristide Caporale
       蒂诺·卡拉罗 Tino Carraro

◎标  签 意大利 | 恐怖 | DarioArgento | Dario_Argento | 惊悚 | 悬疑 | 1970s | 意大利电影

◎简  介

  
  中年男子弗兰克•阿诺(Karl Malden 饰)曾是一名记者,双目失明后他闲赋家中,与侄女洛芮(Cinzia De Carolis 饰)居住在一起。某天傍晚,叔侄俩散布时听到两个陌生男子的神秘谈话。当晚,附近的特兹医学研究所便被人破门而入。前来调查的警察得知没有任何东西丢失,随后离去。然而次日报纸上便刊载了研究所工作人员卡拉布雷西(Carlo Alighiero 饰)跌落月台被撞身亡的消息。
  
  弗兰克知晓死者正是那天两个谈话男子中的一个,而这看似意外的死亡背后必有隐情。他找到曾报道闯入事件的记者卡罗(James Franciscus 饰),在两位记者通力合作下,一项神秘的医学实验浮出水面……
  
DISC INFO:

Disc Title:     The.Cat.o.Nine.Tails.1971.2160p.BluRay.HEVC.DTS-HD.MA.1.0-TASTED
Disc Size:      91,279,576,654 bytes
Protection:     AACS2
Extras:         Ultra HD
BDInfo:         0.7.5.9 (compatible layout created by DVDFab 12.0.4.3)

PLAYLIST REPORT:

Name:                   00100.MPLS  
Length:                 1:51:45.907 (h:m:s.ms)
Size:                   76,764,358,656 bytes
Total Bitrate:          91.58 Mbps

(*) Indicates included stream hidden by this playlist.

VIDEO:

Codec                   Bitrate             Description     
-----                   -------             -----------     
MPEG-H HEVC Video       84873 kbps          2160p / 23.976 fps / 16:9 / Main 10 @ Level 5.1 @ High / 4:2:0 / 10 bits / 1000nits / HDR10 / BT.2020
* MPEG-H HEVC Video     77 kbps (0.09%)     1080p / 23.976 fps / 16:9 / Main 10 @ Level 5.1 @ High / 4:2:0 / 10 bits / 1000nits / Dolby Vision MEL / BT.2020

AUDIO:

Codec                           Language        Bitrate         Description     
-----                           --------        -------         -----------     
DTS-HD Master Audio             English         1078 kbps       1.0 / 48 kHz / 1078 kbps / 24-bit (DTS Core: 1.0 / 48 kHz / 768 kbps / 24-bit)
Dolby Digital Audio             English         192 kbps        2.0 / 48 kHz / 192 kbps
* DTS-HD Master Audio           Italian         1045 kbps       1.0 / 48 kHz / 1045 kbps / 24-bit (DTS Core: 1.0 / 48 kHz / 768 kbps / 24-bit)

SUBTITLES:

Codec                           Language        Bitrate         Description     
-----                           --------        -------         -----------     
Presentation Graphics           English         27.604 kbps                     
Presentation Graphics           English         0.231 kbps                     
* Presentation Graphics         English         21.874 kbps     

Video
ID : 1
Format : HEVC
Format/Info : High Efficiency Video Coding
Format profile : Main [email protected]@High
HDR format : SMPTE ST 2086, HDR10 compatible
Codec ID : V_MPEGH/ISO/HEVC
Duration : 1 h 51 min
Bit rate : 84.9 Mb/s
Width : 3 840 pixels
Height : 2 160 pixels
Display aspect ratio : 16:9
Frame rate mode : Constant
Frame rate : 23.976 (24000/1001) FPS
Color space : YUV
Chroma subsampling : 4:2:0 (Type 2)
Bit depth : 10 bits
Bits/(Pixel*Frame) : 0.427
Stream size : 66.3 GiB (96%)
Default : Yes
Forced : No
Color range : Limited
Color primaries : BT.2020
Transfer characteristics : PQ
Matrix coefficients : BT.2020 non-constant
Mastering display color primaries : BT.2020
Mastering display luminance : min: 0.0001 cd/m2, max: 1000 cd/m2

Audio #1
ID : 2
Format : DTS XLL
Format/Info : Digital Theater Systems
Commercial name : DTS-HD Master Audio
Codec ID : A_DTS
Duration : 1 h 51 min
Bit rate mode : Variable
Bit rate : 1 078 kb/s
Channel(s) : 1 channel
Channel layout : C
Sampling rate : 48.0 kHz
Frame rate : 93.750 FPS (512 SPF)
Bit depth : 24 bits
Compression mode : Lossless
Stream size : 862 MiB (1%)
Title : DTS-HD MA 1.0
Language : English
Default : Yes
Forced : No

Audio #2
ID : 3
Format : AC-3
Format/Info : Audio Coding 3
Commercial name : Dolby Digital
Codec ID : A_AC3
Duration : 1 h 51 min
Bit rate mode : Constant
Bit rate : 640 kb/s
Channel(s) : 1 channel
Channel layout : C
Sampling rate : 48.0 kHz
Frame rate : 31.250 FPS (1536 SPF)
Compression mode : Lossy
Stream size : 512 MiB (1%)
Title : DD 1.0
Language : English
Service kind : Complete Main
Default : No
Forced : No

Audio #3
ID : 4
Format : DTS XLL
Format/Info : Digital Theater Systems
Commercial name : DTS-HD Master Audio
Codec ID : A_DTS
Duration : 1 h 51 min
Bit rate mode : Variable
Bit rate : 1 045 kb/s
Channel(s) : 1 channel
Channel layout : C
Sampling rate : 48.0 kHz
Frame rate : 93.750 FPS (512 SPF)
Bit depth : 24 bits
Compression mode : Lossless
Stream size : 836 MiB (1%)
Title : DTS-HD MA 1.0
Language : Italian
Default : No
Forced : No

Audio #4
ID : 5
Format : AC-3
Format/Info : Audio Coding 3
Commercial name : Dolby Digital
Codec ID : A_AC3
Duration : 1 h 51 min
Bit rate mode : Constant
Bit rate : 640 kb/s
Channel(s) : 1 channel
Channel layout : C
Sampling rate : 48.0 kHz
Frame rate : 31.250 FPS (1536 SPF)
Compression mode : Lossy
Stream size : 512 MiB (1%)
Title : DD 1.0
Language : Italian
Service kind : Complete Main
Default : No
Forced : No

Audio #5
ID : 6
Format : AC-3
Format/Info : Audio Coding 3
Commercial name : Dolby Digital
Codec ID : A_AC3
Duration : 1 h 51 min
Bit rate mode : Constant
Bit rate : 192 kb/s
Channel(s) : 2 channels
Channel layout : L R
Sampling rate : 48.0 kHz
Frame rate : 31.250 FPS (1536 SPF)
Compression mode : Lossy
Stream size : 153 MiB (0%)
Title : DD 2.0
Language : English
Service kind : Complete Main
Default : No
Forced : No

Text #1
ID : 7
Format : UTF-8
Codec ID : S_TEXT/UTF8
Codec ID/Info : UTF-8 Plain Text
Duration : 1 h 49 min
Bit rate : 41 b/s
Count of elements : 985
Stream size : 33.3 KiB (0%)
Title : SRT
Language : English
Default : Yes
Forced : No

Text #2
ID : 8
Format : PGS
Muxing mode : zlib
Codec ID : S_HDMV/PGS
Codec ID/Info : Picture based subtitle format used on BDs/HD-DVDs
Duration : 1 h 50 min
Bit rate : 22.1 kb/s
Count of elements : 1902
Stream size : 17.5 MiB (0%)
Language : English
Default : No
Forced : No

Text #3
ID : 9
Format : PGS
Muxing mode : zlib
Codec ID : S_HDMV/PGS
Codec ID/Info : Picture based subtitle format used on BDs/HD-DVDs
Duration : 1 h 50 min
Bit rate : 27.9 kb/s
Count of elements : 2206
Stream size : 22.1 MiB (0%)
Title : SDH
Language : English
Default : No
Forced : No

Text #4
ID : 10
Format : PGS
Muxing mode : zlib
Codec ID : S_HDMV/PGS
Codec ID/Info : Picture based subtitle format used on BDs/HD-DVDs
Duration : 1 h 50 min
Bit rate : 233 b/s
Count of elements : 26
Stream size : 189 KiB (0%)
Title : FORCED
Language : English
Default : No
Forced : No

Menu
00:00:00.000 : Chapter 1
00:08:40.937 : Chapter 2
00:18:14.802 : Chapter 3
00:31:42.775 : Chapter 4
00:39:01.213 : Chapter 5
00:46:45.344 : Chapter 6
00:58:28.087 : Chapter 7
01:04:40.251 : Chapter 8
01:16:40.012 : Chapter 9
01:22:23.730 : Chapter 10
01:34:43.594 : Chapter 11
01:40:54.006 : Chapter 12

本帖子中包含更多资源

您需要 登录 才可以下载或查看,没有帐号?立即注册

x
回复

使用道具 举报

0

主题

899

帖子

4230

积分

论坛元老

Rank: 8Rank: 8

积分
4230
发表于 2021-8-18 10:08:17 | 显示全部楼层
谢楼主的无私分享
回复

使用道具 举报

0

主题

899

帖子

4230

积分

论坛元老

Rank: 8Rank: 8

积分
4230
发表于 2021-8-19 10:51:52 | 显示全部楼层
谢楼主分享,辛苦了
回复

使用道具 举报

0

主题

584

帖子

2990

积分

金牌会员

Rank: 6Rank: 6

积分
2990
发表于 2021-8-19 18:56:17 | 显示全部楼层
谢楼主分享,辛苦了
回复

使用道具 举报

0

主题

899

帖子

4230

积分

论坛元老

Rank: 8Rank: 8

积分
4230
发表于 2021-8-20 09:34:26 | 显示全部楼层
谢楼主分享 辛苦
回复

使用道具 举报

0

主题

899

帖子

4230

积分

论坛元老

Rank: 8Rank: 8

积分
4230
发表于 2021-8-20 09:35:34 | 显示全部楼层
谢楼主分享 辛苦
回复

使用道具 举报

您需要登录后才可以回帖 登录 | 立即注册

本版积分规则

QQ|Archiver|手机版|小黑屋|原盘天堂 好多盘 点击这里给我发消息

GMT+8, 2021-9-16 23:54 , Processed in 0.064871 second(s), 24 queries .

Powered by Discuz! X3.4

Copyright © 2001-2020, Tencent Cloud.

快速回复 返回顶部 返回列表