请选择 进入手机版 | 继续访问电脑版
本站Q群713428235【盘盘多】已满,请新会员加原盘天堂新官方QQ群709708625【好多盘】,验证信息填写您在论坛的会员名,不填会员名的无法入群哈,进群后修改您的群名片名字为您在论坛的会员名,请务必修改,否则群成员多了不知道您是哪个会员。

原盘天堂

 找回密码
 立即注册
京东商城当当华为商城名牌时尚折扣网,一个新型的网上购物平台,我们每周为您精选3~4个国际知名品牌,商品折扣低至2折限时限量售卖,商品囊括时装、护肤品、箱包、皮具、配饰、香水等等,琳琅满目。亿格瑞A10硬盘播放器 苏宁易购
查看: 84|回复: 5

4k蓝光原盘bdmv 隔山有眼 英语原版 the.hills.have.eyes.1977.2160p.bluray.hevc.dts-hd.ma.7.1[59.94 GB]

[复制链接]

6152

主题

6859

帖子

133万

积分

管理员

Rank: 18Rank: 18Rank: 18Rank: 18Rank: 18

积分
1335008
发表于 7 天前 | 显示全部楼层 |阅读模式









◎译  名 隔山有眼
◎片  名 The Hills Have Eyes
◎年  代 1977
◎产  地 美国
◎类  别 惊悚/恐怖
◎语  言 英语
◎上映日期 1977-07-22
◎IMDb链接  https://www.imdb.com/title/tt0077681/
◎豆瓣评分 6.6/10 from 1045 users
◎豆瓣链接 https://douban.com/subject/1295317/
◎片  长 89 分钟
◎导  演 韦斯·克雷文 Wes Craven
◎编  剧 韦斯·克雷文 Wes Craven
◎主  演 苏珊·拉尼尔 Susan Lanier
       罗伯特·休斯顿 Robert Houston
       迈克尔·贝里曼 Michael Berryman
       迪·沃伦斯 Dee Wallace
       Peter Locke Peter Locke
       弗洛拉 Flora
       斯特莱克 Striker

◎标  签 恐怖 | 血腥 | 惊悚 | 美国 | Cult | 暴力 | 1977 | 美国电影

◎简  介

  
  退休警长带领一家去加利福尼亚度假,在路上却出了事故,在这地图上都没有记录的不毛之地,他们遇上了另外一个家庭……
  

DISC INFO:

Disc Title:     The.Hills.Have.Eyes.1977.COMPLETE.UHD.BLURAY-UNTOUCHED
Disc Size:      64,361,885,363 bytes
Protection:     AACS2
Extras:         Ultra HD
BDInfo:         0.7.5.9 (compatible layout created by DVDFab 12.0.3.8)

PLAYLIST REPORT:

Name:                   00002.MPLS  
Length:                 1:30:00.228 (h:m:s.ms)
Size:                   63,529,457,664 bytes
Total Bitrate:          94.11 Mbps

VIDEO:

Codec                   Bitrate             Description     
-----                   -------             -----------     
MPEG-H HEVC Video       82514 kbps          2160p / 23.976 fps / 16:9 / Main 10 @ Level 5.1 @ High / 4:2:0 / 10 bits / 1000nits / HDR10 / BT.2020

AUDIO:

Codec                           Language        Bitrate         Description     
-----                           --------        -------         -----------     
DTS-HD Master Audio             German          1835 kbps       5.1 / 48 kHz / 1835 kbps / 16-bit (DTS Core: 5.1 / 48 kHz / 1344 kbps / 16-bit)
DTS-HD Master Audio             German          907 kbps        2.0 / 48 kHz / 907 kbps / 16-bit (DTS Core: 2.0 / 48 kHz / 768 kbps / 16-bit)
DTS-HD Master Audio             English         2137 kbps       7.1 / 48 kHz / 2137 kbps / 16-bit (DTS Core: 5.1-ES / 48 kHz / 1509 kbps / 16-bit)
DTS-HD Master Audio             English         1013 kbps       2.0 / 48 kHz / 1013 kbps / 16-bit (DTS Core: 2.0 / 48 kHz / 768 kbps / 16-bit)
DTS-HD Master Audio             English         842 kbps        2.0 / 48 kHz / 842 kbps / 16-bit (DTS Core: 2.0 / 48 kHz / 768 kbps / 16-bit)

SUBTITLES:

Codec                           Language        Bitrate         Description     
-----                           --------        -------         -----------     
Presentation Graphics           German          23.807 kbps                     
Presentation Graphics           German          30.205 kbps                     
Presentation Graphics           English         22.055 kbps   


Video
ID : 1
ID in the original source medium : 4113 (0x1011)
Format : HEVC
Format/Info : High Efficiency Video Coding
Format profile : Main [email protected]@High
HDR format : SMPTE ST 2086, HDR10 compatible
Codec ID : V_MPEGH/ISO/HEVC
Duration : 1 h 30 min
Bit rate : 82.5 Mb/s
Width : 3 840 pixels
Height : 2 160 pixels
Display aspect ratio : 16:9
Frame rate mode : Constant
Frame rate : 23.976 (24000/1001) FPS
Color space : YUV
Chroma subsampling : 4:2:0 (Type 2)
Bit depth : 10 bits
Bits/(Pixel*Frame) : 0.415
Stream size : 51.9 GiB (92%)
Language : English
Default : No
Forced : No
Color range : Limited
Color primaries : BT.2020
Transfer characteristics : PQ
Matrix coefficients : BT.2020 non-constant
Mastering display color primaries : BT.2020
Mastering display luminance : min: 0.0001 cd/m2, max: 1000 cd/m2
Maximum Content Light Level : 1000 cd/m2
Maximum Frame-Average Light Level : 400 cd/m2
Original source medium : Blu-ray

Audio #1
ID : 2
ID in the original source medium : 4354 (0x1102)
Format : DTS ES XLL
Format/Info : Digital Theater Systems
Commercial name : DTS-HD Master Audio
Codec ID : A_DTS
Duration : 1 h 30 min
Bit rate mode : Variable
Bit rate : 2 137 kb/s
Channel(s) : 8 channels
Channel layout : C L R Ls Rs LFE Lb Rb
Sampling rate : 48.0 kHz
Frame rate : 93.750 FPS (512 SPF)
Bit depth : 16 bits
Compression mode : Lossless
Stream size : 1.34 GiB (2%)
Title : DTS-HD MA 7.1
Language : English
Default : Yes
Forced : No
Original source medium : Blu-ray

Audio #2
ID : 3
Format : AC-3
Format/Info : Audio Coding 3
Commercial name : Dolby Digital
Codec ID : A_AC3
Duration : 1 h 30 min
Bit rate mode : Constant
Bit rate : 640 kb/s
Channel(s) : 6 channels
Channel layout : L R C LFE Ls Rs
Sampling rate : 48.0 kHz
Frame rate : 31.250 FPS (1536 SPF)
Compression mode : Lossy
Stream size : 412 MiB (1%)
Language : English
Service kind : Complete Main
Default : Yes
Forced : No

Audio #3
ID : 4
ID in the original source medium : 4352 (0x1100)
Format : DTS XLL
Format/Info : Digital Theater Systems
Commercial name : DTS-HD Master Audio
Codec ID : A_DTS
Duration : 1 h 30 min
Bit rate mode : Variable
Bit rate : 1 835 kb/s
Channel(s) : 6 channels
Channel layout : C L R Ls Rs LFE
Sampling rate : 48.0 kHz
Frame rate : 93.750 FPS (512 SPF)
Bit depth : 16 bits
Compression mode : Lossless
Stream size : 1.15 GiB (2%)
Title : DTS-HD MA 5.1
Language : German
Default : No
Forced : No
Original source medium : Blu-ray

Audio #4
ID : 5
ID in the original source medium : 4353 (0x1101)
Format : DTS XLL
Format/Info : Digital Theater Systems
Commercial name : DTS-HD Master Audio
Codec ID : A_DTS
Duration : 1 h 30 min
Bit rate mode : Variable
Bit rate : 907 kb/s
Channel(s) : 2 channels
Channel layout : L R
Sampling rate : 48.0 kHz
Frame rate : 93.750 FPS (512 SPF)
Bit depth : 16 bits
Compression mode : Lossless
Stream size : 584 MiB (1%)
Title : DTS-HD MA 2.0
Language : German
Default : No
Forced : No
Original source medium : Blu-ray

Audio #5
ID : 6
ID in the original source medium : 4355 (0x1103)
Format : DTS XLL
Format/Info : Digital Theater Systems
Commercial name : DTS-HD Master Audio
Codec ID : A_DTS
Duration : 1 h 30 min
Bit rate mode : Variable
Bit rate : 1 013 kb/s
Channel(s) : 2 channels
Channel layout : L R
Sampling rate : 48.0 kHz
Frame rate : 93.750 FPS (512 SPF)
Bit depth : 16 bits
Compression mode : Lossless
Stream size : 652 MiB (1%)
Title : DTS-HD MA 2.0
Language : English
Default : No
Forced : No
Original source medium : Blu-ray

Audio #6
ID : 7
ID in the original source medium : 4356 (0x1104)
Format : DTS XLL
Format/Info : Digital Theater Systems
Commercial name : DTS-HD Master Audio
Codec ID : A_DTS
Duration : 1 h 30 min
Bit rate mode : Variable
Bit rate : 842 kb/s
Channel(s) : 2 channels
Channel layout : L R
Sampling rate : 48.0 kHz
Frame rate : 93.750 FPS (512 SPF)
Bit depth : 16 bits
Compression mode : Lossless
Stream size : 542 MiB (1%)
Title : DTS-HD MA 2.0
Language : English
Default : No
Forced : No
Original source medium : Blu-ray

Text #1
ID : 8
Format : UTF-8
Codec ID : S_TEXT/UTF8
Codec ID/Info : UTF-8 Plain Text
Duration : 1 h 26 min
Bit rate : 40 b/s
Count of elements : 863
Stream size : 25.3 KiB (0%)
Title : SRT
Language : English
Default : Yes
Forced : No

Text #2
ID : 9
ID in the original source medium : 4770 (0x12A2)
Format : PGS
Muxing mode : zlib
Codec ID : S_HDMV/PGS
Codec ID/Info : Picture based subtitle format used on BDs/HD-DVDs
Duration : 1 h 26 min
Bit rate : 23.0 kb/s
Count of elements : 1737
Stream size : 14.2 MiB (0%)
Language : English
Default : No
Forced : No
Original source medium : Blu-ray

Text #3
ID : 10
ID in the original source medium : 4768 (0x12A0)
Format : PGS
Muxing mode : zlib
Codec ID : S_HDMV/PGS
Codec ID/Info : Picture based subtitle format used on BDs/HD-DVDs
Duration : 1 h 26 min
Bit rate : 24.8 kb/s
Count of elements : 1554
Stream size : 15.3 MiB (0%)
Language : German
Default : No
Forced : No
Original source medium : Blu-ray

Text #4
ID : 11
ID in the original source medium : 4769 (0x12A1)
Format : PGS
Muxing mode : zlib
Codec ID : S_HDMV/PGS
Codec ID/Info : Picture based subtitle format used on BDs/HD-DVDs
Duration : 1 h 24 min
Bit rate : 32.0 kb/s
Count of elements : 1527
Stream size : 19.4 MiB (0%)
Title : FORCED
Language : German
Default : No
Forced : No
Original source medium : Blu-ray

Menu
00:00:00.000 : Chapter 01
00:01:18.119 : Chapter 02
00:08:45.775 : Chapter 03
00:15:49.949 : Chapter 04
00:23:14.851 : Chapter 05
00:26:55.488 : Chapter 06
00:33:07.777 : Chapter 07
00:38:24.385 : Chapter 08
00:44:17.404 : Chapter 09
00:50:34.698 : Chapter 10
00:58:52.195 : Chapter 11
01:08:50.000 : Chapter 12
01:18:23.073 : Chapter 13
01:28:37.145 : Chapter 14

本帖子中包含更多资源

您需要 登录 才可以下载或查看,没有帐号?立即注册

x
回复

使用道具 举报

0

主题

821

帖子

3960

积分

论坛元老

Rank: 8Rank: 8

积分
3960
发表于 7 天前 | 显示全部楼层
感谢帖主的分享啊
回复

使用道具 举报

0

主题

60

帖子

240

积分

中级会员

Rank: 3Rank: 3

积分
240
发表于 6 天前 | 显示全部楼层
感谢帖主的分享啊
回复

使用道具 举报

0

主题

821

帖子

3960

积分

论坛元老

Rank: 8Rank: 8

积分
3960
发表于 6 天前 | 显示全部楼层
谢楼主分享
回复

使用道具 举报

0

主题

821

帖子

3960

积分

论坛元老

Rank: 8Rank: 8

积分
3960
发表于 5 天前 | 显示全部楼层
谢楼主分享~~
回复

使用道具 举报

0

主题

486

帖子

3671

积分

论坛元老

Rank: 8Rank: 8

积分
3671
发表于 5 天前 | 显示全部楼层
楼主发贴辛苦了,谢谢楼主分享
回复

使用道具 举报

您需要登录后才可以回帖 登录 | 立即注册

本版积分规则

QQ|Archiver|手机版|小黑屋|原盘天堂 好多盘 点击这里给我发消息

GMT+8, 2021-7-27 20:47 , Processed in 0.058204 second(s), 24 queries .

Powered by Discuz! X3.4

Copyright © 2001-2020, Tencent Cloud.

快速回复 返回顶部 返回列表