请选择 进入手机版 | 继续访问电脑版
本站Q群713428235【盘盘多】已满,请新会员加原盘天堂新官方QQ群709708625【好多盘】,验证信息填写您在论坛的会员名,不填会员名的无法入群哈,进群后修改您的群名片名字为您在论坛的会员名,请务必修改,否则群成员多了不知道您是哪个会员。

原盘天堂

 找回密码
 立即注册
京东商城当当华为商城名牌时尚折扣网,一个新型的网上购物平台,我们每周为您精选3~4个国际知名品牌,商品折扣低至2折限时限量售卖,商品囊括时装、护肤品、箱包、皮具、配饰、香水等等,琳琅满目。亿格瑞A10硬盘播放器 苏宁易购
查看: 93|回复: 4

4k蓝光原盘bdmv 乱 英语原版 ran.1985.japanese.2160p.bluray.hevc.dts-hd.ma.5.1[76.72 GB]

[复制链接]

6152

主题

6859

帖子

133万

积分

管理员

Rank: 18Rank: 18Rank: 18Rank: 18Rank: 18

积分
1334984
发表于 7 天前 | 显示全部楼层 |阅读模式









◎译  名 乱日本战国时代/Ran/Revolt
◎片  名 乱
◎年  代 1985
◎产  地 日本/法国
◎类  别 剧情/动作
◎语  言 日语
◎上映日期 1985-06-01(日本)
◎IMDb链接  https://www.imdb.com/title/tt0089881/
◎豆瓣评分 8.9/10 from 68961 users
◎豆瓣链接 https://douban.com/subject/1296196/
◎片  长 162分钟
◎导  演 黑泽明 Akira Kurosawa
◎编  剧 黑泽明 Akira Kurosawa / 小国英雄 Hideo Oguni / 井手雅人 Masato Ide / 威廉·莎士比亚 William Shakespeare
◎主  演 仲代达矢 Tatsuya Nakadai
       寺尾聪 Akira Terao
       根津甚八 Jinpachi Nezu
       隆大介 Daisuke Ryû
       原田美枝子 Mieko Harada
       宫崎美子 Yoshiko Miyazaki
       井川比佐志 Hisashi Igawa
       池畑慎之介 Pîtâ
       油井昌由树 Masayuki Yui
       加藤和夫 Kazuo Katô
       松井范雄 Norio Matsui
       伊藤敏八 Toshiya Ito
       儿玉谦次 Kenji Kodama
       野村万斋 Mansai Nomura
       加藤武 Takeshi Katô
       田崎润 Jun Tazaki
       植木等 Hitoshi Ueki
       头师孝雄 Takao Zushi
       头师佳孝 Yoshitaka Zushi
       天田益男 Masuo Amada
       木村荣 Sakae Kimura
       日比游一 Yuichi Hibi
       加藤精三 Seizô Katô
       南條玲子 Reiko Nanjo
       音羽久米子 Kumeko Otowa
       寺岛进 Susumu Terajima
       东乡晴子 Haruko Togo
       渡边哲 Tetsu Watanabe
       宫坂广 Hiroshi Miyasaka
       本多猪四郎  Ishirô Honda

◎标  签 日本 | 战争 | 经典 | 历史 | 武士 | 人性 | 1985 | 剧情

◎简  介

  
  一文字秀虎(仲代达矢饰)征战多年,手段残忍。在七十岁时,秀虎准备将家业一分为三,由三个儿子分掌大权。他把太郎孝虎(寺尾聪饰)、次郎正虎(根津甚八饰)、三郎直虎(隆大介饰)叫到跟前,以“支箭会断,砚支箭折不断”喻语告诫三兄弟,嘱咐他们要休戚与共。三郎当场把三支箭横在膝上折断,以抗议父亲枉经乱世,而不知人情。秀虎大怒,将三郎驱逐出境。三郎遂到邻国入赘为婿。
  
  而之后一文字家果然被三郎言中,背信弃义的告诫果然成真,父子及兄弟间的纷乱开始,迎接他们的将是什么命运?
  

◎获奖情况

  第58届奥斯卡金像奖  (1986)
  最佳导演(提名) 黑泽明
  最佳摄影(提名) 中井朝一 / 斋藤孝雄 / 上田正治
  最佳艺术指导(提名) 村木忍 / 村木与四郎
  最佳服装设计 和田惠美


DISC INFO:

Disc Title:     Ran.1985.JAPANESE.2160p.BluRay.HEVC.DTS-HD.MA.5.1-TASTED
Disc Size:      82,360,900,812 bytes
Protection:     AACS2
Extras:         Ultra HD
BDInfo:         0.7.5.9 (compatible layout created by DVDFab 12.0.3.8)

PLAYLIST REPORT:

Name:                   00050.MPLS  
Length:                 2:40:34.250 (h:m:s.ms)
Size:                   79,266,312,192 bytes
Total Bitrate:          65.82 Mbps

(*) Indicates included stream hidden by this playlist.

VIDEO:

Codec                   Bitrate             Description     
-----                   -------             -----------     
MPEG-H HEVC Video       42398 kbps          2160p / 24 fps / 16:9 / Main 10 @ Level 5.1 @ High / 4:2:0 / 10 bits / 1000nits / HDR10 / BT.2020
* MPEG-H HEVC Video     5034 kbps (10.61%)  1080p / 24 fps / 16:9 / Main 10 @ Level 5.1 @ High / 4:2:0 / 10 bits / 1000nits / Dolby Vision FEL / BT.2020

AUDIO:

Codec                           Language        Bitrate         Description     
-----                           --------        -------         -----------     
DTS-HD Master Audio             German          1728 kbps       2.0 / 48 kHz / 1728 kbps / 24-bit (DTS Core: 2.0 / 48 kHz / 1152 kbps / 24-bit)
DTS-HD Master Audio             Japanese        4063 kbps       5.1 / 48 kHz / 4063 kbps / 24-bit (DTS Core: 5.1 / 48 kHz / 1152 kbps / 24-bit)
DTS-HD Master Audio             Japanese        1775 kbps       2.0 / 48 kHz / 1775 kbps / 24-bit (DTS Core: 2.0 / 48 kHz / 1152 kbps / 24-bit)
DTS-HD Master Audio             English         3795 kbps       5.1 / 48 kHz / 3795 kbps / 24-bit (DTS Core: 5.1 / 48 kHz / 1152 kbps / 24-bit)
DTS-HD Master Audio             French          3287 kbps       5.1 / 48 kHz / 3287 kbps / 24-bit (DTS Core: 5.1 / 48 kHz / 1152 kbps / 24-bit)

SUBTITLES:

Codec                           Language        Bitrate         Description     
-----                           --------        -------         -----------     
Presentation Graphics           German          17.846 kbps                     
Presentation Graphics           English         15.653 kbps                     
Presentation Graphics           French          15.456 kbps                     
Presentation Graphics           German          0.172 kbps                     
Presentation Graphics           English         0.081 kbps      


Video
ID : 1
ID in the original source medium : 4113 (0x1011)
Format : HEVC
Format/Info : High Efficiency Video Coding
Format profile : Main [email protected]@High
HDR format : SMPTE ST 2086, HDR10 compatible
Codec ID : V_MPEGH/ISO/HEVC
Duration : 2 h 40 min
Bit rate : 42.4 Mb/s
Width : 3 840 pixels
Height : 2 160 pixels
Display aspect ratio : 16:9
Frame rate mode : Constant
Frame rate : 24.000 FPS
Color space : YUV
Chroma subsampling : 4:2:0 (Type 2)
Bit depth : 10 bits
Bits/(Pixel*Frame) : 0.213
Stream size : 47.6 GiB (73%)
Language : English
Default : No
Forced : No
Color range : Limited
Color primaries : BT.2020
Transfer characteristics : PQ
Matrix coefficients : BT.2020 non-constant
Mastering display color primaries : BT.2020
Mastering display luminance : min: 0.0001 cd/m2, max: 1000 cd/m2
Maximum Content Light Level : 962 cd/m2
Maximum Frame-Average Light Level : 201 cd/m2
Original source medium : Blu-ray

Audio #1
ID : 2
ID in the original source medium : 4353 (0x1101)
Format : DTS XLL
Format/Info : Digital Theater Systems
Commercial name : DTS-HD Master Audio
Codec ID : A_DTS
Duration : 2 h 40 min
Bit rate mode : Variable
Bit rate : 4 063 kb/s
Channel(s) : 6 channels
Channel layout : C L R Ls Rs LFE
Sampling rate : 48.0 kHz
Frame rate : 93.750 FPS (512 SPF)
Bit depth : 24 bits
Compression mode : Lossless
Stream size : 4.56 GiB (7%)
Title : DTS-HD MA 5.1
Language : Japanese
Default : Yes
Forced : No
Original source medium : Blu-ray

Audio #2
ID : 3
Format : AC-3
Format/Info : Audio Coding 3
Commercial name : Dolby Digital
Codec ID : A_AC3
Duration : 2 h 40 min
Bit rate mode : Constant
Bit rate : 640 kb/s
Channel(s) : 6 channels
Channel layout : L R C LFE Ls Rs
Sampling rate : 48.0 kHz
Frame rate : 31.250 FPS (1536 SPF)
Compression mode : Lossy
Stream size : 735 MiB (1%)
Title : DD 5.1
Language : Japanese
Service kind : Complete Main
Default : No
Forced : No

Audio #3
ID : 4
ID in the original source medium : 4355 (0x1103)
Format : DTS XLL
Format/Info : Digital Theater Systems
Commercial name : DTS-HD Master Audio
Codec ID : A_DTS
Duration : 2 h 40 min
Bit rate mode : Variable
Bit rate : 3 795 kb/s
Channel(s) : 6 channels
Channel layout : C L R Ls Rs LFE
Sampling rate : 48.0 kHz
Frame rate : 93.750 FPS (512 SPF)
Bit depth : 24 bits
Compression mode : Lossless
Stream size : 4.26 GiB (7%)
Title : DTS-HD MA 5.1
Language : English
Default : No
Forced : No
Original source medium : Blu-ray

Audio #4
ID : 5
Format : AC-3
Format/Info : Audio Coding 3
Commercial name : Dolby Digital
Codec ID : A_AC3
Duration : 2 h 40 min
Bit rate mode : Constant
Bit rate : 640 kb/s
Channel(s) : 6 channels
Channel layout : L R C LFE Ls Rs
Sampling rate : 48.0 kHz
Frame rate : 31.250 FPS (1536 SPF)
Compression mode : Lossy
Stream size : 735 MiB (1%)
Title : DD 5.1
Language : English
Service kind : Complete Main
Default : No
Forced : No

Audio #5
ID : 6
ID in the original source medium : 4354 (0x1102)
Format : DTS XLL
Format/Info : Digital Theater Systems
Commercial name : DTS-HD Master Audio
Codec ID : A_DTS
Duration : 2 h 40 min
Bit rate mode : Variable
Bit rate : 1 775 kb/s
Channel(s) : 2 channels
Channel layout : L R
Sampling rate : 48.0 kHz
Frame rate : 93.750 FPS (512 SPF)
Bit depth : 24 bits
Compression mode : Lossless
Stream size : 1.99 GiB (3%)
Title : DTS-HD MA 2.0
Language : Japanese
Default : No
Forced : No
Original source medium : Blu-ray

Audio #6
ID : 7
ID in the original source medium : 4352 (0x1100)
Format : DTS XLL
Format/Info : Digital Theater Systems
Commercial name : DTS-HD Master Audio
Codec ID : A_DTS
Duration : 2 h 40 min
Bit rate mode : Variable
Bit rate : 1 728 kb/s
Channel(s) : 2 channels
Channel layout : L R
Sampling rate : 48.0 kHz
Frame rate : 93.750 FPS (512 SPF)
Bit depth : 24 bits
Compression mode : Lossless
Stream size : 1.94 GiB (3%)
Title : DTS-HD MA 2.0
Language : German
Default : No
Forced : No
Original source medium : Blu-ray

Audio #7
ID : 8
ID in the original source medium : 4356 (0x1104)
Format : DTS XLL
Format/Info : Digital Theater Systems
Commercial name : DTS-HD Master Audio
Codec ID : A_DTS
Duration : 2 h 40 min
Bit rate mode : Variable
Bit rate : 3 287 kb/s
Channel(s) : 6 channels
Channel layout : C L R Ls Rs LFE
Sampling rate : 48.0 kHz
Frame rate : 93.750 FPS (512 SPF)
Bit depth : 24 bits
Compression mode : Lossless
Stream size : 3.69 GiB (6%)
Title : DTS-HD MA 5.1
Language : French
Default : No
Forced : No
Original source medium : Blu-ray

Text #1
ID : 9
Format : UTF-8
Codec ID : S_TEXT/UTF8
Codec ID/Info : UTF-8 Plain Text
Duration : 2 h 35 min
Bit rate : 25 b/s
Count of elements : 1239
Stream size : 28.7 KiB (0%)
Title : SRT
Language : English
Default : Yes
Forced : No

Text #2
ID : 10
ID in the original source medium : 4769 (0x12A1)
Format : PGS
Muxing mode : zlib
Codec ID : S_HDMV/PGS
Codec ID/Info : Picture based subtitle format used on BDs/HD-DVDs
Duration : 2 h 35 min
Bit rate : 16.1 kb/s
Count of elements : 2486
Stream size : 17.9 MiB (0%)
Language : English
Default : No
Forced : No
Original source medium : Blu-ray

Text #3
ID : 11
ID in the original source medium : 4768 (0x12A0)
Format : PGS
Muxing mode : zlib
Codec ID : S_HDMV/PGS
Codec ID/Info : Picture based subtitle format used on BDs/HD-DVDs
Duration : 2 h 35 min
Bit rate : 18.4 kb/s
Count of elements : 2476
Stream size : 20.5 MiB (0%)
Language : German
Default : No
Forced : No
Original source medium : Blu-ray

Text #4
ID : 12
ID in the original source medium : 4770 (0x12A2)
Format : PGS
Muxing mode : zlib
Codec ID : S_HDMV/PGS
Codec ID/Info : Picture based subtitle format used on BDs/HD-DVDs
Duration : 2 h 37 min
Bit rate : 15.8 kb/s
Count of elements : 2526
Stream size : 17.8 MiB (0%)
Language : French
Default : No
Forced : No
Original source medium : Blu-ray

Text #5
ID : 13
ID in the original source medium : 4771 (0x12A3)
Format : PGS
Muxing mode : zlib
Codec ID : S_HDMV/PGS
Codec ID/Info : Picture based subtitle format used on BDs/HD-DVDs
Duration : 53 min 55 s
Bit rate : 512 b/s
Count of elements : 18
Stream size : 203 KiB (0%)
Title : FORCED
Language : German
Default : No
Forced : No
Original source medium : Blu-ray

Text #6
ID : 14
ID in the original source medium : 4772 (0x12A4)
Format : PGS
Muxing mode : zlib
Codec ID : S_HDMV/PGS
Codec ID/Info : Picture based subtitle format used on BDs/HD-DVDs
Duration : 7 s 271 ms
Bit rate : 107 kb/s
Count of elements : 6
Stream size : 95.2 KiB (0%)
Title : FORCED
Language : English
Default : No
Forced : No
Original source medium : Blu-ray

Menu
00:00:00.000 : Chapter 01
00:12:09.833 : Chapter 02
00:26:00.791 : Chapter 03
00:38:47.958 : Chapter 04
00:51:34.541 : Chapter 05
01:04:10.958 : Chapter 06
01:17:57.416 : Chapter 07
01:28:56.000 : Chapter 08
01:43:53.833 : Chapter 09
01:59:30.666 : Chapter 10
02:14:42.500 : Chapter 11
02:33:02.125 : Chapter 12

本帖子中包含更多资源

您需要 登录 才可以下载或查看,没有帐号?立即注册

x
回复

使用道具 举报

0

主题

482

帖子

2548

积分

金牌会员

Rank: 6Rank: 6

积分
2548
发表于 7 天前 | 显示全部楼层
非常感谢分享,辛苦了!
回复

使用道具 举报

0

主题

482

帖子

2548

积分

金牌会员

Rank: 6Rank: 6

积分
2548
发表于 6 天前 | 显示全部楼层
谢谢分享
回复

使用道具 举报

0

主题

60

帖子

240

积分

中级会员

Rank: 3Rank: 3

积分
240
发表于 5 天前 | 显示全部楼层
非常感谢分享,辛苦了!
回复

使用道具 举报

0

主题

60

帖子

240

积分

中级会员

Rank: 3Rank: 3

积分
240
发表于 3 天前 | 显示全部楼层
非常感谢分享,辛苦了!
回复

使用道具 举报

您需要登录后才可以回帖 登录 | 立即注册

本版积分规则

QQ|Archiver|手机版|小黑屋|原盘天堂 好多盘 点击这里给我发消息

GMT+8, 2021-7-27 19:32 , Processed in 0.057686 second(s), 24 queries .

Powered by Discuz! X3.4

Copyright © 2001-2020, Tencent Cloud.

快速回复 返回顶部 返回列表