请选择 进入手机版 | 继续访问电脑版
本站Q群713428235【盘盘多】已满,请新会员加原盘天堂新官方QQ群709708625【好多盘】,验证信息填写您在论坛的会员名,不填会员名的无法入群哈,进群后修改您的群名片名字为您在论坛的会员名,请务必修改,否则群成员多了不知道您是哪个会员。

原盘天堂

 找回密码
 立即注册
京东商城当当华为商城名牌时尚折扣网,一个新型的网上购物平台,我们每周为您精选3~4个国际知名品牌,商品折扣低至2折限时限量售卖,商品囊括时装、护肤品、箱包、皮具、配饰、香水等等,琳琅满目。亿格瑞A10硬盘播放器 苏宁易购
查看: 89|回复: 0

2d蓝光原盘bdmv 杀戮开始 英语原版 initiation.2020.1080p.bluray.avc.dts-hd.ma.5.1[37.89 GB]

[复制链接]

6152

主题

6859

帖子

133万

积分

管理员

Rank: 18Rank: 18Rank: 18Rank: 18Rank: 18

积分
1334984
发表于 2021-7-19 10:11:57 | 显示全部楼层 |阅读模式









◎译  名 杀戮开始/死亡连锁(台)/Dembanger
◎片  名 Initiation
◎年  代 2020
◎产  地 美国
◎类  别 恐怖
◎语  言 英语
◎上映日期 2020-03(西南偏南电影节)/2021-05-07(美国)
◎IMDb链接  https://www.imdb.com/title/tt7397098/
◎豆瓣评分 4.3/10 from 184 users
◎豆瓣链接 https://douban.com/subject/30162604/
◎片  长 96分钟
◎导  演  John Berardo
◎编  剧  John Berardo
◎主  演 洛奇林·莫罗 Lochlyn Munro
       杨茜·巴特勒 Yancy Butler
       乔·胡尔特拉斯 Jon Huertas
       伊莎贝拉·戈麦兹 Isabella Gomez
       弗洛伊·格特瑞兹 Froy Gutierrez
       盖特林·格里菲斯 Gattlin Griffith
       巴特·约翰逊 Bart Johnson
       帕特里克·R·沃克 Patrick R. Walker
       尼克·巴拉德 Nick Ballard
       莎丽尼·巴辛娜 Shalini Bathina
       肯特·法尔考 Kent Faulcon
       梅尔·法尔 Mel Fair
       小戴维·M·桑多瓦尔 David M Sandoval Jr.
       麦斯威尔·汉密尔顿 Maxwell Hamilton
       戴澴雨 Anthony Tai

◎标  签 惊悚 | 美国 | 恐怖 | 2020 | 美国电影 | 犯罪 | 青春 | 美式恐怖

◎简  介

  
  在这个前卫的砍杀者中,关于恐怖的残酷社交媒体游戏失控,少年恐怖又回来了。惠顿大学(Whiton University)揭开了一名暗杀案指控后,一名明星运动员被谋杀的夜晚的序幕,引发了一系列社交媒体相关的杀戮事件。当一个蒙面杀手针对整个校园的学生时,三位姐妹姐妹争分夺秒地揭露了学校隐藏的秘密背后的真相-以及一个感叹号的恐怖含义-然后他们成为杀手的下一个受害者
  

DISC INFO:

Disc Title:     Initiation.2020.1080p.BluRay.AVC.DTS-HD.MA.5.1-FGT
Disc Size:      40,682,827,834 bytes
Protection:     AACS
Extras:         BD-Java
BDInfo:         0.7.5.9 (compatible layout created by DVDFab 12.0.3.8)

PLAYLIST REPORT:

Name:                   00664.MPLS  
Length:                 1:37:36.475 (h:m:s.ms)
Size:                   30,572,734,464 bytes
Total Bitrate:          41.76 Mbps

VIDEO:

Codec                   Bitrate             Description     
-----                   -------             -----------     
MPEG-4 AVC Video        36143 kbps          1080p / 23.976 fps / 16:9 / High Profile 4.1

AUDIO:

Codec                           Language        Bitrate         Description     
-----                           --------        -------         -----------     
DTS-HD Master Audio             English         3513 kbps       5.1 / 48 kHz / 3513 kbps / 24-bit (DTS Core: 5.1 / 48 kHz / 1509 kbps / 24-bit)

SUBTITLES:

Codec                           Language        Bitrate         Description     
-----                           --------        -------         -----------     
Presentation Graphics           English         34.257 kbps                     
Presentation Graphics           Spanish         30.274 kbps   


Video
ID : 1
ID in the original source medium : 4113 (0x1011)
Format : AVC
Format/Info : Advanced Video Codec
Format profile : [email protected]
Format settings : CABAC / 4 Ref Frames
Format settings, CABAC : Yes
Format settings, Reference frames : 4 frames
Codec ID : V_MPEG4/ISO/AVC
Duration : 1 h 37 min
Bit rate mode : Variable
Bit rate : 34.6 Mb/s
Maximum bit rate : 37.0 Mb/s
Width : 1 920 pixels
Height : 1 080 pixels
Display aspect ratio : 16:9
Frame rate mode : Constant
Frame rate : 23.976 (24000/1001) FPS
Color space : YUV
Chroma subsampling : 4:2:0
Bit depth : 8 bits
Scan type : Progressive
Bits/(Pixel*Frame) : 0.696
Stream size : 23.6 GiB (91%)
Language : English
Default : No
Forced : No
Original source medium : Blu-ray

Audio
ID : 2
ID in the original source medium : 4352 (0x1100)
Format : DTS XLL
Format/Info : Digital Theater Systems
Commercial name : DTS-HD Master Audio
Codec ID : A_DTS
Duration : 1 h 37 min
Bit rate mode : Variable
Bit rate : 3 513 kb/s
Channel(s) : 6 channels
Channel layout : C L R Ls Rs LFE
Sampling rate : 48.0 kHz
Frame rate : 93.750 FPS (512 SPF)
Bit depth : 24 bits
Compression mode : Lossless
Stream size : 2.40 GiB (9%)
Title : DTS-HD MA 5.1
Language : English
Default : Yes
Forced : No
Original source medium : Blu-ray

Text #1
ID : 3
Format : UTF-8
Codec ID : S_TEXT/UTF8
Codec ID/Info : UTF-8 Plain Text
Duration : 1 h 30 min
Bit rate : 50 b/s
Count of elements : 1087
Stream size : 33.3 KiB (0%)
Title : SRT
Language : English
Default : Yes
Forced : No

Text #2
ID : 4
ID in the original source medium : 4608 (0x1200)
Format : PGS
Muxing mode : zlib
Codec ID : S_HDMV/PGS
Codec ID/Info : Picture based subtitle format used on BDs/HD-DVDs
Duration : 1 h 30 min
Bit rate : 36.9 kb/s
Count of elements : 2648
Stream size : 23.9 MiB (0%)
Language : English
Default : No
Forced : No
Original source medium : Blu-ray

Text #3
ID : 5
ID in the original source medium : 4609 (0x1201)
Format : PGS
Muxing mode : zlib
Codec ID : S_HDMV/PGS
Codec ID/Info : Picture based subtitle format used on BDs/HD-DVDs
Duration : 1 h 29 min
Bit rate : 32.8 kb/s
Count of elements : 2422
Stream size : 21.1 MiB (0%)
Language : Spanish
Default : No
Forced : No
Original source medium : Blu-ray

Menu
00:00:00.000 : Chapter 01
00:04:22.679 : Chapter 02
00:11:50.501 : Chapter 03
00:18:48.794 : Chapter 04
00:26:03.436 : Chapter 05
00:30:47.011 : Chapter 06
00:37:25.243 : Chapter 07
00:42:06.357 : Chapter 08
00:48:10.554 : Chapter 09
00:53:30.081 : Chapter 10
00:58:12.906 : Chapter 11
01:03:12.955 : Chapter 12
01:10:10.789 : Chapter 13
01:14:56.492 : Chapter 14
01:19:13.498 : Chapter 15
01:29:04.130 : Chapter 16

本帖子中包含更多资源

您需要 登录 才可以下载或查看,没有帐号?立即注册

x
回复

使用道具 举报

您需要登录后才可以回帖 登录 | 立即注册

本版积分规则

QQ|Archiver|手机版|小黑屋|原盘天堂 好多盘 点击这里给我发消息

GMT+8, 2021-7-27 19:21 , Processed in 0.065309 second(s), 25 queries .

Powered by Discuz! X3.4

Copyright © 2001-2020, Tencent Cloud.

快速回复 返回顶部 返回列表