请选择 进入手机版 | 继续访问电脑版
本站Q群713428235【盘盘多】已满,请新会员加原盘天堂新官方QQ群709708625【好多盘】,验证信息填写您在论坛的会员名,不填会员名的无法入群哈,进群后修改您的群名片名字为您在论坛的会员名,请务必修改,否则群成员多了不知道您是哪个会员。

原盘天堂

 找回密码
 立即注册
京东商城当当华为商城名牌时尚折扣网,一个新型的网上购物平台,我们每周为您精选3~4个国际知名品牌,商品折扣低至2折限时限量售卖,商品囊括时装、护肤品、箱包、皮具、配饰、香水等等,琳琅满目。亿格瑞A10硬盘播放器 苏宁易购
查看: 89|回复: 1

2d蓝光原盘bdmv 无人之地 英语原版 no.mans.land.2020.1080p.bluray.avc.dts-hd.ma.5.1[35.96 GB]

[复制链接]

6152

主题

6859

帖子

133万

积分

管理员

Rank: 18Rank: 18Rank: 18Rank: 18Rank: 18

积分
1335000
发表于 2021-7-19 09:25:49 | 显示全部楼层 |阅读模式








◎译  名 无人之地
◎片  名 No Man's Land
◎年  代 2021
◎产  地 墨西哥
◎类  别 西部
◎语  言 英语/西班牙语
◎上映日期 2021(美国)
◎IMDb链接  https://www.imdb.com/title/tt10449052/
◎豆瓣评分 /10 from 0 users
◎豆瓣链接 https://douban.com/subject/35116324/
◎片  长 114分钟
◎导  演 Conor Allyn Conor Allyn
◎主  演 弗兰克·格里罗 Frank Grillo
       安迪·麦克道威尔 Andie MacDowell
       亚历克斯·马克尼科尔 Alex MacNicoll
       乔治·洛佩兹 George Lopez
       豪尔赫·A·希门尼斯 Jorge A. Jimenez
       埃斯梅拉达·皮门特尔 Esmeralda Pimentel
       奥费莉娅·梅迪纳 Ofelia Medina
       Julieta Ortiz Julieta Ortiz

◎标  签 墨西哥 | 西部 | 剧情 | 2021 | 美国 | 墨西哥电影 | 弗兰克·格里罗 | 电影

◎简  介

  
  IFC Films拿下弗兰克·格里罗、安迪·麦克道威尔、乔治·洛佩兹主演,Conor Allyn执导的[无人之地](No Man’s Land,暂译)北美发行权。该片讲述美国与墨西哥边境守卫比尔·格里尔和他的儿子杰克逊在巡逻中,意外杀死了一名墨西哥男孩,比尔试图承担所有责任,但被德克萨斯州的骑兵拉米雷斯识破。杰克逊不得不往南逃,他穿越沙漠和山脉,以寻求死者父亲的宽恕。该片将于明年北美上映。
  
DISC INFO:

Disc Title:     No.Mans.Land.2020.1080p.BluRay.AVC.DTS-HD.MA.5.1-iNTEGRUM
Disc Size:      38,610,857,415 bytes
Protection:     AACS
Extras:         BD-Java
BDInfo:         0.7.5.9 (compatible layout created by DVDFab 12.0.3.8)

PLAYLIST REPORT:

Name:                   01002.MPLS  
Length:                 1:55:04.898 (h:m:s.ms)
Size:                   36,984,317,952 bytes
Total Bitrate:          42.85 Mbps

VIDEO:

Codec                   Bitrate             Description     
-----                   -------             -----------     
MPEG-4 AVC Video        34000 kbps          1080p / 23.976 fps / 16:9 / High Profile 4.1

AUDIO:

Codec                           Language        Bitrate         Description     
-----                           --------        -------         -----------     
DTS-HD Master Audio             English         2951 kbps       5.1 / 48 kHz / 2951 kbps / 24-bit (DTS Core: 5.1 / 48 kHz / 1509 kbps / 24-bit)
DTS-HD Master Audio             English         1625 kbps       2.0 / 48 kHz / 1625 kbps / 24-bit (DTS Core: 2.0 / 48 kHz / 1509 kbps / 24-bit)
DTS-HD Master Audio             English         1665 kbps       2.0 / 48 kHz / 1665 kbps / 24-bit (DTS Core: 2.0 / 48 kHz / 1509 kbps / 24-bit)

SUBTITLES:

Codec                           Language        Bitrate         Description     
-----                           --------        -------         -----------     
Presentation Graphics           English         22.684 kbps                     
Presentation Graphics           Spanish         23.486 kbps     

Video
ID : 1
ID in the original source medium : 4113 (0x1011)
Format : AVC
Format/Info : Advanced Video Codec
Format profile : [email protected]
Format settings : CABAC / 4 Ref Frames
Format settings, CABAC : Yes
Format settings, Reference frames : 4 frames
Codec ID : V_MPEG4/ISO/AVC
Duration : 1 h 55 min
Bit rate mode : Constant
Bit rate : 34.0 Mb/s
Width : 1 920 pixels
Height : 1 080 pixels
Display aspect ratio : 16:9
Frame rate mode : Constant
Frame rate : 23.976 (24000/1001) FPS
Color space : YUV
Chroma subsampling : 4:2:0
Bit depth : 8 bits
Scan type : Progressive
Bits/(Pixel*Frame) : 0.684
Stream size : 26.2 GiB (84%)
Language : English
Default : No
Forced : No
Original source medium : Blu-ray

Audio #1
ID : 2
ID in the original source medium : 4352 (0x1100)
Format : DTS XLL
Format/Info : Digital Theater Systems
Commercial name : DTS-HD Master Audio
Codec ID : A_DTS
Duration : 1 h 55 min
Bit rate mode : Variable
Bit rate : 2 951 kb/s
Channel(s) : 6 channels
Channel layout : C L R Ls Rs LFE
Sampling rate : 48.0 kHz
Frame rate : 93.750 FPS (512 SPF)
Bit depth : 24 bits
Compression mode : Lossless
Stream size : 2.37 GiB (8%)
Title : DTS-HD MA 5.1
Language : English
Default : Yes
Forced : No
Original source medium : Blu-ray

Audio #2
ID : 3
ID in the original source medium : 4353 (0x1101)
Format : DTS XLL
Format/Info : Digital Theater Systems
Commercial name : DTS-HD Master Audio
Codec ID : A_DTS
Duration : 1 h 55 min
Bit rate mode : Variable
Bit rate : 1 625 kb/s
Channel(s) : 2 channels
Channel layout : L R
Sampling rate : 48.0 kHz
Frame rate : 93.750 FPS (512 SPF)
Bit depth : 24 bits
Compression mode : Lossless
Stream size : 1.31 GiB (4%)
Title : DTS-HD MA 2.0
Language : English
Default : No
Forced : No
Original source medium : Blu-ray

Audio #3
ID : 4
ID in the original source medium : 4354 (0x1102)
Format : DTS XLL
Format/Info : Digital Theater Systems
Commercial name : DTS-HD Master Audio
Codec ID : A_DTS
Duration : 1 h 55 min
Bit rate mode : Variable
Bit rate : 1 665 kb/s
Channel(s) : 2 channels
Channel layout : L R
Sampling rate : 48.0 kHz
Frame rate : 93.750 FPS (512 SPF)
Bit depth : 24 bits
Compression mode : Lossless
Stream size : 1.34 GiB (4%)
Title : DTS-HD MA 2.0
Language : English
Default : No
Forced : No
Original source medium : Blu-ray

Text #1
ID : 5
Format : UTF-8
Codec ID : S_TEXT/UTF8
Codec ID/Info : UTF-8 Plain Text
Duration : 1 h 49 min
Bit rate : 29 b/s
Count of elements : 1069
Stream size : 23.6 KiB (0%)
Title : SRT
Language : English
Default : Yes
Forced : No

Text #2
ID : 6
ID in the original source medium : 4608 (0x1200)
Format : PGS
Muxing mode : zlib
Codec ID : S_HDMV/PGS
Codec ID/Info : Picture based subtitle format used on BDs/HD-DVDs
Duration : 1 h 52 min
Bit rate : 23.1 kb/s
Count of elements : 1918
Stream size : 18.7 MiB (0%)
Language : English
Default : No
Forced : No
Original source medium : Blu-ray

Text #3
ID : 7
ID in the original source medium : 4609 (0x1201)
Format : PGS
Muxing mode : zlib
Codec ID : S_HDMV/PGS
Codec ID/Info : Picture based subtitle format used on BDs/HD-DVDs
Duration : 1 h 51 min
Bit rate : 24.3 kb/s
Count of elements : 1926
Stream size : 19.3 MiB (0%)
Language : Spanish
Default : No
Forced : No
Original source medium : Blu-ray

Menu
00:00:00.000 : Chapter 01
00:08:31.844 : Chapter 02
00:17:12.197 : Chapter 03
00:26:23.915 : Chapter 04
00:36:42.200 : Chapter 05
00:45:25.347 : Chapter 06
00:53:00.760 : Chapter 07
01:02:54.645 : Chapter 08
01:12:13.370 : Chapter 09
01:22:06.546 : Chapter 10
01:31:06.711 : Chapter 11
01:42:53.834 : Chapter 12

本帖子中包含更多资源

您需要 登录 才可以下载或查看,没有帐号?立即注册

x
回复

使用道具 举报

0

主题

3

帖子

10

积分

新手上路

Rank: 1

积分
10
发表于 5 天前 | 显示全部楼层
东西非常不不错非常好!
回复

使用道具 举报

您需要登录后才可以回帖 登录 | 立即注册

本版积分规则

QQ|Archiver|手机版|小黑屋|原盘天堂 好多盘 点击这里给我发消息

GMT+8, 2021-7-27 20:23 , Processed in 0.065215 second(s), 25 queries .

Powered by Discuz! X3.4

Copyright © 2001-2020, Tencent Cloud.

快速回复 返回顶部 返回列表