请选择 进入手机版 | 继续访问电脑版
本站Q群713428235【盘盘多】已满,请新会员加原盘天堂新官方QQ群709708625【好多盘】,验证信息填写您在论坛的会员名,不填会员名的无法入群哈,进群后修改您的群名片名字为您在论坛的会员名,请务必修改,否则群成员多了不知道您是哪个会员。

原盘天堂

 找回密码
 立即注册
京东商城当当华为商城名牌时尚折扣网,一个新型的网上购物平台,我们每周为您精选3~4个国际知名品牌,商品折扣低至2折限时限量售卖,商品囊括时装、护肤品、箱包、皮具、配饰、香水等等,琳琅满目。亿格瑞A10硬盘播放器 苏宁易购
查看: 90|回复: 1

2d蓝光原盘bdmv 死于枪战 英语原版 die.in.a.gunfight.2021.1080p.bluray.avc.dts-hd.ma.5.1[31.24 GB]

[复制链接]

6152

主题

6859

帖子

133万

积分

管理员

Rank: 18Rank: 18Rank: 18Rank: 18Rank: 18

积分
1334984
发表于 2021-7-18 16:41:33 | 显示全部楼层 |阅读模式







◎译  名 死于枪战/枪战之死
◎片  名 Die in a Gunfight
◎年  代 2021
◎产  地 美国
◎类  别 喜剧 / 动作 / 爱情 / 犯罪
◎语  言 英语
◎上映日期 2021-07-01(俄罗斯)
◎IMDb评分  4.5/10 from 467 users
◎IMDb链接  https://www.imdb.com/title/tt1697800/
◎豆瓣评分 4.1/10 from 159 users
◎豆瓣链接 https://movie.douban.com/subject/6872950/
◎片  长 92分钟
◎导  演 科林·希夫利 Collin Schiffli
◎编  剧 安德鲁·贝伦 Andrew Barrer / 加百利·法拉利 Gabriel Ferrari
◎主  演 迪耶戈·博内塔 Diego Boneta
       亚历珊德拉·达达里奥 Alexandra Daddario
       崔维斯·费米尔 Travis Fimmel
       贾斯汀·查特文 Justin Chatwin
       比利·克鲁德普 Billy Crudup
       埃曼纽尔·施莱琪 Emmanuelle Chriqui
       尼古拉·科雷亚·达姆得 Nicola Correia Damude
       约翰·拉尔斯顿 John Ralston
       米歇尔·诺尔顿 Michelle Nolden
       斯图尔特·休斯 Stuart Hughes
       约翰·腾奇 John Tench
       蕾妮·威利特 Renée Willett
       高莉莉 Lily Gao
       奥立薇娅·玛恩 Olivia Munn
       海伦·亨特 Helen Hunt
       大卫·达斯马齐连 David Dastmalchian

◎标  签 亚历珊德拉·达达里奥 | 美国 | 动作 | 爱情 | 2021 | 剧情 | 犯罪 | 电影

◎简  介

  A young New Yorker falls in love with the daughter of his father's nemesis, setting in motion a Romeo and Juliet-like forbidden romance.

      一位年轻的纽约人爱上了他父亲死对头的女儿,引发了一段罗密欧和朱丽叶式的禁忌爱情。

DISC INFO:

Disc Title:     Die.in.a.Gunfight.2021.1080p.BluRay.AVC.DTS-HD.MA.5.1-FGT
Disc Size:      33,545,850,103 bytes
Protection:     AACS
Extras:         BD-Java
BDInfo:         0.7.5.9 (compatible layout created by DVDFab 12.0.3.8)

PLAYLIST REPORT:

Name:                   00664.MPLS  
Length:                 1:32:16.572 (h:m:s.ms)
Size:                   28,908,693,504 bytes
Total Bitrate:          41.77 Mbps

VIDEO:

Codec                   Bitrate             Description     
-----                   -------             -----------     
MPEG-4 AVC Video        36116 kbps          1080p / 23.976 fps / 16:9 / High Profile 4.1

AUDIO:

Codec                           Language        Bitrate         Description     
-----                           --------        -------         -----------     
DTS-HD Master Audio             English         3310 kbps       5.1 / 48 kHz / 3310 kbps / 24-bit (DTS Core: 5.1 / 48 kHz / 1509 kbps / 24-bit)
Dolby Digital Audio             English         192 kbps        2.0 / 48 kHz / 192 kbps

SUBTITLES:

Codec                           Language        Bitrate         Description     
-----                           --------        -------         -----------     
Presentation Graphics           English         37.877 kbps                     
Presentation Graphics           Spanish         32.576 kbps



Video
ID : 1
ID in the original source medium : 4113 (0x1011)
Format : AVC
Format/Info : Advanced Video Codec
Format profile : [email protected]
Format settings : CABAC / 4 Ref Frames
Format settings, CABAC : Yes
Format settings, Reference frames : 4 frames
Codec ID : V_MPEG4/ISO/AVC
Duration : 1 h 32 min
Bit rate mode : Variable
Bit rate : 35.0 Mb/s
Maximum bit rate : 37.0 Mb/s
Width : 1 920 pixels
Height : 1 080 pixels
Display aspect ratio : 16:9
Frame rate mode : Constant
Frame rate : 23.976 (24000/1001) FPS
Color space : YUV
Chroma subsampling : 4:2:0
Bit depth : 8 bits
Scan type : Progressive
Bits/(Pixel*Frame) : 0.703
Stream size : 22.5 GiB (91%)
Language : English
Default : No
Forced : No
Original source medium : Blu-ray

Audio #1
ID : 2
ID in the original source medium : 4352 (0x1100)
Format : DTS XLL
Format/Info : Digital Theater Systems
Commercial name : DTS-HD Master Audio
Codec ID : A_DTS
Duration : 1 h 32 min
Bit rate mode : Variable
Bit rate : 3 310 kb/s
Channel(s) : 6 channels
Channel layout : C L R Ls Rs LFE
Sampling rate : 48.0 kHz
Frame rate : 93.750 FPS (512 SPF)
Bit depth : 24 bits
Compression mode : Lossless
Stream size : 2.13 GiB (9%)
Title : DTS-HD MA 5.1
Language : English
Default : Yes
Forced : No
Original source medium : Blu-ray

Audio #2
ID : 3
ID in the original source medium : 4353 (0x1101)
Format : AC-3
Format/Info : Audio Coding 3
Commercial name : Dolby Digital
Codec ID : A_AC3
Duration : 1 h 32 min
Bit rate mode : Constant
Bit rate : 192 kb/s
Channel(s) : 2 channels
Channel layout : L R
Sampling rate : 48.0 kHz
Frame rate : 31.250 FPS (1536 SPF)
Compression mode : Lossy
Stream size : 127 MiB (0%)
Title : DD 2.0
Language : English
Service kind : Complete Main
Default : No
Forced : No
Original source medium : Blu-ray

Text #1
ID : 4
Format : UTF-8
Codec ID : S_TEXT/UTF8
Codec ID/Info : UTF-8 Plain Text
Duration : 1 h 28 min
Bit rate : 56 b/s
Count of elements : 1142
Stream size : 36.6 KiB (0%)
Title : SRT
Language : English
Default : Yes
Forced : No

Text #2
ID : 5
ID in the original source medium : 4608 (0x1200)
Format : PGS
Muxing mode : zlib
Codec ID : S_HDMV/PGS
Codec ID/Info : Picture based subtitle format used on BDs/HD-DVDs
Duration : 1 h 28 min
Bit rate : 39.4 kb/s
Count of elements : 2558
Stream size : 25.0 MiB (0%)
Language : English
Default : No
Forced : No
Original source medium : Blu-ray

Text #3
ID : 6
ID in the original source medium : 4609 (0x1201)
Format : PGS
Muxing mode : zlib
Codec ID : S_HDMV/PGS
Codec ID/Info : Picture based subtitle format used on BDs/HD-DVDs
Duration : 1 h 31 min
Bit rate : 33.0 kb/s
Count of elements : 2144
Stream size : 21.5 MiB (0%)
Language : Spanish
Default : No
Forced : No
Original source medium : Blu-ray

Menu
00:00:00.000 : Chapter 01
00:03:25.663 : Chapter 02
00:13:18.631 : Chapter 03
00:16:12.638 : Chapter 04
00:24:09.281 : Chapter 05
00:28:33.169 : Chapter 06
00:35:19.992 : Chapter 07
00:38:37.898 : Chapter 08
00:44:13.108 : Chapter 09
00:47:35.185 : Chapter 10
00:55:41.463 : Chapter 11
00:58:39.724 : Chapter 12
01:02:52.477 : Chapter 13
01:08:55.798 : Chapter 14
01:13:28.362 : Chapter 15
01:22:39.162 : Chapter 16

本帖子中包含更多资源

您需要 登录 才可以下载或查看,没有帐号?立即注册

x
回复

使用道具 举报

0

主题

821

帖子

3960

积分

论坛元老

Rank: 8Rank: 8

积分
3960
发表于 2021-7-19 09:43:37 | 显示全部楼层
谢楼主的精彩分享!
回复

使用道具 举报

您需要登录后才可以回帖 登录 | 立即注册

本版积分规则

QQ|Archiver|手机版|小黑屋|原盘天堂 好多盘 点击这里给我发消息

GMT+8, 2021-7-27 18:52 , Processed in 0.060204 second(s), 25 queries .

Powered by Discuz! X3.4

Copyright © 2001-2020, Tencent Cloud.

快速回复 返回顶部 返回列表