请选择 进入手机版 | 继续访问电脑版
本站Q群713428235【盘盘多】已满,请新会员加原盘天堂新官方QQ群709708625【好多盘】,验证信息填写您在论坛的会员名,不填会员名的无法入群哈,进群后修改您的群名片名字为您在论坛的会员名,请务必修改,否则群成员多了不知道您是哪个会员。

原盘天堂

 找回密码
 立即注册
京东商城当当华为商城名牌时尚折扣网,一个新型的网上购物平台,我们每周为您精选3~4个国际知名品牌,商品折扣低至2折限时限量售卖,商品囊括时装、护肤品、箱包、皮具、配饰、香水等等,琳琅满目。亿格瑞A10硬盘播放器 苏宁易购
查看: 92|回复: 1

2d蓝光原盘bdmv 人之怒 英语原版 wrath.of.man.2021.1080p.bluray.avc.dts-hd.ma.5.1[37.88 GB]

[复制链接]

6152

主题

6859

帖子

133万

积分

管理员

Rank: 18Rank: 18Rank: 18Rank: 18Rank: 18

积分
1334984
发表于 2021-7-18 11:13:32 | 显示全部楼层 |阅读模式









◎译  名 人之怒/Cash Truck/玩命钞劫(台)/运钞车
◎片  名 Wrath of Man
◎年  代 2021
◎产  地 美国,英国
◎类  别 动作 / 犯罪
◎语  言 英语
◎上映日期 2021-04-22(俄罗斯) / 2021-05-07(美国) / 2021-05-10(中国大陆)
◎IMDb评分  7.2/10 from 75330 users
◎IMDb链接  https://www.imdb.com/title/tt11083552/
◎豆瓣评分 6.8/10 from 86642 users
◎豆瓣链接 https://movie.douban.com/subject/27046740/
◎片  长 118分钟
◎导  演 盖·里奇 Guy Ritchie
◎编  剧 尼古拉斯·布赫里夫 Nicolas Boukhrief / 艾瑞克·贝斯纳 Éric Besnard / 盖·里奇 Guy Ritchie / 马恩·戴维斯 Marn Davies / 伊凡·阿特金森 Ivan Atkinson
◎主  演 杰森·斯坦森 Jason Statham
       霍特·麦克卡兰尼 Holt McCallany
       罗奇·威廉姆斯 Rocci Williams
       乔什·哈奈特 Josh Hartnett
       杰弗里·多诺万 Jeffrey Donovan
       斯科特·伊斯特伍德 Scott Eastwood
       安迪·加西亚 Andy Garcia
       道比·欧帕瑞 Deobia Oparei
       拉兹·阿隆索 Laz Alonso
       劳尔·卡斯提洛 Raúl Castillo
       克里斯·雷利 Chris Reilly
       埃迪·马森 Eddie Marsan
       尼芙·阿尔格 Niamh Algar
       塔格·墨菲 Tadhg Murphy
       马克·阿诺德 Mark Arnold
       亚历克斯·费恩斯 Alex Ferns
       乔什·柯德雷 Josh Cowdery
       杰森·王 Jason Wong
       罗伯·德兰尼 Rob Delaney
       伊莱·布朗 Eli Brown
       凯瑞·莎勒 Kerry Shale
       卡梅伦·杰克 Cameron Jack
       达雷尔·席尔瓦 Darrell D'Silva
       巴布斯·奥卢桑莫昆 Babs Olusanmokun
       多米尼克·托马斯 Dominique Thomas
       琳·勒内 Lyne Renee
       蕾贝卡·卡尔德 Rebecca Calder
       伊芙·麦凯林 Eve Macklin
       詹姆斯·沃伦 James Warren
       史蒂威·戴维斯 Stevee Davies
       蒙塔娜·曼宁 Montana Manning
       安东尼·莫利纳利 Anthony Molinari
       波兹·马龙 Post Malone
       
       杰拉尔德·泰勒 Gerald Tyler

◎标  签 犯罪 | 动作 | 美国 | 2021 | 剧情 | 悬疑 | 英国 | 黑色幽默

◎简  介

  在一次全副武装的运钞车劫案中,梅斯先生(杰森·斯坦森 饰)的儿子作为案发目击者被劫匪杀害。怒火中烧的梅斯为报丧子之仇,化身H卧底成为运钞车安保,试图找出杀害他儿子的劫匪以及与劫匪暗中勾结的安保公司内鬼。

DISC INFO:

Disc Title:     Wrath.of.Man.2021.COMPLETE.BLURAY-iNTEGRUM
Disc Size:      40,671,501,081 bytes
Protection:     AACS
Extras:         BD-Java
BDInfo:         0.7.5.9 (compatible layout created by DVDFab 12.0.3.7)

PLAYLIST REPORT:

Name:                   00800.MPLS  
Length:                 1:58:56.629 (h:m:s.ms)
Size:                   40,061,042,688 bytes
Total Bitrate:          44.91 Mbps

VIDEO:

Codec                   Bitrate             Description     
-----                   -------             -----------     
MPEG-4 AVC Video        38337 kbps          1080p / 23.976 fps / 16:9 / High Profile 4.1

AUDIO:

Codec                           Language        Bitrate         Description     
-----                           --------        -------         -----------     
DTS-HD Master Audio             English         3673 kbps       5.1 / 48 kHz / 3673 kbps / 24-bit (DTS Core: 5.1 / 48 kHz / 1509 kbps / 24-bit)
Dolby Digital Audio             English         640 kbps        5.1 / 48 kHz / 640 kbps

SUBTITLES:

Codec                           Language        Bitrate         Description     
-----                           --------        -------         -----------     
Presentation Graphics           English         33.83 kbps   


Video
ID : 1
ID in the original source medium : 4113 (0x1011)
Format : AVC
Format/Info : Advanced Video Codec
Format profile : [email protected]
Format settings : CABAC / 4 Ref Frames
Format settings, CABAC : Yes
Format settings, Reference frames : 4 frames
Format settings, GOP : M=3, N=12
Codec ID : V_MPEG4/ISO/AVC
Duration : 1 h 58 min
Bit rate mode : Variable
Bit rate : 37.9 Mb/s
Maximum bit rate : 39.5 Mb/s
Width : 1 920 pixels
Height : 1 080 pixels
Display aspect ratio : 16:9
Frame rate mode : Constant
Frame rate : 23.976 (24000/1001) FPS
Color space : YUV
Chroma subsampling : 4:2:0
Bit depth : 8 bits
Scan type : Progressive
Bits/(Pixel*Frame) : 0.763
Stream size : 31.5 GiB (90%)
Language : English
Default : No
Forced : No
Original source medium : Blu-ray

Audio #1
ID : 2
ID in the original source medium : 4352 (0x1100)
Format : DTS XLL
Format/Info : Digital Theater Systems
Commercial name : DTS-HD Master Audio
Codec ID : A_DTS
Duration : 1 h 58 min
Bit rate mode : Variable
Bit rate : 3 673 kb/s
Channel(s) : 6 channels
Channel layout : C L R Ls Rs LFE
Sampling rate : 48.0 kHz
Frame rate : 93.750 FPS (512 SPF)
Bit depth : 24 bits
Compression mode : Lossless
Stream size : 3.05 GiB (9%)
Title : DTS-HD MA 5.1
Language : English
Default : Yes
Forced : No
Original source medium : Blu-ray

Audio #2
ID : 3
ID in the original source medium : 4353 (0x1101)
Format : AC-3
Format/Info : Audio Coding 3
Commercial name : Dolby Digital
Codec ID : A_AC3
Duration : 1 h 58 min
Bit rate mode : Constant
Bit rate : 640 kb/s
Channel(s) : 6 channels
Channel layout : L R C LFE Ls Rs
Sampling rate : 48.0 kHz
Frame rate : 31.250 FPS (1536 SPF)
Compression mode : Lossy
Stream size : 544 MiB (2%)
Title : DD 5.1
Language : English
Service kind : Complete Main
Default : No
Forced : No
Original source medium : Blu-ray

Text #1
ID : 4
Format : UTF-8
Codec ID : S_TEXT/UTF8
Codec ID/Info : UTF-8 Plain Text
Duration : 1 h 50 min
Bit rate : 55 b/s
Count of elements : 1402
Stream size : 45.3 KiB (0%)
Title : English-SRT
Language : English
Default : Yes
Forced : No

Text #2
ID : 5
ID in the original source medium : 4608 (0x1200)
Format : PGS
Muxing mode : zlib
Codec ID : S_HDMV/PGS
Codec ID/Info : Picture based subtitle format used on BDs/HD-DVDs
Duration : 1 h 51 min
Bit rate : 36.2 kb/s
Count of elements : 3020
Stream size : 28.8 MiB (0%)
Title : English-PGS
Language : English
Default : No
Forced : No
Original source medium : Blu-ray

Menu
00:00:00.000 : Chapter 01
00:05:55.563 : Chapter 02
00:13:08.120 : Chapter 03
00:19:51.523 : Chapter 04
00:29:30.435 : Chapter 05
00:38:33.227 : Chapter 06
00:47:33.684 : Chapter 07
00:55:34.998 : Chapter 08
01:02:41.299 : Chapter 09
01:10:36.106 : Chapter 10
01:19:03.530 : Chapter 11
01:25:57.819 : Chapter 12
01:34:15.358 : Chapter 13
01:44:04.988 : Chapter 14
01:53:04.444 : Chapter 15

本帖子中包含更多资源

您需要 登录 才可以下载或查看,没有帐号?立即注册

x
回复

使用道具 举报

0

主题

8

帖子

36

积分

新手上路

Rank: 1

积分
36
发表于 3 天前 | 显示全部楼层
这个就是掓得不 了得的呀
回复

使用道具 举报

您需要登录后才可以回帖 登录 | 立即注册

本版积分规则

QQ|Archiver|手机版|小黑屋|原盘天堂 好多盘 点击这里给我发消息

GMT+8, 2021-7-27 19:28 , Processed in 0.057442 second(s), 25 queries .

Powered by Discuz! X3.4

Copyright © 2001-2020, Tencent Cloud.

快速回复 返回顶部 返回列表