请选择 进入手机版 | 继续访问电脑版
本站Q群713428235【盘盘多】已满,请新会员加原盘天堂新官方QQ群709708625【好多盘】,验证信息填写您在论坛的会员名,不填会员名的无法入群哈,进群后修改您的群名片名字为您在论坛的会员名,请务必修改,否则群成员多了不知道您是哪个会员。

原盘天堂

 找回密码
 立即注册
京东商城当当华为商城名牌时尚折扣网,一个新型的网上购物平台,我们每周为您精选3~4个国际知名品牌,商品折扣低至2折限时限量售卖,商品囊括时装、护肤品、箱包、皮具、配饰、香水等等,琳琅满目。亿格瑞A10硬盘播放器 苏宁易购
查看: 72|回复: 2

4k蓝光原盘bdmv 摧花手 英语原版 the.bird.with.the.crystal.plumage.1970.italian.2160p.bluray.hevc.dts-hd.ma.1.0[82.02 GB]

[复制链接]

6152

主题

6859

帖子

133万

积分

管理员

Rank: 18Rank: 18Rank: 18Rank: 18Rank: 18

积分
1335008
发表于 2021-7-17 17:23:48 | 显示全部楼层 |阅读模式









◎译  名 摧花手/水晶鸟/Bird with the Glass Feathers/The Bird with the Crystal Plumage
◎片  名 L'uccello dalle piume di cristallo
◎年  代 1970
◎产  地 意大利/西德
◎类  别 悬疑/惊悚/恐怖
◎语  言 意大利语
◎上映日期 1970-02-19
◎IMDb链接  https://www.imdb.com/title/tt0065143/
◎豆瓣评分 6.8/10 from 770 users
◎豆瓣链接 https://douban.com/subject/1305981/
◎片  长 97分钟
◎导  演 达里奥·阿基多 Dario Argento
◎编  剧 达里奥·阿基多 Dario Argento
◎主  演 托尼·穆萨蒂 Tony Musante
       苏茜·肯道尔 Suzy Kendall
       恩里科·玛丽亚·萨莱诺 Enrico Maria Salerno
       埃娃·伦齐 Eva Renzi
       达里奥·阿基多 Dario Argento
       德罗热达·铎洛斯 Rosita Torosh
       卡拉·曼奇尼 Carla Mancini

◎标  签 意大利 | 悬疑 | 惊悚 | DarioArgento | 恐怖 | 1970 | 1970s | 意大利电影

◎简  介

  
  美国游客山姆隔着美术馆的玻璃窗,瞥见一宗企图谋杀,他的及时出现让凶手逃走了,获救的女子芳名莫尼卡。不久,山姆仿佛受了蛊惑似的对这宗谋杀着了迷,他决定追踪凶手的下落,这自然让他的女友朱丽娅很不快;而同时他和女友也开始接到威胁电话……
  

DISC INFO:

Disc Title:     The.Bird.with.the.Crystal.Plumage.1970.ITALIAN.2160p.BluRay.HEVC.DTS-HD.MA.1.0-TASTED
Disc Size:      88,053,120,593 bytes
Protection:     AACS2
Extras:         Ultra HD
BDInfo:         0.7.5.9 (compatible layout created by DVDFab 12.0.3.8)

PLAYLIST REPORT:

Name:                   00100.MPLS  
Length:                 1:36:44.465 (h:m:s.ms)
Size:                   66,070,892,544 bytes
Total Bitrate:          91.06 Mbps

(*) Indicates included stream hidden by this playlist.

VIDEO:

Codec                   Bitrate             Description     
-----                   -------             -----------     
MPEG-H HEVC Video       84441 kbps          2160p / 23.976 fps / 16:9 / Main 10 @ Level 5.1 @ High / 4:2:0 / 10 bits / 1000nits / HDR10 / BT.2020
* MPEG-H HEVC Video     79 kbps (0.09%)     1080p / 23.976 fps / 16:9 / Main 10 @ Level 5.1 @ High / 4:2:0 / 10 bits / 1000nits / Dolby Vision MEL / BT.2020

AUDIO:

Codec                           Language        Bitrate         Description     
-----                           --------        -------         -----------     
DTS-HD Master Audio             English         1036 kbps       1.0 / 48 kHz / 1036 kbps / 24-bit (DTS Core: 1.0 / 48 kHz / 768 kbps / 24-bit)
Dolby Digital Audio             English         192 kbps        2.0 / 48 kHz / 192 kbps
* DTS-HD Master Audio           Italian         1038 kbps       1.0 / 48 kHz / 1038 kbps / 24-bit (DTS Core: 1.0 / 48 kHz / 768 kbps / 24-bit)

SUBTITLES:

Codec                           Language        Bitrate         Description     
-----                           --------        -------         -----------     
Presentation Graphics           English         31.19 kbps                     
Presentation Graphics           English         0.207 kbps                     
* Presentation Graphics         English         27.612 kbps

Video
ID : 1
ID in the original source medium : 4113 (0x1011)
Format : HEVC
Format/Info : High Efficiency Video Coding
Format profile : Main [email protected]@High
HDR format : SMPTE ST 2086, HDR10 compatible
Codec ID : V_MPEGH/ISO/HEVC
Duration : 1 h 36 min
Bit rate : 84.4 Mb/s
Width : 3 840 pixels
Height : 2 160 pixels
Display aspect ratio : 16:9
Frame rate mode : Constant
Frame rate : 23.976 (24000/1001) FPS
Color space : YUV
Chroma subsampling : 4:2:0 (Type 2)
Bit depth : 10 bits
Bits/(Pixel*Frame) : 0.425
Stream size : 57.1 GiB (96%)
Language : English
Default : No
Forced : No
Color range : Limited
Color primaries : BT.2020
Transfer characteristics : PQ
Matrix coefficients : BT.2020 non-constant
Mastering display color primaries : BT.2020
Mastering display luminance : min: 0.0001 cd/m2, max: 1000 cd/m2
Original source medium : Blu-ray

Audio #1
ID : 2
ID in the original source medium : 4353 (0x1101)
Format : DTS XLL
Format/Info : Digital Theater Systems
Commercial name : DTS-HD Master Audio
Codec ID : A_DTS
Duration : 1 h 36 min
Bit rate mode : Variable
Bit rate : 1 038 kb/s
Channel(s) : 1 channel
Channel layout : C
Sampling rate : 48.0 kHz
Frame rate : 93.750 FPS (512 SPF)
Bit depth : 24 bits
Compression mode : Lossless
Stream size : 718 MiB (1%)
Title : DTS-HD MA 1.0
Language : Italian
Default : Yes
Forced : No
Original source medium : Blu-ray

Audio #2
ID : 3
Format : AC-3
Format/Info : Audio Coding 3
Commercial name : Dolby Digital
Codec ID : A_AC3
Duration : 1 h 36 min
Bit rate mode : Constant
Bit rate : 640 kb/s
Channel(s) : 1 channel
Channel layout : C
Sampling rate : 48.0 kHz
Frame rate : 31.250 FPS (1536 SPF)
Compression mode : Lossy
Stream size : 443 MiB (1%)
Title : DD 1.0
Language : Italian
Service kind : Complete Main
Default : No
Forced : No

Audio #3
ID : 4
ID in the original source medium : 4352 (0x1100)
Format : DTS XLL
Format/Info : Digital Theater Systems
Commercial name : DTS-HD Master Audio
Codec ID : A_DTS
Duration : 1 h 36 min
Bit rate mode : Variable
Bit rate : 1 036 kb/s
Channel(s) : 1 channel
Channel layout : C
Sampling rate : 48.0 kHz
Frame rate : 93.750 FPS (512 SPF)
Bit depth : 16 bits
Compression mode : Lossless
Stream size : 717 MiB (1%)
Title : DTS-HD MA 1.0
Language : English
Default : No
Forced : No
Original source medium : Blu-ray

Audio #4
ID : 5
Format : AC-3
Format/Info : Audio Coding 3
Commercial name : Dolby Digital
Codec ID : A_AC3
Duration : 1 h 36 min
Bit rate mode : Constant
Bit rate : 640 kb/s
Channel(s) : 1 channel
Channel layout : C
Sampling rate : 48.0 kHz
Frame rate : 31.250 FPS (1536 SPF)
Compression mode : Lossy
Stream size : 443 MiB (1%)
Title : DD 1.0
Language : English
Service kind : Complete Main
Default : No
Forced : No

Audio #5
ID : 6
ID in the original source medium : 4354 (0x1102)
Format : AC-3
Format/Info : Audio Coding 3
Commercial name : Dolby Digital
Codec ID : A_AC3
Duration : 1 h 36 min
Bit rate mode : Constant
Bit rate : 192 kb/s
Channel(s) : 2 channels
Channel layout : L R
Sampling rate : 48.0 kHz
Frame rate : 31.250 FPS (1536 SPF)
Compression mode : Lossy
Stream size : 133 MiB (0%)
Title : DD 2.0
Language : English
Service kind : Complete Main
Default : No
Forced : No
Original source medium : Blu-ray

Text #1
ID : 7
Format : UTF-8
Codec ID : S_TEXT/UTF8
Codec ID/Info : UTF-8 Plain Text
Duration : 1 h 34 min
Bit rate : 44 b/s
Count of elements : 885
Stream size : 31.2 KiB (0%)
Title : English-for-Italian-SRT
Language : English
Default : Yes
Forced : No

Text #2
ID : 8
Format : UTF-8
Codec ID : S_TEXT/UTF8
Codec ID/Info : UTF-8 Plain Text
Duration : 1 h 32 min
Bit rate : 49 b/s
Count of elements : 958
Stream size : 33.7 KiB (0%)
Title : English-for-DUB-SRT
Language : English
Default : No
Forced : No

Text #3
ID : 9
Format : UTF-8
Codec ID : S_TEXT/UTF8
Codec ID/Info : UTF-8 Plain Text
Duration : 18 min 32 s
Bit rate : 1 b/s
Count of elements : 4
Stream size : 182 Bytes (0%)
Title : English-FORCED-SRT
Language : English
Default : No
Forced : No

Text #4
ID : 10
ID in the original source medium : 4769 (0x12A1)
Format : PGS
Muxing mode : zlib
Codec ID : S_HDMV/PGS
Codec ID/Info : Picture based subtitle format used on BDs/HD-DVDs
Duration : 1 h 34 min
Bit rate : 28.2 kb/s
Count of elements : 1774
Stream size : 19.1 MiB (0%)
Title : English-For-Italian-PGS
Language : English
Default : No
Forced : No
Original source medium : Blu-ray

Text #5
ID : 11
ID in the original source medium : 4768 (0x12A0)
Format : PGS
Muxing mode : zlib
Codec ID : S_HDMV/PGS
Codec ID/Info : Picture based subtitle format used on BDs/HD-DVDs
Duration : 1 h 34 min
Bit rate : 31.9 kb/s
Count of elements : 2136
Stream size : 21.6 MiB (0%)
Title : English-For-DUB-PGS
Language : English
Default : No
Forced : No
Original source medium : Blu-ray

Text #6
ID : 12
ID in the original source medium : 4770 (0x12A2)
Format : PGS
Muxing mode : zlib
Codec ID : S_HDMV/PGS
Codec ID/Info : Picture based subtitle format used on BDs/HD-DVDs
Duration : 1 h 32 min
Bit rate : 216 b/s
Count of elements : 10
Stream size : 147 KiB (0%)
Title : English-FORCED-PGS
Language : English
Default : No
Forced : No
Original source medium : Blu-ray

Menu
00:00:00.000 : Chapter 01
00:08:15.912 : Chapter 02
00:16:20.104 : Chapter 03
00:22:09.411 : Chapter 04
00:29:16.379 : Chapter 05
00:41:34.158 : Chapter 06
00:48:05.465 : Chapter 07
00:56:04.736 : Chapter 08
01:05:43.022 : Chapter 09
01:13:20.646 : Chapter 10
01:19:47.824 : Chapter 11
01:30:20.206 : Chapter 12

本帖子中包含更多资源

您需要 登录 才可以下载或查看,没有帐号?立即注册

x
回复

使用道具 举报

0

主题

482

帖子

2548

积分

金牌会员

Rank: 6Rank: 6

积分
2548
发表于 2021-7-18 17:58:31 | 显示全部楼层
感谢楼主无私奉献
回复

使用道具 举报

0

主题

60

帖子

240

积分

中级会员

Rank: 3Rank: 3

积分
240
发表于 5 天前 | 显示全部楼层
非常感谢分享,辛苦了!
回复

使用道具 举报

您需要登录后才可以回帖 登录 | 立即注册

本版积分规则

QQ|Archiver|手机版|小黑屋|原盘天堂 好多盘 点击这里给我发消息

GMT+8, 2021-7-27 20:35 , Processed in 0.060858 second(s), 24 queries .

Powered by Discuz! X3.4

Copyright © 2001-2020, Tencent Cloud.

快速回复 返回顶部 返回列表