请选择 进入手机版 | 继续访问电脑版
本站Q群713428235【盘盘多】已满,请新会员加原盘天堂新官方QQ群709708625【好多盘】,验证信息填写您在论坛的会员名,不填会员名的无法入群哈,进群后修改您的群名片名字为您在论坛的会员名,请务必修改,否则群成员多了不知道您是哪个会员。

原盘天堂

 找回密码
 立即注册
京东商城当当华为商城名牌时尚折扣网,一个新型的网上购物平台,我们每周为您精选3~4个国际知名品牌,商品折扣低至2折限时限量售卖,商品囊括时装、护肤品、箱包、皮具、配饰、香水等等,琳琅满目。亿格瑞A10硬盘播放器 苏宁易购
查看: 119|回复: 5

2d蓝光原盘bdmv 征途 国语中字 double.world.2020.chinese.1080p.bluray.avc.dts-hd.ma.5.1[32.05 GB]

[复制链接]

6152

主题

6859

帖子

133万

积分

管理员

Rank: 18Rank: 18Rank: 18Rank: 18Rank: 18

积分
1335000
发表于 2021-7-10 18:06:43 | 显示全部楼层 |阅读模式







◎译  名 Double World
◎片  名 征途
◎年  代 2020
◎产  地 中国大陆
◎类  别 动作/奇幻/冒险
◎语  言 汉语普通话
◎上映日期 2020-07-24(中国大陆网络)
◎IMDb链接  https://www.imdb.com/title/tt10508838/
◎豆瓣评分 5.1/10 from 20868 users
◎豆瓣链接 https://douban.com/subject/26705567/
◎片  长 110分钟
◎导  演 陈德森 Teddy Chan
◎编  剧 刘奋斗 Fendou Liu / 文宁 Ning Wen
◎主  演 刘宪华 Henry Lau
       何润东 Peter Ho
       林辰涵 Chenhan Lin
       蒋璐霞 Luxia Jiang
       罗子溢 Chung Him Law
       胡明 Ming Hu
       许明虎 Tiger Xu
       郑浩南 Mark Cheng
       施诗 Shi Shi
       张宁江 Ningjiang Zhang
       王延龙 Yanlong Wang
       杜晓帆 Xiaofan Du
       李熙瑜 Xiyu Li
       李熙蕾 Xilei Li
       许翔 Xiang Xu
       陈奕名 Yiming Chen
       艾米 Aimee
       都桂宇 Guiyu Du

◎标  签 游戏改编 | 中国 | 动作 | 奇幻 | 古装 | 魔幻 | 3D | 冒险

◎简  介

  
  故事发生在虚构的中原大陆。十国之中,南赵国与北燕国比邻而居。为了防御日益强大的北燕,南赵举办比武大会,选拔将才。消息传到偏僻的清源村,村民东一龙想成为家族的举旗人,代表清源村家族出赛,村民们却质疑他的资格,经过一番努力,一龙终于踏上了与武士楚魂的征途……
  

◎获奖情况

  第39届香港电影金像奖  (2020)
  最佳动作设计(提名) 董玮
  最佳视觉效果(提名) 李帅 / 魏明 / 徐建

DISC INFO:

Disc Title:     Double.World.2020.CHINESE.1080p.BluRay.AVC.DTS-HD.MA.5.1-FGT
Disc Size:      34,417,187,020 bytes
Protection:     AACS
BDInfo:         0.7.5.9 (compatible layout created by DVDFab 12.0.3.6)

PLAYLIST REPORT:

Name:                   00002.MPLS  
Length:                 1:50:07.767 (h:m:s.ms)
Size:                   33,880,786,944 bytes
Total Bitrate:          41.02 Mbps

VIDEO:

Codec                   Bitrate             Description     
-----                   -------             -----------     
MPEG-4 AVC Video        34982 kbps          1080p / 23.976 fps / 16:9 / High Profile 4.1

AUDIO:

Codec                           Language        Bitrate         Description     
-----                           --------        -------         -----------     
DTS-HD Master Audio             Chinese         3950 kbps       5.1 / 48 kHz / 3950 kbps / 24-bit (DTS Core: 5.1 / 48 kHz / 1509 kbps / 24-bit)

SUBTITLES:

Codec                           Language        Bitrate         Description     
-----                           --------        -------         -----------     
Presentation Graphics           Korean          16.761 kbps                     
Presentation Graphics           English         25.523 kbps                     
Presentation Graphics           Chinese         14.645 kbps                     
Presentation Graphics           Chinese         14.531 kbps  

Video
ID : 1
ID in the original source medium : 4113 (0x1011)
Format : AVC
Format/Info : Advanced Video Codec
Format profile : [email protected]
Format settings : CABAC / 4 Ref Frames
Format settings, CABAC : Yes
Format settings, Reference frames : 4 frames
Codec ID : V_MPEG4/ISO/AVC
Duration : 1 h 50 min
Bit rate mode : Variable
Bit rate : 35.0 Mb/s
Maximum bit rate : 40.0 Mb/s
Width : 1 920 pixels
Height : 1 080 pixels
Display aspect ratio : 16:9
Frame rate mode : Constant
Frame rate : 23.976 (24000/1001) FPS
Standard : NTSC
Color space : YUV
Chroma subsampling : 4:2:0
Bit depth : 8 bits
Scan type : Progressive
Bits/(Pixel*Frame) : 0.704
Stream size : 26.9 GiB (90%)
Language : English
Default : No
Forced : No
Color range : Limited
Color primaries : BT.709
Transfer characteristics : BT.709
Matrix coefficients : BT.709
Original source medium : Blu-ray

Audio
ID : 2
ID in the original source medium : 4352 (0x1100)
Format : DTS XLL
Format/Info : Digital Theater Systems
Commercial name : DTS-HD Master Audio
Codec ID : A_DTS
Duration : 1 h 50 min
Bit rate mode : Variable
Bit rate : 3 950 kb/s
Channel(s) : 6 channels
Channel layout : C L R Ls Rs LFE
Sampling rate : 48.0 kHz
Frame rate : 93.750 FPS (512 SPF)
Bit depth : 24 bits
Compression mode : Lossless
Stream size : 3.04 GiB (10%)
Title : DTS-HD MA 5.1
Language : Chinese
Default : Yes
Forced : No
Original source medium : Blu-ray

Text #1
ID : 3
Format : UTF-8
Codec ID : S_TEXT/UTF8
Codec ID/Info : UTF-8 Plain Text
Duration : 1 h 43 min
Bit rate : 34 b/s
Count of elements : 993
Stream size : 26.3 KiB (0%)
Title : SRT
Language : English
Default : Yes
Forced : No

Text #2
ID : 4
ID in the original source medium : 4608 (0x1200)
Format : PGS
Muxing mode : zlib
Codec ID : S_HDMV/PGS
Codec ID/Info : Picture based subtitle format used on BDs/HD-DVDs
Duration : 1 h 43 min
Bit rate : 17.8 kb/s
Count of elements : 1997
Stream size : 13.2 MiB (0%)
Language : Korean
Default : Yes
Forced : No
Original source medium : Blu-ray

Text #3
ID : 5
ID in the original source medium : 4609 (0x1201)
Format : PGS
Muxing mode : zlib
Codec ID : S_HDMV/PGS
Codec ID/Info : Picture based subtitle format used on BDs/HD-DVDs
Duration : 1 h 43 min
Bit rate : 27.1 kb/s
Count of elements : 1992
Stream size : 20.1 MiB (0%)
Language : English
Default : No
Forced : No
Original source medium : Blu-ray

Text #4
ID : 6
ID in the original source medium : 4610 (0x1202)
Format : PGS
Muxing mode : zlib
Codec ID : S_HDMV/PGS
Codec ID/Info : Picture based subtitle format used on BDs/HD-DVDs
Duration : 1 h 43 min
Bit rate : 15.7 kb/s
Count of elements : 2049
Stream size : 11.5 MiB (0%)
Language : Chinese
Default : No
Forced : No
Original source medium : Blu-ray

Text #5
ID : 7
ID in the original source medium : 4611 (0x1203)
Format : PGS
Muxing mode : zlib
Codec ID : S_HDMV/PGS
Codec ID/Info : Picture based subtitle format used on BDs/HD-DVDs
Duration : 1 h 43 min
Bit rate : 15.4 kb/s
Count of elements : 1968
Stream size : 11.4 MiB (0%)
Language : Chinese
Default : No
Forced : No
Original source medium : Blu-ray

Menu
00:00:00.000 : ko:Chapter 01
00:09:33.531 : ko:Chapter 02
00:18:43.997 : ko:Chapter 03
00:25:19.059 : ko:Chapter 04
00:37:15.816 : ko:Chapter 05
00:46:59.483 : ko:Chapter 06
00:58:39.224 : ko:Chapter 07
01:09:38.007 : ko:Chapter 08
01:18:31.164 : ko:Chapter 09
01:26:14.836 : ko:Chapter 10
01:34:20.237 : ko:Chapter 11
01:42:04.034 : ko:Chapter 12

本帖子中包含更多资源

您需要 登录 才可以下载或查看,没有帐号?立即注册

x
回复

使用道具 举报

0

主题

60

帖子

240

积分

中级会员

Rank: 3Rank: 3

积分
240
发表于 2021-7-11 00:56:44 | 显示全部楼层
感谢楼主分享佳片
回复

使用道具 举报

0

主题

60

帖子

240

积分

中级会员

Rank: 3Rank: 3

积分
240
发表于 2021-7-11 00:58:01 | 显示全部楼层
感谢楼主分享佳片
回复

使用道具 举报

0

主题

325

帖子

3371

积分

论坛元老

Rank: 8Rank: 8

积分
3371
发表于 2021-7-11 16:59:15 | 显示全部楼层
感谢楼主分享佳片
回复

使用道具 举报

0

主题

482

帖子

2548

积分

金牌会员

Rank: 6Rank: 6

积分
2548
发表于 2021-7-11 17:37:20 | 显示全部楼层
支持发布,放谢分享
回复

使用道具 举报

0

主题

12

帖子

86

积分

注册会员

Rank: 2

积分
86
发表于 2021-7-13 09:26:42 | 显示全部楼层
影片不是很精彩
回复

使用道具 举报

您需要登录后才可以回帖 登录 | 立即注册

本版积分规则

QQ|Archiver|手机版|小黑屋|原盘天堂 好多盘 点击这里给我发消息

GMT+8, 2021-7-27 20:17 , Processed in 0.064538 second(s), 25 queries .

Powered by Discuz! X3.4

Copyright © 2001-2020, Tencent Cloud.

快速回复 返回顶部 返回列表