请选择 进入手机版 | 继续访问电脑版
本站Q群713428235【盘盘多】已满,请新会员加原盘天堂新官方QQ群709708625【好多盘】,验证信息填写您在论坛的会员名,不填会员名的无法入群哈,进群后修改您的群名片名字为您在论坛的会员名,请务必修改,否则群成员多了不知道您是哪个会员。

原盘天堂

 找回密码
 立即注册
京东商城当当华为商城名牌时尚折扣网,一个新型的网上购物平台,我们每周为您精选3~4个国际知名品牌,商品折扣低至2折限时限量售卖,商品囊括时装、护肤品、箱包、皮具、配饰、香水等等,琳琅满目。亿格瑞A10硬盘播放器 苏宁易购
查看: 114|回复: 4

4k蓝光原盘bdmv 天降神兵 英语原版 howard.the.duck.1986.2160p.bluray.hevc.dts-x.7.1[60.53 GB]

[复制链接]

6152

主题

6859

帖子

133万

积分

管理员

Rank: 18Rank: 18Rank: 18Rank: 18Rank: 18

积分
1334992
发表于 2021-7-8 21:48:45 | 显示全部楼层 |阅读模式









◎译  名 天降神兵/霍华德怪鸭/霍华德鸭子/天将神兵
◎片  名 Howard the Duck
◎年  代 1986
◎产  地 美国
◎类  别 喜剧/动作/爱情/科幻/冒险
◎语  言 英语
◎上映日期 1986-08-01(美国)
◎IMDb链接  https://www.imdb.com/title/tt0091225/
◎豆瓣评分 6.1/10 from 432 users
◎豆瓣链接 https://douban.com/subject/1295641/
◎片  长 110 分钟
◎导  演 威拉德·赫依克 Willard Huyck
◎编  剧 史蒂夫·格伯 Steve Gerber / 威拉德·赫依克 Willard Huyck / 格洛丽亚·卡茨 Gloria Katz
◎主  演 莉·汤普森 Lea Thompson
       杰弗瑞·琼斯 Jeffrey Jones
       蒂姆·罗宾斯 Tim Robbins
       艾迪·盖尔 Ed Gale
       奇普·兹恩 Chip Zien
       蒂姆·罗斯 Tim Rose
       乔丹·普林蒂斯 Jordan Prentice
       保罗·吉尔福伊尔 Paul Guilfoyle
       Liz Sagal Liz Sagal
       Dominique Davalos Dominique Davalos
       霍利·罗宾森·皮特 Holly Robinson Peete
       汤米·斯威德洛 Tommy Swerdlow
       理查德·埃德森 Richard Edson
       Miles Chapin Miles Chapin
       理查德·麦克格纳格尔 Richard McGonagle
       弗吉尼亚·卡珀斯 Virginia Capers
       黛比·李·卡林顿 Debbie Lee Carrington
       米盖尔·桑多瓦尔 Miguel Sandoval
       保罗.康尼 Paul Comi
       大卫·佩默 David Paymer
       Thomas Dolby Thomas Dolby
       克里斯托弗·洛根 Kristopher Logan
       约翰·弗利克 John Fleck
       Steven Kravitz Steven Kravitz
       南茜·费什 Nancy Fish
       理查德·基利 Richard Kiley
       梅尔·布兰科 Mel Blanc
       C. Andrew Nelson C. Andrew Nelson
       詹姆斯·奥里亚 James Olea

◎标  签 科幻 | 美国 | 喜剧 | 1986 | Marvel | 漫威 | 美国电影 | 漫画改编

◎简  介

  
  地球研究所向太空发离子光束,不料却把其它星球的动物及妖魔吸到地球来,最后还是透过星际鸭人把妖魔给打败。

DISC INFO:

Disc Title:     Howard.the.Duck.1986.COMPLETE.UHD.BLURAY-B0MBARDiERS
Disc Size:      64,991,758,735 bytes
Protection:     AACS2
Extras:         Ultra HD, BD-Java
BDInfo:         0.7.5.9 (compatible layout created by DVDFab 12.0.3.6)

PLAYLIST REPORT:

Name:                   00800.MPLS  
Length:                 1:50:26.619 (h:m:s.ms)
Size:                   58,835,877,888 bytes
Total Bitrate:          71.03 Mbps

VIDEO:

Codec                   Bitrate             Description     
-----                   -------             -----------     
MPEG-H HEVC Video       59718 kbps          2160p / 23.976 fps / 16:9 / Main 10 @ Level 5.1 @ High / 4:2:0 / 10 bits / 1000nits / HDR10 / BT.2020

AUDIO:

Codec                           Language        Bitrate         Description     
-----                           --------        -------         -----------     
DTS:X Master Audio              English         6266 kbps       7.1-X / 48 kHz / 6266 kbps / 24-bit (DTS Core: 5.1 / 48 kHz / 1509 kbps / 24-bit)
DTS Audio                       Spanish         768 kbps        2.0 / 48 kHz / 768 kbps / 24-bit
DTS Audio                       French          768 kbps        2.0 / 48 kHz / 768 kbps / 24-bit

SUBTITLES:

Codec                           Language        Bitrate         Description     
-----                           --------        -------         -----------     
Presentation Graphics           English         45.799 kbps                     
Presentation Graphics           Spanish         37.62 kbps                     
Presentation Graphics           French          39.458 kbps                     
Presentation Graphics           Spanish         0.636 kbps                     
Presentation Graphics           French          0.658 kbps   

Video
ID : 1
ID in the original source medium : 4113 (0x1011)
Format : HEVC
Format/Info : High Efficiency Video Coding
Format profile : Main [email protected]@High
HDR format : SMPTE ST 2086, HDR10 compatible
Codec ID : V_MPEGH/ISO/HEVC
Duration : 1 h 50 min
Bit rate : 59.7 Mb/s
Width : 3 840 pixels
Height : 2 160 pixels
Display aspect ratio : 16:9
Frame rate mode : Constant
Frame rate : 23.976 (24000/1001) FPS
Color space : YUV
Chroma subsampling : 4:2:0 (Type 2)
Bit depth : 10 bits
Bits/(Pixel*Frame) : 0.300
Stream size : 46.1 GiB (88%)
Language : English
Default : No
Forced : No
Color range : Limited
Color primaries : BT.2020
Transfer characteristics : PQ
Matrix coefficients : BT.2020 non-constant
Mastering display color primaries : Display P3
Mastering display luminance : min: 0.0050 cd/m2, max: 1000 cd/m2
Maximum Content Light Level : 1000 cd/m2
Maximum Frame-Average Light Level : 166 cd/m2
Original source medium : Blu-ray

Audio #1
ID : 2
ID in the original source medium : 4352 (0x1100)
Format : DTS XLL X
Format/Info : Digital Theater Systems
Commercial name : DTS-HD Master Audio
Codec ID : A_DTS
Duration : 1 h 50 min
Bit rate mode : Variable
Bit rate : 6 266 kb/s
Channel(s) : 8 channels
Channel(s)_Original : Object Based
ChannelLayout_Original : Object Based
Sampling rate : 48.0 kHz
Frame rate : 93.750 FPS (512 SPF)
Bit depth : 24 bits
Stream size : 4.83 GiB (9%)
Title : DTS-X 7.1
Language : English
Default : Yes
Forced : No
Original source medium : Blu-ray

Audio #2
ID : 3
Format : AC-3
Format/Info : Audio Coding 3
Commercial name : Dolby Digital
Codec ID : A_AC3
Duration : 1 h 50 min
Bit rate mode : Constant
Bit rate : 640 kb/s
Channel(s) : 6 channels
Channel layout : L R C LFE Ls Rs
Sampling rate : 48.0 kHz
Frame rate : 31.250 FPS (1536 SPF)
Compression mode : Lossy
Stream size : 506 MiB (1%)
Title : DD 5.1
Language : English
Service kind : Complete Main
Default : No
Forced : No

Audio #3
ID : 4
ID in the original source medium : 4353 (0x1101)
Format : DTS
Format/Info : Digital Theater Systems
Codec ID : A_DTS
Duration : 1 h 50 min
Bit rate mode : Constant
Bit rate : 768 kb/s
Channel(s) : 2 channels
Channel layout : Lt Rt
Sampling rate : 48.0 kHz
Frame rate : 93.750 FPS (512 SPF)
Bit depth : 24 bits
Compression mode : Lossy
Stream size : 607 MiB (1%)
Title : DTS 2.0
Language : Spanish
Default : No
Forced : No
Original source medium : Blu-ray

Audio #4
ID : 5
ID in the original source medium : 4354 (0x1102)
Format : DTS
Format/Info : Digital Theater Systems
Codec ID : A_DTS
Duration : 1 h 50 min
Bit rate mode : Constant
Bit rate : 768 kb/s
Channel(s) : 2 channels
Channel layout : Lt Rt
Sampling rate : 48.0 kHz
Frame rate : 93.750 FPS (512 SPF)
Bit depth : 24 bits
Compression mode : Lossy
Stream size : 607 MiB (1%)
Title : DTS 2.0
Language : French
Default : No
Forced : No
Original source medium : Blu-ray

Text #1
ID : 6
Format : UTF-8
Codec ID : S_TEXT/UTF8
Codec ID/Info : UTF-8 Plain Text
Duration : 1 h 44 min
Bit rate : 60 b/s
Count of elements : 1209
Stream size : 46.5 KiB (0%)
Title : SRT
Language : English
Default : Yes
Forced : No

Text #2
ID : 7
ID in the original source medium : 4768 (0x12A0)
Format : PGS
Muxing mode : zlib
Codec ID : S_HDMV/PGS
Codec ID/Info : Picture based subtitle format used on BDs/HD-DVDs
Duration : 1 h 44 min
Bit rate : 48.5 kb/s
Count of elements : 4135
Stream size : 36.2 MiB (0%)
Language : English
Default : No
Forced : No
Original source medium : Blu-ray

Text #3
ID : 8
ID in the original source medium : 4769 (0x12A1)
Format : PGS
Muxing mode : zlib
Codec ID : S_HDMV/PGS
Codec ID/Info : Picture based subtitle format used on BDs/HD-DVDs
Duration : 1 h 49 min
Bit rate : 38.1 kb/s
Count of elements : 2810
Stream size : 29.7 MiB (0%)
Language : Spanish
Default : No
Forced : No
Original source medium : Blu-ray

Text #4
ID : 9
ID in the original source medium : 4770 (0x12A2)
Format : PGS
Muxing mode : zlib
Codec ID : S_HDMV/PGS
Codec ID/Info : Picture based subtitle format used on BDs/HD-DVDs
Duration : 1 h 49 min
Bit rate : 39.9 kb/s
Count of elements : 2930
Stream size : 31.2 MiB (0%)
Language : French
Default : No
Forced : No
Original source medium : Blu-ray

Text #5
ID : 10
ID in the original source medium : 4771 (0x12A3)
Format : PGS
Muxing mode : zlib
Codec ID : S_HDMV/PGS
Codec ID/Info : Picture based subtitle format used on BDs/HD-DVDs
Duration : 1 h 48 min
Bit rate : 645 b/s
Count of elements : 52
Stream size : 514 KiB (0%)
Title : FORCED
Language : Spanish
Default : No
Forced : No
Original source medium : Blu-ray

Text #6
ID : 11
ID in the original source medium : 4772 (0x12A4)
Format : PGS
Muxing mode : zlib
Codec ID : S_HDMV/PGS
Codec ID/Info : Picture based subtitle format used on BDs/HD-DVDs
Duration : 1 h 49 min
Bit rate : 666 b/s
Count of elements : 51
Stream size : 532 KiB (0%)
Title : FORCED
Language : French
Default : No
Forced : No
Original source medium : Blu-ray

Menu
00:00:00.000 : Chapter 01
00:06:19.587 : Chapter 02
00:13:56.961 : Chapter 03
00:20:13.212 : Chapter 04
00:27:32.025 : Chapter 05
00:32:08.968 : Chapter 06
00:37:34.710 : Chapter 07
00:44:27.831 : Chapter 08
00:48:24.443 : Chapter 09
00:55:36.041 : Chapter 10
01:04:02.421 : Chapter 11
01:13:03.545 : Chapter 12
01:19:34.311 : Chapter 13
01:26:40.612 : Chapter 14
01:32:55.653 : Chapter 15
01:37:23.462 : Chapter 16
01:42:40.988 : Chapter 17
01:46:07.652 : Chapter 18 

本帖子中包含更多资源

您需要 登录 才可以下载或查看,没有帐号?立即注册

x
回复

使用道具 举报

0

主题

3

帖子

17

积分

新手上路

Rank: 1

积分
17
发表于 2021-7-10 14:18:24 | 显示全部楼层
新手上路
回复

使用道具 举报

0

主题

482

帖子

2548

积分

金牌会员

Rank: 6Rank: 6

积分
2548
发表于 2021-7-10 17:34:27 | 显示全部楼层
感谢分享感谢
回复

使用道具 举报

0

主题

821

帖子

3960

积分

论坛元老

Rank: 8Rank: 8

积分
3960
发表于 2021-7-13 10:51:34 | 显示全部楼层
楼主多发精品好帖
回复

使用道具 举报

0

主题

60

帖子

240

积分

中级会员

Rank: 3Rank: 3

积分
240
发表于 2021-7-16 16:28:56 | 显示全部楼层
感谢楼主分享佳片!!
回复

使用道具 举报

您需要登录后才可以回帖 登录 | 立即注册

本版积分规则

QQ|Archiver|手机版|小黑屋|原盘天堂 好多盘 点击这里给我发消息

GMT+8, 2021-7-27 20:09 , Processed in 0.063851 second(s), 24 queries .

Powered by Discuz! X3.4

Copyright © 2001-2020, Tencent Cloud.

快速回复 返回顶部 返回列表