请选择 进入手机版 | 继续访问电脑版
本站Q群713428235【盘盘多】已满,请新会员加原盘天堂新官方QQ群709708625【好多盘】,验证信息填写您在论坛的会员名,不填会员名的无法入群哈,进群后修改您的群名片名字为您在论坛的会员名,请务必修改,否则群成员多了不知道您是哪个会员。

原盘天堂

 找回密码
 立即注册
京东商城当当华为商城名牌时尚折扣网,一个新型的网上购物平台,我们每周为您精选3~4个国际知名品牌,商品折扣低至2折限时限量售卖,商品囊括时装、护肤品、箱包、皮具、配饰、香水等等,琳琅满目。亿格瑞A10硬盘播放器 苏宁易购
查看: 123|回复: 2

4k蓝光原盘bdmv 盖棺了结 英语原版 dead.and.buried.1981.2160p.bluray.hevc.truehd.7.1.atmos[91.74 GB]

[复制链接]

6152

主题

6859

帖子

133万

积分

管理员

Rank: 18Rank: 18Rank: 18Rank: 18Rank: 18

积分
1335008
发表于 2021-7-7 18:40:15 | 显示全部楼层 |阅读模式









◎译  名 盖棺了结/死并且快乐着/死亡埋葬
◎片  名 Dead & Buried
◎年  代 1981
◎产  地 美国
◎类  别 悬疑/惊悚/恐怖
◎语  言 英语
◎上映日期 1981-05-29
◎IMDb链接  https://www.imdb.com/title/tt0082242/
◎豆瓣评分 6.9/10 from 1444 users
◎豆瓣链接 https://douban.com/subject/1302500/
◎片  长 94 分钟
◎导  演 盖瑞·谢尔曼 Gary Sherman / 加里·雪曼 Gary Sherman
◎编  剧 亚历克斯·斯特恩 Alex Stern / 丹·欧班农 Dan O'Bannon / 罗纳德·舒塞特 Ronald Shusett
◎主  演 詹姆斯·法伦蒂洛 James Farentino
       梅乐蒂·安德森 Melody Anderson
       杰克·艾伯森 Jack Albertson
       丹尼斯·雷德菲尔德 Dennis Redfield
       丽萨·布伦特 Lisa Blount
       罗伯特·英格兰德 Robert Englund

◎标  签 恐怖 | 美国 | 悬疑 | 惊悚 | 美国电影 | 1981 | 血腥 | 1980s

◎简  介

  
  罗德岛附近的某海滨小镇,风景如画,舒适宜人,引得四方游客前来度假。但这里似乎却隐藏着不为人知的秘密。来此度假的游客或暂居此地的居民起初会受到热情款待,然而不久后他们便被残忍杀掉。更为恐怖的是,这些已经死去的人随后会再次出现岛上,以主人的身份笑迎八方宾朋。
  
  地方官丹•吉尔斯(James Farentino 饰)的妻子珍妮(lody Anderson 饰)也是这一系列奇怪事件的牺牲者,他决心查清事实真相。很快他便注意到,在一片肃杀的气氛中,似乎只有从事殡葬业务的威廉姆(Jack Albertson 饰)甚为高兴。威廉姆和奇怪事件是否有所联系?其背后的真相又将如何?
  

DISC INFO:

Disc Title:     Dead.and.Buried.1981.2160p.BluRay.HEVC.TrueHD.7.1.Atmos-TASTED
Disc Size:      98,230,990,931 bytes
Protection:     AACS2
Extras:         Ultra HD, BD-Java
BDInfo:         0.7.5.9 (compatible layout created by DVDFab 12.0.3.6)

PLAYLIST REPORT:

Name:                   00000.MPLS  
Length:                 1:34:00.134 (h:m:s.ms)
Size:                   69,400,719,360 bytes
Total Bitrate:          98.44 Mbps

(*) Indicates included stream hidden by this playlist.

VIDEO:

Codec                   Bitrate             Description     
-----                   -------             -----------     
MPEG-H HEVC Video       76496 kbps          2160p / 23.976 fps / 16:9 / Main 10 @ Level 5.1 @ High / 4:2:0 / 10 bits / 1000nits / HDR10 / BT.2020
* MPEG-H HEVC Video     7624 kbps (9.06%)   1080p / 23.976 fps / 16:9 / Main 10 @ Level 5.1 @ High / 4:2:0 / 10 bits / 1000nits / Dolby Vision FEL / BT.2020

AUDIO:

Codec                           Language        Bitrate         Description     
-----                           --------        -------         -----------     
Dolby TrueHD/Atmos Audio        English         4139 kbps       7.1+11 objects / 48 kHz / 3499 kbps / 24-bit (AC3 Core: 5.1-EX / 48 kHz / 640 kbps)
DTS-HD Master Audio             English         1768 kbps       5.1 / 48 kHz / 1768 kbps / 16-bit (DTS Core: 5.1 / 48 kHz / 1509 kbps / 16-bit)
DTS-HD Master Audio             English         870 kbps        1.0 / 48 kHz / 870 kbps / 16-bit (DTS Core: 1.0 / 48 kHz / 768 kbps / 16-bit)
DTS-HD Master Audio             French          843 kbps        1.0 / 48 kHz / 843 kbps / 16-bit (DTS Core: 1.0 / 48 kHz / 768 kbps / 16-bit)
Dolby Digital Audio             English         192 kbps        2.0 / 48 kHz / 192 kbps
Dolby Digital Audio             English         192 kbps        2.0 / 48 kHz / 192 kbps
Dolby Digital Audio             English         192 kbps        2.0 / 48 kHz / 192 kbps
Dolby Digital Audio             English         192 kbps        2.0 / 48 kHz / 192 kbps

SUBTITLES:

Codec                           Language        Bitrate         Description     
-----                           --------        -------         -----------     
Presentation Graphics           English         34.553 kbps                     
Presentation Graphics           French          31.926 kbps                     
Presentation Graphics           Spanish         28.495 kbps  

Video
ID : 1
ID in the original source medium : 4113 (0x1011)
Format : HEVC
Format/Info : High Efficiency Video Coding
Format profile : Main [email protected]@High
HDR format : SMPTE ST 2086, HDR10 compatible
Codec ID : V_MPEGH/ISO/HEVC
Duration : 1 h 34 min
Bit rate : 76.5 Mb/s
Width : 3 840 pixels
Height : 2 160 pixels
Display aspect ratio : 16:9
Frame rate mode : Constant
Frame rate : 23.976 (24000/1001) FPS
Color space : YUV
Chroma subsampling : 4:2:0 (Type 2)
Bit depth : 10 bits
Bits/(Pixel*Frame) : 0.385
Stream size : 50.2 GiB (88%)
Language : English
Default : No
Forced : No
Color range : Limited
Color primaries : BT.2020
Transfer characteristics : PQ
Matrix coefficients : BT.2020 non-constant
Mastering display color primaries : Display P3
Mastering display luminance : min: 0.0001 cd/m2, max: 1000 cd/m2
Original source medium : Blu-ray

Audio #1
ID : 2
ID in the original source medium : 4352 (0x1100)
Format : MLP FBA 16-ch
Format/Info : Meridian Lossless Packing FBA with 16-channel presentation
Commercial name : Dolby TrueHD with Dolby Atmos
Codec ID : A_TRUEHD
Duration : 1 h 34 min
Bit rate mode : Variable
Bit rate : 3 499 kb/s
Maximum bit rate : 5 685 kb/s
Channel(s) : 8 channels
Channel layout : L R C LFE Ls Rs Lb Rb
Sampling rate : 48.0 kHz
Frame rate : 1 200.000 FPS (40 SPF)
Bit depth : 24 bits
Compression mode : Lossless
Stream size : 2.30 GiB (4%)
Title : TrueHD 7.1 Atmos
Language : English
Default : Yes
Forced : No
Original source medium : Blu-ray
Number of dynamic objects : 11
Bed channel count : 1 channel
Bed channel configuration : LFE

Audio #2
ID : 3
Format : DTS XLL
Format/Info : Digital Theater Systems
Commercial name : DTS-HD Master Audio
Codec ID : A_DTS
Duration : 1 h 34 min
Bit rate mode : Variable
Bit rate : 3 307 kb/s
Channel(s) : 8 channels
Channel layout : C L R LFE Lb Rb Lss Rss
Sampling rate : 48.0 kHz
Frame rate : 93.750 FPS (512 SPF)
Bit depth : 24 bits
Compression mode : Lossless
Stream size : 2.17 GiB (4%)
Title : DTS-HD MA 7.1
Language : English
Default : No
Forced : No

Audio #3
ID : 4
ID in the original source medium : 4352 (0x1100)
Format : AC-3
Format/Info : Audio Coding 3
Commercial name : Dolby Digital
Format settings : Dolby Surround EX
Codec ID : A_AC3
Duration : 1 h 34 min
Bit rate mode : Constant
Bit rate : 640 kb/s
Channel(s) : 6 channels
Channel layout : L R C LFE Ls Rs
Sampling rate : 48.0 kHz
Frame rate : 31.250 FPS (1536 SPF)
Compression mode : Lossy
Stream size : 430 MiB (1%)
Title : DD 5.1
Language : English
Service kind : Complete Main
Default : No
Forced : No
Original source medium : Blu-ray

Audio #4
ID : 5
ID in the original source medium : 4354 (0x1102)
Format : DTS XLL
Format/Info : Digital Theater Systems
Commercial name : DTS-HD Master Audio
Codec ID : A_DTS
Duration : 1 h 34 min
Bit rate mode : Variable
Bit rate : 870 kb/s
Channel(s) : 1 channel
Channel layout : C
Sampling rate : 48.0 kHz
Frame rate : 93.750 FPS (512 SPF)
Bit depth : 16 bits
Compression mode : Lossless
Stream size : 585 MiB (1%)
Title : DTS-HD MA 1.0
Language : English
Default : No
Forced : No
Original source medium : Blu-ray

Audio #5
ID : 6
ID in the original source medium : 4355 (0x1103)
Format : DTS XLL
Format/Info : Digital Theater Systems
Commercial name : DTS-HD Master Audio
Codec ID : A_DTS
Duration : 1 h 34 min
Bit rate mode : Variable
Bit rate : 843 kb/s
Channel(s) : 1 channel
Channel layout : C
Sampling rate : 48.0 kHz
Frame rate : 93.750 FPS (512 SPF)
Bit depth : 16 bits
Compression mode : Lossless
Stream size : 567 MiB (1%)
Title : DTS-HD MA 1.0
Language : French
Default : No
Forced : No
Original source medium : Blu-ray

Audio #6
ID : 7
ID in the original source medium : 4356 (0x1104)
Format : AC-3
Format/Info : Audio Coding 3
Commercial name : Dolby Digital
Codec ID : A_AC3
Duration : 1 h 34 min
Bit rate mode : Constant
Bit rate : 192 kb/s
Channel(s) : 2 channels
Channel layout : L R
Sampling rate : 48.0 kHz
Frame rate : 31.250 FPS (1536 SPF)
Compression mode : Lossy
Stream size : 129 MiB (0%)
Title : DD 2.0
Language : English
Service kind : Complete Main
Default : No
Forced : No
Original source medium : Blu-ray

Audio #7
ID : 8
ID in the original source medium : 4357 (0x1105)
Format : AC-3
Format/Info : Audio Coding 3
Commercial name : Dolby Digital
Codec ID : A_AC3
Duration : 1 h 34 min
Bit rate mode : Constant
Bit rate : 192 kb/s
Channel(s) : 2 channels
Channel layout : L R
Sampling rate : 48.0 kHz
Frame rate : 31.250 FPS (1536 SPF)
Compression mode : Lossy
Stream size : 129 MiB (0%)
Title : DD 2.0
Language : English
Service kind : Complete Main
Default : No
Forced : No
Original source medium : Blu-ray

Audio #8
ID : 9
ID in the original source medium : 4358 (0x1106)
Format : AC-3
Format/Info : Audio Coding 3
Commercial name : Dolby Digital
Codec ID : A_AC3
Duration : 1 h 34 min
Bit rate mode : Constant
Bit rate : 192 kb/s
Channel(s) : 2 channels
Channel layout : L R
Sampling rate : 48.0 kHz
Frame rate : 31.250 FPS (1536 SPF)
Compression mode : Lossy
Stream size : 129 MiB (0%)
Title : DD 2.0
Language : English
Service kind : Complete Main
Default : No
Forced : No
Original source medium : Blu-ray

Audio #9
ID : 10
ID in the original source medium : 4359 (0x1107)
Format : AC-3
Format/Info : Audio Coding 3
Commercial name : Dolby Digital
Codec ID : A_AC3
Duration : 1 h 34 min
Bit rate mode : Constant
Bit rate : 192 kb/s
Channel(s) : 2 channels
Channel layout : L R
Sampling rate : 48.0 kHz
Frame rate : 31.250 FPS (1536 SPF)
Compression mode : Lossy
Stream size : 129 MiB (0%)
Title : DD 2.0
Language : English
Service kind : Complete Main
Default : No
Forced : No
Original source medium : Blu-ray

Text #1
ID : 11
Format : UTF-8
Codec ID : S_TEXT/UTF8
Codec ID/Info : UTF-8 Plain Text
Duration : 1 h 26 min
Bit rate : 51 b/s
Count of elements : 930
Stream size : 33.0 KiB (0%)
Title : English-SRT
Language : English
Default : Yes
Forced : No

Text #2
ID : 12
ID in the original source medium : 4768 (0x12A0)
Format : PGS
Muxing mode : zlib
Codec ID : S_HDMV/PGS
Codec ID/Info : Picture based subtitle format used on BDs/HD-DVDs
Duration : 1 h 27 min
Bit rate : 37.1 kb/s
Count of elements : 2058
Stream size : 23.2 MiB (0%)
Title : English-PGS
Language : English
Default : No
Forced : No
Original source medium : Blu-ray

Text #3
ID : 13
ID in the original source medium : 4769 (0x12A1)
Format : PGS
Muxing mode : zlib
Codec ID : S_HDMV/PGS
Codec ID/Info : Picture based subtitle format used on BDs/HD-DVDs
Duration : 1 h 26 min
Bit rate : 34.6 kb/s
Count of elements : 1684
Stream size : 21.5 MiB (0%)
Title : French-PGS
Language : French
Default : No
Forced : No
Original source medium : Blu-ray

Text #4
ID : 14
ID in the original source medium : 4770 (0x12A2)
Format : PGS
Muxing mode : zlib
Codec ID : S_HDMV/PGS
Codec ID/Info : Picture based subtitle format used on BDs/HD-DVDs
Duration : 1 h 26 min
Bit rate : 30.9 kb/s
Count of elements : 1684
Stream size : 19.2 MiB (0%)
Title : Spanish-PGS
Language : Spanish
Default : No
Forced : No
Original source medium : Blu-ray

Menu
00:00:00.000 : Chapter 01
00:03:20.408 : Chapter 02
00:09:26.148 : Chapter 03
00:14:02.591 : Chapter 04
00:16:39.999 : Chapter 05
00:21:50.726 : Chapter 06
00:27:53.880 : Chapter 07
00:30:51.266 : Chapter 08
00:34:50.838 : Chapter 09
00:40:12.118 : Chapter 10
00:43:53.130 : Chapter 11
00:48:19.438 : Chapter 12
00:52:46.413 : Chapter 13
00:56:42.690 : Chapter 14
01:02:49.265 : Chapter 15
01:05:29.717 : Chapter 16
01:13:41.750 : Chapter 17
01:17:56.880 : Chapter 18
01:24:53.671 : Chapter 19
01:31:08.754 : Chapter 20

本帖子中包含更多资源

您需要 登录 才可以下载或查看,没有帐号?立即注册

x
回复

使用道具 举报

0

主题

29

帖子

50

积分

注册会员

Rank: 2

积分
50
发表于 2021-7-9 17:08:50 | 显示全部楼层
资源太棒了,感谢分享!
回复

使用道具 举报

0

主题

482

帖子

2548

积分

金牌会员

Rank: 6Rank: 6

积分
2548
发表于 2021-7-9 19:43:49 | 显示全部楼层
谢谢楼主分享
回复

使用道具 举报

您需要登录后才可以回帖 登录 | 立即注册

本版积分规则

QQ|Archiver|手机版|小黑屋|原盘天堂 好多盘 点击这里给我发消息

GMT+8, 2021-7-27 21:17 , Processed in 0.057654 second(s), 24 queries .

Powered by Discuz! X3.4

Copyright © 2001-2020, Tencent Cloud.

快速回复 返回顶部 返回列表