请选择 进入手机版 | 继续访问电脑版
本站Q群713428235【盘盘多】已满,请新会员加原盘天堂新官方QQ群709708625【好多盘】,验证信息填写您在论坛的会员名,不填会员名的无法入群哈,进群后修改您的群名片名字为您在论坛的会员名,请务必修改,否则群成员多了不知道您是哪个会员。

原盘天堂

 找回密码
 立即注册
京东商城当当华为商城名牌时尚折扣网,一个新型的网上购物平台,我们每周为您精选3~4个国际知名品牌,商品折扣低至2折限时限量售卖,商品囊括时装、护肤品、箱包、皮具、配饰、香水等等,琳琅满目。亿格瑞A10硬盘播放器 苏宁易购
查看: 130|回复: 5

4k蓝光原盘bdmv 几近成名 中字 almost.famous.2000.extended.2160p.bluray.hevc.dts-hd.ma.5.1[83.97 GB]

[复制链接]

6152

主题

6859

帖子

133万

积分

管理员

Rank: 18Rank: 18Rank: 18Rank: 18Rank: 18

积分
1335008
发表于 2021-7-7 17:56:55 | 显示全部楼层 |阅读模式







◎译  名 几近成名/不日成名(港)/成名在望(台)/成名之路
◎片  名 Almost Famous
◎年  代 2000
◎产  地 美国
◎类  别 剧情/音乐
◎语  言 英语
◎上映日期 2000-09-13(美国)
◎IMDb链接  https://www.imdb.com/title/tt0181875/
◎豆瓣评分 8.0/10 from 26400 users
◎豆瓣链接 https://douban.com/subject/1292352/
◎片  长 122分钟
◎导  演 卡梅伦·克罗 Cameron Crowe
◎编  剧 卡梅伦·克罗 Cameron Crowe
◎主  演 比利·克鲁德普 Billy Crudup
       弗兰西斯·麦克多蒙德 Frances McDormand
       凯特·哈德森 Kate Hudson
       杰森·李 Jason Lee
       派屈克·福吉特 Patrick Fugit
       佐伊·丹斯切尔 Zooey Deschanel
       迈克尔·安格拉诺 Michael Angarano
       安娜·帕奎因 Anna Paquin
       费尔鲁扎·鲍克 Fairuza Balk
       诺亚·泰勒 Noah Taylor
       马克·科兹莱克 Mark Kozelek
       菲利普·塞默·霍夫曼 Philip Seymour Hoffman
       利兹·斯托贝尔 Liz Stauber
       吉米·法伦 Jimmy Fallon
       碧悠·菲利浦斯 Bijou Phillips
       J·J·科恩 J.J. Cohen
       马克·佩灵顿 Mark Pellington
       艾恩·贝利 Eion Bailey
       雷恩·威尔森 Rainn Wilson
       Erin Foley Erin Foley
       宝蕾·佩雷特 Pauley Perrette
       扎克·沃德 Zack Ward
       约翰·帕特里克·阿梅多利 John Patrick Amedori
       威廉·麦鲍瑟 William Mapother
       马克·马龙 Marc Maron
       Eric Rosenberg Eric Rosenberg
       查尔斯·沃克 Charles Walker
       艾瑞克·斯通斯崔特 Eric Stonestreet
       特瑞·陈 Terry Chen
       杰伊·巴鲁切尔 Jay Baruchel
       凯文·苏斯曼 Kevin Sussman

◎标  签 摇滚 | 美国 | 音乐 | 青春 | 成长 | 美国电影 | 剧情 | 2000

◎简  介

  
  优秀生威廉(派屈克·福吉特 Patrick Fugit饰)在毕业前争取到为《滚石杂志》写采访稿的机会。他要跟随摇滚乐队的行程,进行一次长途的旅行和报道。妈妈担心摇滚乐队的不良作风,坚决反对威廉的决定。
  
  威廉还是固执地上路了。他的采访对象是“Stillwater”乐队的成员,这群年轻人还没有成名,心中怀揣着梦想前往全国各地开演唱会。他们有着很多其他摇滚歌手具有的特质:放纵、呐喊、喜怒无常,现场煽动着观众的尖叫。同时,他们会沉溺与毒品,有着人性中自私、猜妒的种种弱点。有一个叫潘妮(凯特·哈德森 Kate Hudson饰)的乐迷,与乐队共进退,最后却选择了离开。威廉用心去感受并参与这一切,从中获得宝贵的阅历。
  

◎获奖情况

  第73届奥斯卡金像奖  (2001)
  最佳女配角(提名) 弗兰西斯·麦克多蒙德 / 凯特·哈德森
  最佳原创剧本 卡梅伦·克罗
  最佳剪辑(提名) 乔·哈欣 / 萨尔·克莱恩
  
  第58届金球奖  (2001)
  电影类最佳音乐/喜剧片
  电影类最佳女配角 凯特·哈德森
  电影类最佳女配角(提名) 弗兰西斯·麦克多蒙德
  电影类最佳编剧(提名) 卡梅伦·克罗
  
  第54届英国电影学院奖  (2001)
  电影奖最佳影片(提名) 伊安·布莱斯 / 卡梅伦·克罗
  电影奖最佳女主角(提名) 凯特·哈德森
  电影奖最佳女配角(提名) 弗兰西斯·麦克多蒙德
  电影奖最佳原创剧本 卡梅伦·克罗
  电影奖最佳原创音乐(提名) 南希·威尔逊
  电影奖最佳音效 保罗·马瑟 / 迈克尔·D·威尔霍伊特 / 道格·亨普希尔 / 杰夫·维克斯勒 / 里克·克莱恩
  
  第1届美国电影学会奖  (2000)
  年度佳片

DISC INFO:

Disc Title:     Almost.Famous.2000.EXTENDED.2160p.BluRay.HEVC.DTS-HD.MA.5.1-ESiR
Disc Size:      90,138,687,100 bytes
Protection:     AACS2
Extras:         Ultra HD, BD-Java
BDInfo:         0.7.5.9 (compatible layout created by DVDFab 12.0.3.6)

PLAYLIST REPORT:

Name:                   00001.MPLS  
Length:                 2:41:30.514 (h:m:s.ms)
Size:                   89,404,803,072 bytes
Total Bitrate:          73.81 Mbps

(*) Indicates included stream hidden by this playlist.

VIDEO:

Codec                   Bitrate             Description     
-----                   -------             -----------     
MPEG-H HEVC Video       54443 kbps          2160p / 23.976 fps / 16:9 / Main 10 @ Level 5.1 @ High / 4:2:0 / 10 bits / 4000nits / HDR10 / BT.2020
* MPEG-H HEVC Video     2094 kbps (3.70%)   1080p / 23.976 fps / 16:9 / Main 10 @ Level 5.1 @ High / 4:2:0 / 10 bits / 4000nits / Dolby Vision FEL / BT.2020

AUDIO:

Codec                           Language        Bitrate         Description     
-----                           --------        -------         -----------     
DTS-HD Master Audio             English         2268 kbps       5.1 / 48 kHz / 2268 kbps / 16-bit (DTS Core: 5.1 / 48 kHz / 1509 kbps / 16-bit)
DTS-HD Master Audio             French          2250 kbps       5.1 / 48 kHz / 2250 kbps / 16-bit (DTS Core: 5.1 / 48 kHz / 1509 kbps / 16-bit)
DTS-HD Master Audio             German          1997 kbps       5.1 / 48 kHz / 1997 kbps / 16-bit (DTS Core: 5.1 / 48 kHz / 1509 kbps / 16-bit)
DTS-HD Master Audio             Italian         2094 kbps       5.1 / 48 kHz / 2094 kbps / 16-bit (DTS Core: 5.1 / 48 kHz / 1509 kbps / 16-bit)
Dolby Digital Audio             Polish          640 kbps        5.1 / 48 kHz / 640 kbps
DTS-HD Master Audio             Spanish         2173 kbps       5.1 / 48 kHz / 2173 kbps / 16-bit (DTS Core: 5.1 / 48 kHz / 1509 kbps / 16-bit)
Dolby Digital Audio             English         192 kbps        2.0 / 48 kHz / 192 kbps

SUBTITLES:

Codec                           Language        Bitrate         Description     
-----                           --------        -------         -----------     
Presentation Graphics           English         32.591 kbps                     
Presentation Graphics           English         32.598 kbps                     
Presentation Graphics           English         42.396 kbps                     
Presentation Graphics           Chinese         29.334 kbps                     
Presentation Graphics           Danish          26.043 kbps                     
Presentation Graphics           Dutch           29.777 kbps                     
Presentation Graphics           Finnish         27.571 kbps                     
Presentation Graphics           French          26.99 kbps                     
Presentation Graphics           German          32.874 kbps                     
Presentation Graphics           Hungarian       27.523 kbps                     
Presentation Graphics           Italian         32.852 kbps                     
Presentation Graphics           Korean          27.536 kbps                     
Presentation Graphics           Norwegian       25.779 kbps                     
Presentation Graphics           Polish          25.443 kbps                     
Presentation Graphics           Spanish         27.547 kbps                     
Presentation Graphics           Spanish         32.156 kbps                     
Presentation Graphics           Swedish         23.705 kbps                     
Presentation Graphics           Thai            31.395 kbps                     
Presentation Graphics           Turkish         29.044 kbps                     
Presentation Graphics           English         65.727 kbps                     
Presentation Graphics           Chinese         56.31 kbps                     
Presentation Graphics           Dutch           60.591 kbps                     
Presentation Graphics           French          58.257 kbps                     
Presentation Graphics           German          67.59 kbps                     
Presentation Graphics           Italian         56.579 kbps                     
Presentation Graphics           Korean          50.871 kbps                     
Presentation Graphics           Spanish         63.651 kbps                     
Presentation Graphics           Spanish         57.965 kbps                     
Presentation Graphics           Thai            67.609 kbps

Video
ID : 1
ID in the original source medium : 4113 (0x1011)
Format : HEVC
Format/Info : High Efficiency Video Coding
Format profile : Main [email protected]@High
HDR format : SMPTE ST 2086, HDR10 compatible
Codec ID : V_MPEGH/ISO/HEVC
Duration : 2 h 41 min
Bit rate : 54.4 Mb/s
Width : 3 840 pixels
Height : 2 160 pixels
Display aspect ratio : 16:9
Frame rate mode : Constant
Frame rate : 23.976 (24000/1001) FPS
Color space : YUV
Chroma subsampling : 4:2:0 (Type 2)
Bit depth : 10 bits
Bits/(Pixel*Frame) : 0.274
Stream size : 61.4 GiB (81%)
Language : English
Default : No
Forced : No
Color range : Limited
Color primaries : BT.2020
Transfer characteristics : PQ
Matrix coefficients : BT.2020 non-constant
Mastering display color primaries : Display P3
Mastering display luminance : min: 0.0050 cd/m2, max: 4000 cd/m2
Maximum Content Light Level : 4401 cd/m2
Maximum Frame-Average Light Level : 262 cd/m2
Original source medium : Blu-ray

Audio #1
ID : 2
ID in the original source medium : 4352 (0x1100)
Format : DTS XLL
Format/Info : Digital Theater Systems
Commercial name : DTS-HD Master Audio
Codec ID : A_DTS
Duration : 2 h 41 min
Bit rate mode : Variable
Bit rate : 2 268 kb/s
Channel(s) : 6 channels
Channel layout : C L R Ls Rs LFE
Sampling rate : 48.0 kHz
Frame rate : 93.750 FPS (512 SPF)
Bit depth : 16 bits
Compression mode : Lossless
Stream size : 2.56 GiB (3%)
Title : DTS-HD MA 5.1
Language : English
Default : Yes
Forced : No
Original source medium : Blu-ray

Audio #2
ID : 3
Format : AC-3
Format/Info : Audio Coding 3
Commercial name : Dolby Digital
Codec ID : A_AC3
Duration : 2 h 41 min
Bit rate mode : Constant
Bit rate : 640 kb/s
Channel(s) : 6 channels
Channel layout : L R C LFE Ls Rs
Sampling rate : 48.0 kHz
Frame rate : 31.250 FPS (1536 SPF)
Compression mode : Lossy
Stream size : 739 MiB (1%)
Title : DD 5.1
Language : English
Service kind : Complete Main
Default : No
Forced : No

Audio #3
ID : 4
ID in the original source medium : 4353 (0x1101)
Format : DTS XLL
Format/Info : Digital Theater Systems
Commercial name : DTS-HD Master Audio
Codec ID : A_DTS
Duration : 2 h 41 min
Bit rate mode : Variable
Bit rate : 2 250 kb/s
Channel(s) : 6 channels
Channel layout : C L R Ls Rs LFE
Sampling rate : 48.0 kHz
Frame rate : 93.750 FPS (512 SPF)
Bit depth : 16 bits
Compression mode : Lossless
Stream size : 2.54 GiB (3%)
Title : DTS-HD MA 5.1
Language : French
Default : No
Forced : No
Original source medium : Blu-ray

Audio #4
ID : 5
ID in the original source medium : 4354 (0x1102)
Format : DTS XLL
Format/Info : Digital Theater Systems
Commercial name : DTS-HD Master Audio
Codec ID : A_DTS
Duration : 2 h 41 min
Bit rate mode : Variable
Bit rate : 1 997 kb/s
Channel(s) : 6 channels
Channel layout : C L R Ls Rs LFE
Sampling rate : 48.0 kHz
Frame rate : 93.750 FPS (512 SPF)
Bit depth : 16 bits
Compression mode : Lossless
Stream size : 2.25 GiB (3%)
Title : DTS-HD MA 5.1
Language : German
Default : No
Forced : No
Original source medium : Blu-ray

Audio #5
ID : 6
ID in the original source medium : 4355 (0x1103)
Format : DTS XLL
Format/Info : Digital Theater Systems
Commercial name : DTS-HD Master Audio
Codec ID : A_DTS
Duration : 2 h 41 min
Bit rate mode : Variable
Bit rate : 2 094 kb/s
Channel(s) : 6 channels
Channel layout : C L R Ls Rs LFE
Sampling rate : 48.0 kHz
Frame rate : 93.750 FPS (512 SPF)
Bit depth : 16 bits
Compression mode : Lossless
Stream size : 2.36 GiB (3%)
Title : DTS-HD MA 5.1
Language : Italian
Default : No
Forced : No
Original source medium : Blu-ray

Audio #6
ID : 7
ID in the original source medium : 4356 (0x1104)
Format : AC-3
Format/Info : Audio Coding 3
Commercial name : Dolby Digital
Codec ID : A_AC3
Duration : 2 h 41 min
Bit rate mode : Constant
Bit rate : 640 kb/s
Channel(s) : 6 channels
Channel layout : L R C LFE Ls Rs
Sampling rate : 48.0 kHz
Frame rate : 31.250 FPS (1536 SPF)
Compression mode : Lossy
Stream size : 739 MiB (1%)
Title : DD 5.1
Language : Polish
Service kind : Complete Main
Default : No
Forced : No
Original source medium : Blu-ray

Audio #7
ID : 8
ID in the original source medium : 4357 (0x1105)
Format : DTS XLL
Format/Info : Digital Theater Systems
Commercial name : DTS-HD Master Audio
Codec ID : A_DTS
Duration : 2 h 41 min
Bit rate mode : Variable
Bit rate : 2 173 kb/s
Channel(s) : 6 channels
Channel layout : C L R Ls Rs LFE
Sampling rate : 48.0 kHz
Frame rate : 93.750 FPS (512 SPF)
Bit depth : 16 bits
Compression mode : Lossless
Stream size : 2.45 GiB (3%)
Title : DTS-HD MA 5.1
Language : Spanish
Default : No
Forced : No
Original source medium : Blu-ray

Audio #8
ID : 9
ID in the original source medium : 4358 (0x1106)
Format : AC-3
Format/Info : Audio Coding 3
Commercial name : Dolby Digital
Codec ID : A_AC3
Duration : 2 h 41 min
Bit rate mode : Constant
Bit rate : 192 kb/s
Channel(s) : 2 channels
Channel layout : L R
Sampling rate : 48.0 kHz
Frame rate : 31.250 FPS (1536 SPF)
Compression mode : Lossy
Stream size : 222 MiB (0%)
Title : DD 2.0
Language : English
Service kind : Complete Main
Default : No
Forced : No
Original source medium : Blu-ray

Text #1
ID : 10
Format : UTF-8
Codec ID : S_TEXT/UTF8
Codec ID/Info : UTF-8 Plain Text
Duration : 2 h 32 min
Bit rate : 59 b/s
Count of elements : 1923
Stream size : 66.1 KiB (0%)
Title : SRT
Language : English
Default : Yes
Forced : No

Text #2
ID : 11
ID in the original source medium : 4768 (0x12A0)
Format : PGS
Muxing mode : zlib
Codec ID : S_HDMV/PGS
Codec ID/Info : Picture based subtitle format used on BDs/HD-DVDs
Duration : 2 h 32 min
Bit rate : 34.5 kb/s
Count of elements : 3870
Stream size : 37.6 MiB (0%)
Language : English
Default : No
Forced : No
Original source medium : Blu-ray

Text #3
ID : 12
ID in the original source medium : 4769 (0x12A1)
Format : PGS
Muxing mode : zlib
Codec ID : S_HDMV/PGS
Codec ID/Info : Picture based subtitle format used on BDs/HD-DVDs
Duration : 2 h 32 min
Bit rate : 34.5 kb/s
Count of elements : 3870
Stream size : 37.7 MiB (0%)
Language : English
Default : No
Forced : No
Original source medium : Blu-ray

Text #4
ID : 13
ID in the original source medium : 4770 (0x12A2)
Format : PGS
Muxing mode : zlib
Codec ID : S_HDMV/PGS
Codec ID/Info : Picture based subtitle format used on BDs/HD-DVDs
Duration : 2 h 41 min
Bit rate : 42.5 kb/s
Count of elements : 4957
Stream size : 49.0 MiB (0%)
Language : English
Default : No
Forced : No
Original source medium : Blu-ray

Text #5
ID : 14
ID in the original source medium : 4771 (0x12A3)
Format : PGS
Muxing mode : zlib
Codec ID : S_HDMV/PGS
Codec ID/Info : Picture based subtitle format used on BDs/HD-DVDs
Duration : 2 h 34 min
Bit rate : 30.6 kb/s
Count of elements : 3966
Stream size : 33.9 MiB (0%)
Language : Chinese
Default : No
Forced : No
Original source medium : Blu-ray

Text #6
ID : 15
ID in the original source medium : 4772 (0x12A4)
Format : PGS
Muxing mode : zlib
Codec ID : S_HDMV/PGS
Codec ID/Info : Picture based subtitle format used on BDs/HD-DVDs
Duration : 2 h 33 min
Bit rate : 27.4 kb/s
Count of elements : 2766
Stream size : 30.1 MiB (0%)
Language : Danish
Default : No
Forced : No
Original source medium : Blu-ray

Text #7
ID : 16
ID in the original source medium : 4773 (0x12A5)
Format : PGS
Muxing mode : zlib
Codec ID : S_HDMV/PGS
Codec ID/Info : Picture based subtitle format used on BDs/HD-DVDs
Duration : 2 h 32 min
Bit rate : 31.5 kb/s
Count of elements : 3128
Stream size : 34.4 MiB (0%)
Language : Dutch
Default : No
Forced : No
Original source medium : Blu-ray

Text #8
ID : 17
ID in the original source medium : 4774 (0x12A6)
Format : PGS
Muxing mode : zlib
Codec ID : S_HDMV/PGS
Codec ID/Info : Picture based subtitle format used on BDs/HD-DVDs
Duration : 2 h 32 min
Bit rate : 29.2 kb/s
Count of elements : 2978
Stream size : 31.9 MiB (0%)
Language : Finnish
Default : No
Forced : No
Original source medium : Blu-ray

Text #9
ID : 18
ID in the original source medium : 4775 (0x12A7)
Format : PGS
Muxing mode : zlib
Codec ID : S_HDMV/PGS
Codec ID/Info : Picture based subtitle format used on BDs/HD-DVDs
Duration : 2 h 38 min
Bit rate : 27.6 kb/s
Count of elements : 3646
Stream size : 31.2 MiB (0%)
Language : French
Default : No
Forced : No
Original source medium : Blu-ray

Text #10
ID : 19
ID in the original source medium : 4775 (0x12A7)
Format : PGS
Muxing mode : zlib
Codec ID : S_HDMV/PGS
Codec ID/Info : Picture based subtitle format used on BDs/HD-DVDs
Duration : 2 h 26 min
Bit rate : 119 b/s
Count of elements : 12
Stream size : 128 KiB (0%)
Title : FORCED
Language : French
Default : No
Forced : No
Original source medium : Blu-ray

Text #11
ID : 20
ID in the original source medium : 4776 (0x12A8)
Format : PGS
Muxing mode : zlib
Codec ID : S_HDMV/PGS
Codec ID/Info : Picture based subtitle format used on BDs/HD-DVDs
Duration : 2 h 32 min
Bit rate : 34.7 kb/s
Count of elements : 3930
Stream size : 38.0 MiB (0%)
Language : German
Default : No
Forced : No
Original source medium : Blu-ray

Text #12
ID : 21
ID in the original source medium : 4776 (0x12A8)
Format : PGS
Muxing mode : zlib
Codec ID : S_HDMV/PGS
Codec ID/Info : Picture based subtitle format used on BDs/HD-DVDs
Duration : 2 h 32 min
Bit rate : 395 b/s
Count of elements : 46
Stream size : 443 KiB (0%)
Title : FORCED
Language : German
Default : No
Forced : No
Original source medium : Blu-ray

Text #13
ID : 22
ID in the original source medium : 4777 (0x12A9)
Format : PGS
Muxing mode : zlib
Codec ID : S_HDMV/PGS
Codec ID/Info : Picture based subtitle format used on BDs/HD-DVDs
Duration : 2 h 32 min
Bit rate : 29.1 kb/s
Count of elements : 3926
Stream size : 31.8 MiB (0%)
Language : Hungarian
Default : No
Forced : No
Original source medium : Blu-ray

Text #14
ID : 23
ID in the original source medium : 4778 (0x12AA)
Format : PGS
Muxing mode : zlib
Codec ID : S_HDMV/PGS
Codec ID/Info : Picture based subtitle format used on BDs/HD-DVDs
Duration : 2 h 38 min
Bit rate : 33.5 kb/s
Count of elements : 3924
Stream size : 38.0 MiB (0%)
Language : Italian
Default : No
Forced : No
Original source medium : Blu-ray

Text #15
ID : 24
ID in the original source medium : 4778 (0x12AA)
Format : PGS
Muxing mode : zlib
Codec ID : S_HDMV/PGS
Codec ID/Info : Picture based subtitle format used on BDs/HD-DVDs
Duration : 2 h 28 min
Bit rate : 141 b/s
Count of elements : 16
Stream size : 154 KiB (0%)
Title : FORCED
Language : Italian
Default : No
Forced : No
Original source medium : Blu-ray

Text #16
ID : 25
ID in the original source medium : 4779 (0x12AB)
Format : PGS
Muxing mode : zlib
Codec ID : S_HDMV/PGS
Codec ID/Info : Picture based subtitle format used on BDs/HD-DVDs
Duration : 2 h 34 min
Bit rate : 28.7 kb/s
Count of elements : 3996
Stream size : 31.8 MiB (0%)
Language : Korean
Default : No
Forced : No
Original source medium : Blu-ray

Text #17
ID : 26
ID in the original source medium : 4780 (0x12AC)
Format : PGS
Muxing mode : zlib
Codec ID : S_HDMV/PGS
Codec ID/Info : Picture based subtitle format used on BDs/HD-DVDs
Duration : 2 h 32 min
Bit rate : 27.3 kb/s
Count of elements : 2850
Stream size : 29.8 MiB (0%)
Language : Norwegian
Default : No
Forced : No
Original source medium : Blu-ray

Text #18
ID : 27
ID in the original source medium : 4781 (0x12AD)
Format : PGS
Muxing mode : zlib
Codec ID : S_HDMV/PGS
Codec ID/Info : Picture based subtitle format used on BDs/HD-DVDs
Duration : 2 h 32 min
Bit rate : 26.9 kb/s
Count of elements : 3706
Stream size : 29.4 MiB (0%)
Language : Polish
Default : No
Forced : No
Original source medium : Blu-ray

Text #19
ID : 28
ID in the original source medium : 4781 (0x12AD)
Format : PGS
Muxing mode : zlib
Codec ID : S_HDMV/PGS
Codec ID/Info : Picture based subtitle format used on BDs/HD-DVDs
Duration : 2 h 22 min
Bit rate : 371 b/s
Count of elements : 42
Stream size : 387 KiB (0%)
Title : FORCED
Language : Polish
Default : No
Forced : No
Original source medium : Blu-ray

Text #20
ID : 29
ID in the original source medium : 4782 (0x12AE)
Format : PGS
Muxing mode : zlib
Codec ID : S_HDMV/PGS
Codec ID/Info : Picture based subtitle format used on BDs/HD-DVDs
Duration : 2 h 34 min
Bit rate : 28.7 kb/s
Count of elements : 3918
Stream size : 31.8 MiB (0%)
Language : Spanish
Default : No
Forced : No
Original source medium : Blu-ray

Text #21
ID : 30
ID in the original source medium : 4782 (0x12AE)
Format : PGS
Muxing mode : zlib
Codec ID : S_HDMV/PGS
Codec ID/Info : Picture based subtitle format used on BDs/HD-DVDs
Duration : 2 h 34 min
Bit rate : 309 b/s
Count of elements : 44
Stream size : 351 KiB (0%)
Title : FORCED
Language : Spanish
Default : No
Forced : No
Original source medium : Blu-ray

Text #22
ID : 31
ID in the original source medium : 4783 (0x12AF)
Format : PGS
Muxing mode : zlib
Codec ID : S_HDMV/PGS
Codec ID/Info : Picture based subtitle format used on BDs/HD-DVDs
Duration : 2 h 40 min
Bit rate : 32.4 kb/s
Count of elements : 3738
Stream size : 37.1 MiB (0%)
Language : Spanish
Default : No
Forced : No
Original source medium : Blu-ray

Text #23
ID : 32
ID in the original source medium : 4784 (0x12B0)
Format : PGS
Muxing mode : zlib
Codec ID : S_HDMV/PGS
Codec ID/Info : Picture based subtitle format used on BDs/HD-DVDs
Duration : 2 h 32 min
Bit rate : 25.1 kb/s
Count of elements : 2870
Stream size : 27.4 MiB (0%)
Language : Swedish
Default : No
Forced : No
Original source medium : Blu-ray

Text #24
ID : 33
ID in the original source medium : 4785 (0x12B1)
Format : PGS
Muxing mode : zlib
Codec ID : S_HDMV/PGS
Codec ID/Info : Picture based subtitle format used on BDs/HD-DVDs
Duration : 2 h 34 min
Bit rate : 32.8 kb/s
Count of elements : 3952
Stream size : 36.3 MiB (0%)
Language : Thai
Default : No
Forced : No
Original source medium : Blu-ray

Text #25
ID : 34
ID in the original source medium : 4786 (0x12B2)
Format : PGS
Muxing mode : zlib
Codec ID : S_HDMV/PGS
Codec ID/Info : Picture based subtitle format used on BDs/HD-DVDs
Duration : 2 h 33 min
Bit rate : 30.5 kb/s
Count of elements : 3872
Stream size : 33.6 MiB (0%)
Language : Turkish
Default : No
Forced : No
Original source medium : Blu-ray

Text #26
ID : 35
ID in the original source medium : 4787 (0x12B3)
Format : PGS
Muxing mode : zlib
Codec ID : S_HDMV/PGS
Codec ID/Info : Picture based subtitle format used on BDs/HD-DVDs
Duration : 2 h 41 min
Bit rate : 65.8 kb/s
Count of elements : 5803
Stream size : 75.9 MiB (0%)
Title : COMMENTARY
Language : English
Default : No
Forced : No
Original source medium : Blu-ray

Text #27
ID : 36
ID in the original source medium : 4788 (0x12B4)
Format : PGS
Muxing mode : zlib
Codec ID : S_HDMV/PGS
Codec ID/Info : Picture based subtitle format used on BDs/HD-DVDs
Duration : 2 h 41 min
Bit rate : 56.4 kb/s
Count of elements : 5809
Stream size : 65.0 MiB (0%)
Title : COMMENTARY
Language : Chinese
Default : No
Forced : No
Original source medium : Blu-ray

Text #28
ID : 37
ID in the original source medium : 4789 (0x12B5)
Format : PGS
Muxing mode : zlib
Codec ID : S_HDMV/PGS
Codec ID/Info : Picture based subtitle format used on BDs/HD-DVDs
Duration : 2 h 41 min
Bit rate : 60.7 kb/s
Count of elements : 5512
Stream size : 70.0 MiB (0%)
Title : COMMENTARY
Language : Dutch
Default : No
Forced : No
Original source medium : Blu-ray

Text #29
ID : 38
ID in the original source medium : 4790 (0x12B6)
Format : PGS
Muxing mode : zlib
Codec ID : S_HDMV/PGS
Codec ID/Info : Picture based subtitle format used on BDs/HD-DVDs
Duration : 2 h 41 min
Bit rate : 58.3 kb/s
Count of elements : 5534
Stream size : 67.3 MiB (0%)
Title : COMMENTARY
Language : French
Default : No
Forced : No
Original source medium : Blu-ray

Text #30
ID : 39
ID in the original source medium : 4791 (0x12B7)
Format : PGS
Muxing mode : zlib
Codec ID : S_HDMV/PGS
Codec ID/Info : Picture based subtitle format used on BDs/HD-DVDs
Duration : 2 h 41 min
Bit rate : 67.7 kb/s
Count of elements : 5536
Stream size : 78.1 MiB (0%)
Title : COMMENTARY
Language : German
Default : No
Forced : No
Original source medium : Blu-ray

Text #31
ID : 40
ID in the original source medium : 4792 (0x12B8)
Format : PGS
Muxing mode : zlib
Codec ID : S_HDMV/PGS
Codec ID/Info : Picture based subtitle format used on BDs/HD-DVDs
Duration : 2 h 41 min
Bit rate : 56.6 kb/s
Count of elements : 5460
Stream size : 65.4 MiB (0%)
Title : COMMENTARY
Language : Italian
Default : No
Forced : No
Original source medium : Blu-ray

Text #32
ID : 41
ID in the original source medium : 4793 (0x12B9)
Format : PGS
Muxing mode : zlib
Codec ID : S_HDMV/PGS
Codec ID/Info : Picture based subtitle format used on BDs/HD-DVDs
Duration : 2 h 41 min
Bit rate : 50.9 kb/s
Count of elements : 5809
Stream size : 58.8 MiB (0%)
Title : COMMENTARY
Language : Korean
Default : No
Forced : No
Original source medium : Blu-ray

Text #33
ID : 42
ID in the original source medium : 4794 (0x12BA)
Format : PGS
Muxing mode : zlib
Codec ID : S_HDMV/PGS
Codec ID/Info : Picture based subtitle format used on BDs/HD-DVDs
Duration : 2 h 41 min
Bit rate : 63.7 kb/s
Count of elements : 5544
Stream size : 73.5 MiB (0%)
Title : COMMENTARY
Language : Spanish
Default : No
Forced : No
Original source medium : Blu-ray

Text #34
ID : 43
ID in the original source medium : 4795 (0x12BB)
Format : PGS
Muxing mode : zlib
Codec ID : S_HDMV/PGS
Codec ID/Info : Picture based subtitle format used on BDs/HD-DVDs
Duration : 2 h 41 min
Bit rate : 58.0 kb/s
Count of elements : 5433
Stream size : 67.0 MiB (0%)
Title : COMMENTARY
Language : Spanish
Default : No
Forced : No
Original source medium : Blu-ray

Text #35
ID : 44
ID in the original source medium : 4796 (0x12BC)
Format : PGS
Muxing mode : zlib
Codec ID : S_HDMV/PGS
Codec ID/Info : Picture based subtitle format used on BDs/HD-DVDs
Duration : 2 h 41 min
Bit rate : 67.7 kb/s
Count of elements : 5809
Stream size : 78.1 MiB (0%)
Title : COMMENTARY
Language : Thai
Default : No
Forced : No
Original source medium : Blu-ray

Menu
00:00:00.000 : Chapter 01
00:08:03.191 : Chapter 02
00:18:35.948 : Chapter 03
00:27:00.619 : Chapter 04
00:36:20.720 : Chapter 05
00:48:25.694 : Chapter 06
00:54:49.411 : Chapter 07
01:07:28.961 : Chapter 08
01:17:32.147 : Chapter 09
01:28:07.448 : Chapter 10
01:35:51.412 : Chapter 11
01:46:28.340 : Chapter 12
01:54:53.761 : Chapter 13
02:08:26.198 : Chapter 14
02:16:33.810 : Chapter 15
02:29:25.289 : Chapter 16

本帖子中包含更多资源

您需要 登录 才可以下载或查看,没有帐号?立即注册

x
回复

使用道具 举报

0

主题

60

帖子

240

积分

中级会员

Rank: 3Rank: 3

积分
240
发表于 2021-7-8 03:20:20 | 显示全部楼层
谢谢楼主分享
回复

使用道具 举报

0

主题

32

帖子

248

积分

中级会员

Rank: 3Rank: 3

积分
248
发表于 2021-7-8 13:18:30 | 显示全部楼层
谢谢分享!
回复

使用道具 举报

0

主题

32

帖子

248

积分

中级会员

Rank: 3Rank: 3

积分
248
发表于 2021-7-8 13:20:32 | 显示全部楼层
谢谢版主的分享
回复

使用道具 举报

0

主题

482

帖子

2548

积分

金牌会员

Rank: 6Rank: 6

积分
2548
发表于 2021-7-8 19:43:01 | 显示全部楼层
感谢楼主,谢谢分享!
回复

使用道具 举报

0

主题

60

帖子

436

积分

中级会员

Rank: 3Rank: 3

积分
436
发表于 2021-7-15 10:43:59 | 显示全部楼层
感谢分享
回复

使用道具 举报

您需要登录后才可以回帖 登录 | 立即注册

本版积分规则

QQ|Archiver|手机版|小黑屋|原盘天堂 好多盘 点击这里给我发消息

GMT+8, 2021-7-27 21:07 , Processed in 0.073780 second(s), 24 queries .

Powered by Discuz! X3.4

Copyright © 2001-2020, Tencent Cloud.

快速回复 返回顶部 返回列表