请选择 进入手机版 | 继续访问电脑版
本站Q群713428235【盘盘多】已满,请新会员加原盘天堂新官方QQ群709708625【好多盘】,验证信息填写您在论坛的会员名,不填会员名的无法入群哈,进群后修改您的群名片名字为您在论坛的会员名,请务必修改,否则群成员多了不知道您是哪个会员。

原盘天堂

 找回密码
 立即注册
京东商城当当华为商城名牌时尚折扣网,一个新型的网上购物平台,我们每周为您精选3~4个国际知名品牌,商品折扣低至2折限时限量售卖,商品囊括时装、护肤品、箱包、皮具、配饰、香水等等,琳琅满目。亿格瑞A10硬盘播放器 苏宁易购
查看: 204|回复: 5

4k蓝光原盘bdmv 真人快打 中字 mortal.kombat.2021.2160p.bluray.hevc.truehd.7.1.atmos[56.82 GB]

[复制链接]

6152

主题

6859

帖子

133万

积分

管理员

Rank: 18Rank: 18Rank: 18Rank: 18Rank: 18

积分
1334984
发表于 2021-7-6 09:17:42 | 显示全部楼层 |阅读模式







◎译  名 真人快打/格斗之王/真人快打:毁灭/MK3: Domination/Mortal Kombat 3/Mortal Kombat: Devastation
◎片  名 Mortal Kombat
◎年  代 2021
◎产  地 美国
◎类  别 动作/奇幻/冒险
◎语  言 英语/日语/汉语普通话
◎上映日期 2021-04-08(中国香港)/2021-04-23(美国)
◎IMDb链接  https://www.imdb.com/title/tt0293429/
◎豆瓣评分 5.2/10 from 18318 users
◎豆瓣链接 https://douban.com/subject/2131664/
◎片  长 110分钟
◎导  演 西蒙·麦奎德 Simon McQuoid
◎编  剧 格雷格·罗素 Greg Russo / 戴夫·卡拉汉姆 Dave Callaham / 奥伦·尤济尔 Oren Uziel / 埃德·布恩 Ed Boon / 约翰·托拜亚斯 John Tobias
◎主  演 刘易斯·陈 Lewis Tan
       乔·塔斯利姆 Joe Taslim
       真田广之 Hiroyuki Sanada
       杰西卡·麦克娜美 Jessica McNamee
       约什·劳森 Josh Lawson
       麦卡德·布鲁克斯 Mehcad Brooks
       林路迪 Ludi Lin
       浅野忠信 Tadanobu Asano
       黄经汉 Chin Han
       麦克斯•黄 Max Huang
       茜茜·斯特林格 Sisi Stringer
       梅尔·贾森 Mel Jarnson
       丹尼尔·尼尔森 Daniel Nelson
       劳拉·布伦特 Laura Brent
       马蒂尔达·金伯 Matilda Kimber
       艾丽莎·卡德维尔 Elissa Cadwell
       内森·琼斯 Nathan Jones
       克里斯·麦奎德 Kris McQuade
       大卫·菲尔德 David Field

◎标  签 动作 | 游戏改编 | 美国 | 暴力 | 血腥 | 2021 | 奇幻 | 冒险

◎简  介

  
  科尔(刘易斯·陈 Lewis Tan 饰)是一名身手非常矫健,但生活十分落魄的拳手,某日,他莫名其妙的遭到了冷冻术士绝对零度(乔·塔斯利姆 Joe Taslim 饰)的追杀。在特种部队少校贾克斯(麦卡德·布鲁克斯 Mehcad Brooks 饰)的帮助之下,科尔死里逃生,并且启程开始寻找一位叫做索尼娅(杰西卡·麦克娜美 Jessica McNamee 饰)的女子。
  
  之后,科尔来到了地球阳间守护者雷电(浅野忠信 饰)的神庙之中,在这里,他遇见了战士刘康(林路迪 饰)和佣兵卡诺(约什·劳森 Josh Lawson 饰)等人,他们唯一的共同点就是身上都有着神秘的龙形标志。一行人即将在这里接受非常严酷的训练,以对抗来自异星敌人的侵略,保护宇宙的和平。
  


DISC INFO:

Disc Title:     Mortal.Kombat.2021.2160p.BluRay.HEVC.TrueHD.7.1.Atmos-CYBER
Disc Size:      60,729,214,845 bytes
Protection:     AACS2
Extras:         Ultra HD, BD-Java
BDInfo:         0.7.5.9 (compatible layout created by DVDFab 12.0.3.6)

PLAYLIST REPORT:

Name:                   00800.MPLS  
Length:                 1:50:03.638 (h:m:s.ms)
Size:                   60,011,618,304 bytes
Total Bitrate:          72.70 Mbps

VIDEO:

Codec                   Bitrate             Description     
-----                   -------             -----------     
MPEG-H HEVC Video       59737 kbps          2160p / 23.976 fps / 16:9 / Main 10 @ Level 5.1 @ High / 4:2:0 / 10 bits / 1000nits / HDR10 / BT.2020

AUDIO:

Codec                           Language        Bitrate         Description     
-----                           --------        -------         -----------     
Dolby TrueHD/Atmos Audio        English         3897 kbps       7.1+11 objects / 48 kHz / 3449 kbps / 24-bit (AC3 Core: 5.1-EX / 48 kHz / 448 kbps)
Dolby Digital Audio             English         640 kbps        5.1 / 48 kHz / 640 kbps
Dolby Digital Audio             English         640 kbps        5.1 / 48 kHz / 640 kbps
Dolby Digital Audio             English         640 kbps        5.1 / 48 kHz / 640 kbps
Dolby Digital Audio             French          640 kbps        5.1 / 48 kHz / 640 kbps
Dolby Digital Audio             French          640 kbps        5.1 / 48 kHz / 640 kbps
Dolby Digital Audio             Italian         640 kbps        5.1 / 48 kHz / 640 kbps
Dolby Digital Audio             Spanish         640 kbps        5.1 / 48 kHz / 640 kbps

SUBTITLES:

Codec                           Language        Bitrate         Description     
-----                           --------        -------         -----------     
Presentation Graphics           English         25.844 kbps                     
Presentation Graphics           French          16.922 kbps                     
Presentation Graphics           Italian         26.863 kbps                     
Presentation Graphics           Dutch           19.356 kbps                     
Presentation Graphics           Chinese         17.939 kbps                     
Presentation Graphics           Chinese         17.699 kbps                     
Presentation Graphics           Korean          12.717 kbps                     
Presentation Graphics           Spanish         20.519 kbps                     
Presentation Graphics           French          1.138 kbps                     
Presentation Graphics           French          0.835 kbps                     
Presentation Graphics           Italian         1.106 kbps                     
Presentation Graphics           Spanish         1.228 kbps


Video
ID : 1
ID in the original source medium : 4113 (0x1011)
Format : HEVC
Format/Info : High Efficiency Video Coding
Format profile : Main [email protected]@High
HDR format : SMPTE ST 2086, HDR10 compatible
Codec ID : V_MPEGH/ISO/HEVC
Duration : 1 h 50 min
Bit rate : 59.7 Mb/s
Width : 3 840 pixels
Height : 2 160 pixels
Display aspect ratio : 16:9
Frame rate mode : Constant
Frame rate : 23.976 (24000/1001) FPS
Color space : YUV
Chroma subsampling : 4:2:0 (Type 2)
Bit depth : 10 bits
Bits/(Pixel*Frame) : 0.300
Stream size : 45.9 GiB (83%)
Writing library : ATEME Titan File 3.9.6 (4.9.6.2)
Language : English
Default : No
Forced : No
Color range : Limited
Color primaries : BT.2020
Transfer characteristics : PQ
Matrix coefficients : BT.2020 non-constant
Mastering display color primaries : Display P3
Mastering display luminance : min: 0.0001 cd/m2, max: 1000 cd/m2
Maximum Content Light Level : 825 cd/m2
Maximum Frame-Average Light Level : 118 cd/m2
Original source medium : Blu-ray

Audio #1
ID : 2
ID in the original source medium : 4352 (0x1100)
Format : MLP FBA 16-ch
Format/Info : Meridian Lossless Packing FBA with 16-channel presentation
Commercial name : Dolby TrueHD with Dolby Atmos
Codec ID : A_TRUEHD
Duration : 1 h 50 min
Bit rate mode : Variable
Bit rate : 3 449 kb/s
Maximum bit rate : 5 781 kb/s
Channel(s) : 8 channels
Channel layout : L R C LFE Ls Rs Lb Rb
Sampling rate : 48.0 kHz
Frame rate : 1 200.000 FPS (40 SPF)
Bit depth : 24 bits
Compression mode : Lossless
Stream size : 2.65 GiB (5%)
Title : TrueHD 7.1 Atmos
Language : English
Default : Yes
Forced : No
Original source medium : Blu-ray
Number of dynamic objects : 11
Bed channel count : 1 channel
Bed channel configuration : LFE

Audio #2
ID : 3
Format : DTS XLL
Format/Info : Digital Theater Systems
Commercial name : DTS-HD Master Audio
Codec ID : A_DTS
Duration : 1 h 50 min
Bit rate mode : Variable
Bit rate : 4 109 kb/s
Channel(s) : 8 channels
Channel layout : C L R LFE Lb Rb Lss Rss
Sampling rate : 48.0 kHz
Frame rate : 93.750 FPS (512 SPF)
Bit depth : 24 bits
Compression mode : Lossless
Stream size : 3.16 GiB (6%)
Title : DTS-HD MA 7.1
Language : English
Default : No
Forced : No

Audio #3
ID : 4
ID in the original source medium : 4352 (0x1100)
Format : AC-3
Format/Info : Audio Coding 3
Commercial name : Dolby Digital
Format settings : Dolby Surround EX
Codec ID : A_AC3
Duration : 1 h 50 min
Bit rate mode : Constant
Bit rate : 448 kb/s
Channel(s) : 6 channels
Channel layout : L R C LFE Ls Rs
Sampling rate : 48.0 kHz
Frame rate : 31.250 FPS (1536 SPF)
Compression mode : Lossy
Stream size : 353 MiB (1%)
Title : DD 5.1
Language : English
Service kind : Complete Main
Default : No
Forced : No
Original source medium : Blu-ray

Audio #4
ID : 5
ID in the original source medium : 4353 (0x1101)
Format : AC-3
Format/Info : Audio Coding 3
Commercial name : Dolby Digital
Codec ID : A_AC3
Duration : 1 h 50 min
Bit rate mode : Constant
Bit rate : 640 kb/s
Channel(s) : 6 channels
Channel layout : L R C LFE Ls Rs
Sampling rate : 48.0 kHz
Frame rate : 31.250 FPS (1536 SPF)
Compression mode : Lossy
Stream size : 504 MiB (1%)
Title : DD 5.1
Language : English
Service kind : Complete Main
Default : No
Forced : No
Original source medium : Blu-ray

Audio #5
ID : 6
ID in the original source medium : 4354 (0x1102)
Format : AC-3
Format/Info : Audio Coding 3
Commercial name : Dolby Digital
Codec ID : A_AC3
Duration : 1 h 50 min
Bit rate mode : Constant
Bit rate : 640 kb/s
Channel(s) : 6 channels
Channel layout : L R C LFE Ls Rs
Sampling rate : 48.0 kHz
Frame rate : 31.250 FPS (1536 SPF)
Compression mode : Lossy
Stream size : 504 MiB (1%)
Title : DD 5.1
Language : English
Service kind : Complete Main
Default : No
Forced : No
Original source medium : Blu-ray

Audio #6
ID : 7
ID in the original source medium : 4355 (0x1103)
Format : AC-3
Format/Info : Audio Coding 3
Commercial name : Dolby Digital
Codec ID : A_AC3
Duration : 1 h 50 min
Bit rate mode : Constant
Bit rate : 640 kb/s
Channel(s) : 6 channels
Channel layout : L R C LFE Ls Rs
Sampling rate : 48.0 kHz
Frame rate : 31.250 FPS (1536 SPF)
Compression mode : Lossy
Stream size : 504 MiB (1%)
Title : DD 5.1
Language : English
Service kind : Complete Main
Default : No
Forced : No
Original source medium : Blu-ray

Audio #7
ID : 8
ID in the original source medium : 4356 (0x1104)
Format : AC-3
Format/Info : Audio Coding 3
Commercial name : Dolby Digital
Codec ID : A_AC3
Duration : 1 h 50 min
Bit rate mode : Constant
Bit rate : 640 kb/s
Channel(s) : 6 channels
Channel layout : L R C LFE Ls Rs
Sampling rate : 48.0 kHz
Frame rate : 31.250 FPS (1536 SPF)
Compression mode : Lossy
Stream size : 504 MiB (1%)
Title : DD 5.1
Language : French
Service kind : Complete Main
Default : No
Forced : No
Original source medium : Blu-ray

Audio #8
ID : 9
ID in the original source medium : 4357 (0x1105)
Format : AC-3
Format/Info : Audio Coding 3
Commercial name : Dolby Digital
Codec ID : A_AC3
Duration : 1 h 50 min
Bit rate mode : Constant
Bit rate : 640 kb/s
Channel(s) : 6 channels
Channel layout : L R C LFE Ls Rs
Sampling rate : 48.0 kHz
Frame rate : 31.250 FPS (1536 SPF)
Compression mode : Lossy
Stream size : 504 MiB (1%)
Title : DD 5.1
Language : French
Service kind : Complete Main
Default : No
Forced : No
Original source medium : Blu-ray

Audio #9
ID : 10
ID in the original source medium : 4358 (0x1106)
Format : AC-3
Format/Info : Audio Coding 3
Commercial name : Dolby Digital
Codec ID : A_AC3
Duration : 1 h 50 min
Bit rate mode : Constant
Bit rate : 640 kb/s
Channel(s) : 6 channels
Channel layout : L R C LFE Ls Rs
Sampling rate : 48.0 kHz
Frame rate : 31.250 FPS (1536 SPF)
Compression mode : Lossy
Stream size : 504 MiB (1%)
Title : DD 5.1
Language : Italian
Service kind : Complete Main
Default : No
Forced : No
Original source medium : Blu-ray

Audio #10
ID : 11
ID in the original source medium : 4359 (0x1107)
Format : AC-3
Format/Info : Audio Coding 3
Commercial name : Dolby Digital
Codec ID : A_AC3
Duration : 1 h 50 min
Bit rate mode : Constant
Bit rate : 640 kb/s
Channel(s) : 6 channels
Channel layout : L R C LFE Ls Rs
Sampling rate : 48.0 kHz
Frame rate : 31.250 FPS (1536 SPF)
Compression mode : Lossy
Stream size : 504 MiB (1%)
Title : DD 5.1
Language : Spanish
Service kind : Complete Main
Default : No
Forced : No
Original source medium : Blu-ray

Text #1
ID : 12
Format : UTF-8
Codec ID : S_TEXT/UTF8
Codec ID/Info : UTF-8 Plain Text
Duration : 1 h 27 min
Bit rate : 40 b/s
Count of elements : 993
Stream size : 25.8 KiB (0%)
Title : English-SRT
Language : English
Default : Yes
Forced : No

Text #2
ID : 13
ID in the original source medium : 4768 (0x12A0)
Format : PGS
Muxing mode : zlib
Codec ID : S_HDMV/PGS
Codec ID/Info : Picture based subtitle format used on BDs/HD-DVDs
Duration : 1 h 41 min
Bit rate : 28.0 kb/s
Count of elements : 2740
Stream size : 20.3 MiB (0%)
Language : English
Default : No
Forced : No
Original source medium : Blu-ray

Text #3
ID : 14
ID in the original source medium : 4769 (0x12A1)
Format : PGS
Muxing mode : zlib
Codec ID : S_HDMV/PGS
Codec ID/Info : Picture based subtitle format used on BDs/HD-DVDs
Duration : 1 h 48 min
Bit rate : 17.1 kb/s
Count of elements : 1924
Stream size : 13.3 MiB (0%)
Language : French
Default : No
Forced : No
Original source medium : Blu-ray

Text #4
ID : 15
ID in the original source medium : 4770 (0x12A2)
Format : PGS
Muxing mode : zlib
Codec ID : S_HDMV/PGS
Codec ID/Info : Picture based subtitle format used on BDs/HD-DVDs
Duration : 1 h 49 min
Bit rate : 26.9 kb/s
Count of elements : 2830
Stream size : 21.1 MiB (0%)
Language : Italian
Default : No
Forced : No
Original source medium : Blu-ray

Text #5
ID : 16
ID in the original source medium : 4771 (0x12A3)
Format : PGS
Muxing mode : zlib
Codec ID : S_HDMV/PGS
Codec ID/Info : Picture based subtitle format used on BDs/HD-DVDs
Duration : 1 h 48 min
Bit rate : 19.6 kb/s
Count of elements : 1862
Stream size : 15.2 MiB (0%)
Language : Dutch
Default : No
Forced : No
Original source medium : Blu-ray

Text #6
ID : 17
ID in the original source medium : 4772 (0x12A4)
Format : PGS
Muxing mode : zlib
Codec ID : S_HDMV/PGS
Codec ID/Info : Picture based subtitle format used on BDs/HD-DVDs
Duration : 1 h 37 min
Bit rate : 20.2 kb/s
Count of elements : 1796
Stream size : 14.1 MiB (0%)
Language : Chinese
Default : No
Forced : No
Original source medium : Blu-ray

Text #7
ID : 18
ID in the original source medium : 4773 (0x12A5)
Format : PGS
Muxing mode : zlib
Codec ID : S_HDMV/PGS
Codec ID/Info : Picture based subtitle format used on BDs/HD-DVDs
Duration : 1 h 48 min
Bit rate : 17.9 kb/s
Count of elements : 1926
Stream size : 13.9 MiB (0%)
Language : Chinese
Default : No
Forced : No
Original source medium : Blu-ray

Text #8
ID : 19
ID in the original source medium : 4774 (0x12A6)
Format : PGS
Muxing mode : zlib
Codec ID : S_HDMV/PGS
Codec ID/Info : Picture based subtitle format used on BDs/HD-DVDs
Duration : 1 h 48 min
Bit rate : 12.9 kb/s
Count of elements : 1924
Stream size : 10.0 MiB (0%)
Language : Korean
Default : No
Forced : No
Original source medium : Blu-ray

Text #9
ID : 20
ID in the original source medium : 4775 (0x12A7)
Format : PGS
Muxing mode : zlib
Codec ID : S_HDMV/PGS
Codec ID/Info : Picture based subtitle format used on BDs/HD-DVDs
Duration : 1 h 37 min
Bit rate : 23.1 kb/s
Count of elements : 1910
Stream size : 16.2 MiB (0%)
Language : Spanish
Default : No
Forced : No
Original source medium : Blu-ray

Text #10
ID : 21
ID in the original source medium : 4776 (0x12A8)
Format : PGS
Muxing mode : zlib
Codec ID : S_HDMV/PGS
Codec ID/Info : Picture based subtitle format used on BDs/HD-DVDs
Duration : 1 h 37 min
Bit rate : 1 278 b/s
Count of elements : 102
Stream size : 917 KiB (0%)
Title : FORCED
Language : French
Default : No
Forced : No
Original source medium : Blu-ray

Text #11
ID : 22
ID in the original source medium : 4777 (0x12A9)
Format : PGS
Muxing mode : zlib
Codec ID : S_HDMV/PGS
Codec ID/Info : Picture based subtitle format used on BDs/HD-DVDs
Duration : 1 h 37 min
Bit rate : 938 b/s
Count of elements : 90
Stream size : 673 KiB (0%)
Title : FORCED
Language : French
Default : No
Forced : No
Original source medium : Blu-ray

Text #12
ID : 23
ID in the original source medium : 4778 (0x12AA)
Format : PGS
Muxing mode : zlib
Codec ID : S_HDMV/PGS
Codec ID/Info : Picture based subtitle format used on BDs/HD-DVDs
Duration : 1 h 34 min
Bit rate : 1 289 b/s
Count of elements : 102
Stream size : 892 KiB (0%)
Title : FORCED
Language : Italian
Default : No
Forced : No
Original source medium : Blu-ray

Text #13
ID : 24
ID in the original source medium : 4779 (0x12AB)
Format : PGS
Muxing mode : zlib
Codec ID : S_HDMV/PGS
Codec ID/Info : Picture based subtitle format used on BDs/HD-DVDs
Duration : 1 h 37 min
Bit rate : 1 380 b/s
Count of elements : 110
Stream size : 990 KiB (0%)
Title : FORCED
Language : Spanish
Default : No
Forced : No
Original source medium : Blu-ray

Menu
00:00:00.000 : Chapter 01
00:02:34.863 : Chapter 02
00:07:25.403 : Chapter 03
00:12:53.773 : Chapter 04
00:19:13.569 : Chapter 05
00:27:24.726 : Chapter 06
00:34:47.668 : Chapter 07
00:42:13.697 : Chapter 08
00:47:39.565 : Chapter 09
00:56:39.270 : Chapter 10
01:05:49.278 : Chapter 11
01:13:04.129 : Chapter 12
01:19:23.091 : Chapter 13
01:27:17.690 : Chapter 14
01:35:45.030 : Chapter 15
01:38:58.599 : Chapter 16  

本帖子中包含更多资源

您需要 登录 才可以下载或查看,没有帐号?立即注册

x
回复

使用道具 举报

0

主题

821

帖子

3960

积分

论坛元老

Rank: 8Rank: 8

积分
3960
发表于 2021-7-6 10:53:06 | 显示全部楼层

谢谢楼主分享!!
回复

使用道具 举报

0

主题

3

帖子

16

积分

新手上路

Rank: 1

积分
16
发表于 2021-7-6 11:25:21 | 显示全部楼层


谢谢楼主分享!!
回复

使用道具 举报

0

主题

156

帖子

1104

积分

金牌会员

Rank: 6Rank: 6

积分
1104
发表于 2021-7-6 13:07:33 | 显示全部楼层
谢谢楼主分享
回复

使用道具 举报

0

主题

482

帖子

2548

积分

金牌会员

Rank: 6Rank: 6

积分
2548
发表于 2021-7-6 19:29:07 | 显示全部楼层
谢谢楼主分享
回复

使用道具 举报

0

主题

29

帖子

50

积分

注册会员

Rank: 2

积分
50
发表于 2021-7-9 17:15:54 | 显示全部楼层
资源太棒了,感谢分享!
回复

使用道具 举报

您需要登录后才可以回帖 登录 | 立即注册

本版积分规则

QQ|Archiver|手机版|小黑屋|原盘天堂 好多盘 点击这里给我发消息

GMT+8, 2021-7-27 18:55 , Processed in 0.064139 second(s), 25 queries .

Powered by Discuz! X3.4

Copyright © 2001-2020, Tencent Cloud.

快速回复 返回顶部 返回列表