请选择 进入手机版 | 继续访问电脑版
本站Q群713428235【盘盘多】已满,请新会员加原盘天堂新官方QQ群709708625【好多盘】,验证信息填写您在论坛的会员名,不填会员名的无法入群哈,进群后修改您的群名片名字为您在论坛的会员名,请务必修改,否则群成员多了不知道您是哪个会员。

原盘天堂

 找回密码
 立即注册
京东商城当当华为商城名牌时尚折扣网,一个新型的网上购物平台,我们每周为您精选3~4个国际知名品牌,商品折扣低至2折限时限量售卖,商品囊括时装、护肤品、箱包、皮具、配饰、香水等等,琳琅满目。亿格瑞A10硬盘播放器 苏宁易购
查看: 110|回复: 6

4k蓝光原盘bdmv 大魔域 加长版 英语原版 the.neverending.story.1984.extended.2160p.bluray.hevc.dts-hr.5.1[54.47 GB]

[复制链接]

6152

主题

6859

帖子

133万

积分

管理员

Rank: 18Rank: 18Rank: 18Rank: 18Rank: 18

积分
1334992
发表于 2021-7-6 09:14:06 | 显示全部楼层 |阅读模式









◎译  名 大魔域/魔域仙踪/永远讲不完的故事/Die unendliche Geschichte
◎片  名 The NeverEnding Story
◎年  代 1984
◎产  地 西德/美国
◎类  别 剧情/奇幻/冒险
◎语  言 英语
◎上映日期 1984-07-20
◎IMDb链接  https://www.imdb.com/title/tt0088323/
◎豆瓣评分 6.9/10 from 989 users
◎豆瓣链接 https://douban.com/subject/1300074/
◎片  长 102 分钟
◎导  演 沃尔夫冈·彼德森 Wolfgang Petersen
◎编  剧 赫尔曼·魏格尔 Herman Weigel / 沃尔夫冈·彼德森 Wolfgang Petersen / 米切尔·恩德 Michael Ende / 罗伯特·伊斯顿 Robert Easton
◎主  演 巴莱特·奥利佛 Barret Oliver
       杰拉尔德·麦克雷尼 Gerald McRaney
       德拉姆·加勒特 Drum Garrett
       达里尔·库克西 Darryl Cooksey
       尼古拉斯·吉尔伯特 Nicholas Gilbert
       托马斯·希尔 Thomas Hill
       迪普·罗伊 Deep Roy
       斯洛·派克内尔 Tilo Prückner
       摩西·冈恩 Moses Gunn
       诺亚·海瑟威 Noah Hathaway
       艾伦·欧朋海默 Alan Oppenheimer
       西德尼·布罗姆利 Sydney Bromley
       帕特里夏·海斯 Patricia Hayes
       塔米·施特罗纳赫 Tami Stronach
       海因茨·莱纳克 Heinz Reincke
       Frank Lenart Frank Lenart
       Silvia Seidel Silvia Seidel

◎标  签 奇幻 | 魔幻 | 美国 | 德国 | 儿童 | 美国电影 | 1984 | 冒险

◎简  介

  
  故事讲述小男孩Bastian Bux迷上了一本名叫《永不结束的故事》的书,故事将Bastian Bux深深吸引到书本里,甚至让他幻想自己就是其中最重要的角色。而书中描述的幻想国逐渐被“空无”吞噬,女王因为重病无法抵抗“空无”,于是幻想国派出勇者Atreyu寻找拯救女王的药,Bastian Bux就在Atreyu的追寻中体验幻想国的每个地方、认识每个人物,随着Atreyu的欢喜与挫折起伏……
  
  幻想国之所以被“空无”吞噬,是因为她是由人类的幻想所创造出来的国度,当人类不再幻想,并忘记那些幻想时,幻想国当然就什么也不剩了。Bastian Bux最后发现幻想国中的人并没有办法拯救他们自己,只有人类才能拯救幻想国,他必须靠着丰沛的想像力,重现幻想国的生机……
  

DISC INFO:

Disc Title:     The.NeverEnding.Story.1984.COMPLETE.UHD.BLURAY-UNTOUCHED
Disc Size:      58,486,016,488 bytes
Protection:     AACS2
Extras:         Ultra HD
BDInfo:         0.7.5.9 (compatible layout created by DVDFab 12.0.3.6)

PLAYLIST REPORT:

Name:                   00003.MPLS  
Length:                 1:41:12.041 (h:m:s.ms)
Size:                   57,798,002,688 bytes
Total Bitrate:          76.15 Mbps

VIDEO:

Codec                   Bitrate             Description     
-----                   -------             -----------     
MPEG-H HEVC Video       68000 kbps          2160p / 24 fps / 16:9 / Main 10 @ Level 5.1 @ High / 4:2:0 / 10 bits / 1000nits / HDR10 / BT.2020

AUDIO:

Codec                           Language        Bitrate         Description     
-----                           --------        -------         -----------     
DTS-HD High-Res Audio           German          2046 kbps       5.1 / 48 kHz / 2046 kbps / 24-bit (DTS Core: 5.1 / 48 kHz / 1509 kbps / 24-bit)
Dolby Digital Audio             German          224 kbps        2.0 / 48 kHz / 224 kbps
DTS-HD High-Res Audio           English         2046 kbps       5.1 / 48 kHz / 2046 kbps / 24-bit (DTS Core: 5.1 / 48 kHz / 1509 kbps / 24-bit)
Dolby Digital Audio             English         224 kbps        2.0 / 48 kHz / 224 kbps

SUBTITLES:

Codec                           Language        Bitrate         Description     
-----                           --------        -------         -----------     
Presentation Graphics           German          29.69 kbps  

Video
ID : 1
ID in the original source medium : 4113 (0x1011)
Format : HEVC
Format/Info : High Efficiency Video Coding
Format profile : Main [email protected]@High
HDR format : SMPTE ST 2086, HDR10 compatible
Codec ID : V_MPEGH/ISO/HEVC
Duration : 1 h 41 min
Bit rate : 68.0 Mb/s
Width : 3 840 pixels
Height : 2 160 pixels
Display aspect ratio : 16:9
Frame rate mode : Constant
Frame rate : 24.000 FPS
Standard : Component
Color space : YUV
Chroma subsampling : 4:2:0 (Type 2)
Bit depth : 10 bits
Bits/(Pixel*Frame) : 0.342
Stream size : 48.1 GiB (93%)
Language : English
Default : No
Forced : No
Color range : Limited
Color primaries : BT.2020
Transfer characteristics : PQ
Matrix coefficients : BT.2020 non-constant
Mastering display color primaries : Display P3
Mastering display luminance : min: 0.0050 cd/m2, max: 1000 cd/m2
Maximum Content Light Level : 586 cd/m2
Maximum Frame-Average Light Level : 995 cd/m2
Original source medium : Blu-ray

Audio #1
ID : 2
ID in the original source medium : 4354 (0x1102)
Format : DTS XBR
Format/Info : Digital Theater Systems
Commercial name : DTS-HD High Resolution Audio
Codec ID : A_DTS
Duration : 1 h 41 min
Bit rate mode : Constant
Bit rate : 2 046 kb/s
Channel(s) : 6 channels
Channel layout : C L R Ls Rs LFE
Sampling rate : 48.0 kHz
Frame rate : 93.750 FPS (512 SPF)
Bit depth : 24 bits
Compression mode : Lossy
Stream size : 1.45 GiB (3%)
Title : DTS-HR 5.1
Language : English
Default : Yes
Forced : No
Original source medium : Blu-ray

Audio #2
ID : 3
Format : AC-3
Format/Info : Audio Coding 3
Commercial name : Dolby Digital
Codec ID : A_AC3
Duration : 1 h 41 min
Bit rate mode : Constant
Bit rate : 640 kb/s
Channel(s) : 6 channels
Channel layout : L R C LFE Ls Rs
Sampling rate : 48.0 kHz
Frame rate : 31.250 FPS (1536 SPF)
Compression mode : Lossy
Stream size : 463 MiB (1%)
Title : DD 5.1
Language : English
Service kind : Complete Main
Default : No
Forced : No

Audio #3
ID : 4
ID in the original source medium : 4352 (0x1100)
Format : DTS XBR
Format/Info : Digital Theater Systems
Commercial name : DTS-HD High Resolution Audio
Codec ID : A_DTS
Duration : 1 h 41 min
Bit rate mode : Constant
Bit rate : 2 046 kb/s
Channel(s) : 6 channels
Channel layout : C L R Ls Rs LFE
Sampling rate : 48.0 kHz
Frame rate : 93.750 FPS (512 SPF)
Bit depth : 24 bits
Compression mode : Lossy
Stream size : 1.45 GiB (3%)
Title : DTS-HR 5.1
Language : German
Default : No
Forced : No
Original source medium : Blu-ray

Audio #4
ID : 5
ID in the original source medium : 4353 (0x1101)
Format : AC-3
Format/Info : Audio Coding 3
Commercial name : Dolby Digital
Codec ID : A_AC3
Duration : 1 h 41 min
Bit rate mode : Constant
Bit rate : 224 kb/s
Channel(s) : 2 channels
Channel layout : L R
Sampling rate : 48.0 kHz
Frame rate : 31.250 FPS (1536 SPF)
Compression mode : Lossy
Stream size : 162 MiB (0%)
Title : DD 2.0
Language : German
Service kind : Complete Main
Default : No
Forced : No
Original source medium : Blu-ray

Audio #5
ID : 6
ID in the original source medium : 4355 (0x1103)
Format : AC-3
Format/Info : Audio Coding 3
Commercial name : Dolby Digital
Codec ID : A_AC3
Duration : 1 h 41 min
Bit rate mode : Constant
Bit rate : 224 kb/s
Channel(s) : 2 channels
Channel layout : L R
Sampling rate : 48.0 kHz
Frame rate : 31.250 FPS (1536 SPF)
Compression mode : Lossy
Stream size : 162 MiB (0%)
Title : DD 2.0
Language : English
Service kind : Complete Main
Default : No
Forced : No
Original source medium : Blu-ray

Text #1
ID : 7
Format : UTF-8
Codec ID : S_TEXT/UTF8
Codec ID/Info : UTF-8 Plain Text
Duration : 1 h 40 min
Bit rate : 35 b/s
Count of elements : 1049
Stream size : 25.9 KiB (0%)
Title : English-SRT
Language : English
Default : Yes
Forced : No

Text #2
ID : 8
ID in the original source medium : 4768 (0x12A0)
Format : PGS
Muxing mode : zlib
Codec ID : S_HDMV/PGS
Codec ID/Info : Picture based subtitle format used on BDs/HD-DVDs
Duration : 1 h 37 min
Bit rate : 30.7 kb/s
Count of elements : 1334
Stream size : 21.5 MiB (0%)
Title : German-PGS
Language : German
Default : No
Forced : No
Original source medium : Blu-ray

Menu
00:00:00.000 : Chapter 01
00:06:13.041 : Chapter 02
00:08:00.000 : Chapter 03
00:13:12.375 : Chapter 04
00:19:45.208 : Chapter 05
00:24:05.625 : Chapter 06
00:29:41.666 : Chapter 07
00:33:43.791 : Chapter 08
00:39:30.541 : Chapter 09
00:45:05.208 : Chapter 10
00:47:54.916 : Chapter 11
00:52:05.708 : Chapter 12
00:58:53.958 : Chapter 13
01:03:03.125 : Chapter 14
01:06:25.750 : Chapter 15
01:10:57.208 : Chapter 16
01:16:21.958 : Chapter 17
01:22:15.541 : Chapter 18
01:25:08.208 : Chapter 19
01:27:25.041 : Chapter 20
01:33:44.083 : Chapter 21
01:38:26.666 : Chapter 22

本帖子中包含更多资源

您需要 登录 才可以下载或查看,没有帐号?立即注册

x
回复

使用道具 举报

0

主题

821

帖子

3960

积分

论坛元老

Rank: 8Rank: 8

积分
3960
发表于 2021-7-6 10:54:07 | 显示全部楼层

谢谢楼主分享!!
回复

使用道具 举报

0

主题

61

帖子

621

积分

VIP永久

Rank: 12Rank: 12Rank: 12

积分
621
发表于 2021-7-6 21:44:13 | 显示全部楼层
谢谢楼主分享!!
回复

使用道具 举报

0

主题

60

帖子

240

积分

中级会员

Rank: 3Rank: 3

积分
240
发表于 2021-7-13 03:02:54 | 显示全部楼层
感谢楼主分享佳片!
回复

使用道具 举报

0

主题

56

帖子

109

积分

注册会员

Rank: 2

积分
109
QQ
发表于 2021-7-13 15:16:16 | 显示全部楼层
谢谢楼主分享!!
回复

使用道具 举报

0

主题

60

帖子

240

积分

中级会员

Rank: 3Rank: 3

积分
240
发表于 2021-7-14 02:26:09 | 显示全部楼层
感谢楼主分享佳片!
回复

使用道具 举报

0

主题

60

帖子

240

积分

中级会员

Rank: 3Rank: 3

积分
240
发表于 2021-7-14 02:27:25 | 显示全部楼层
感谢楼主分享佳片!
回复

使用道具 举报

您需要登录后才可以回帖 登录 | 立即注册

本版积分规则

QQ|Archiver|手机版|小黑屋|原盘天堂 好多盘 点击这里给我发消息

GMT+8, 2021-7-27 20:15 , Processed in 0.067835 second(s), 25 queries .

Powered by Discuz! X3.4

Copyright © 2001-2020, Tencent Cloud.

快速回复 返回顶部 返回列表