请选择 进入手机版 | 继续访问电脑版
本站Q群713428235【盘盘多】已满,请新会员加原盘天堂新官方QQ群709708625【好多盘】,验证信息填写您在论坛的会员名,不填会员名的无法入群哈,进群后修改您的群名片名字为您在论坛的会员名,请务必修改,否则群成员多了不知道您是哪个会员。

原盘天堂

 找回密码
 立即注册
京东商城当当华为商城名牌时尚折扣网,一个新型的网上购物平台,我们每周为您精选3~4个国际知名品牌,商品折扣低至2折限时限量售卖,商品囊括时装、护肤品、箱包、皮具、配饰、香水等等,琳琅满目。亿格瑞A10硬盘播放器 苏宁易购
查看: 147|回复: 4

2d蓝光原盘bdmv 真人快打 英语原版 mortal.kombat.2021.1080p.bluray.avc.truehd.7.1.atmos[43.98 GB]

[复制链接]

6152

主题

6859

帖子

133万

积分

管理员

Rank: 18Rank: 18Rank: 18Rank: 18Rank: 18

积分
1334984
发表于 2021-7-3 16:37:46 | 显示全部楼层 |阅读模式









◎译  名 真人快打 / MK3: Domination / Mortal Kombat 3 / Mortal Kombat: Devastation / 格斗之王 / 真人快打:毁灭
◎片  名 Mortal Kombat
◎年  代 2021
◎产  地 澳大利亚 / 美国
◎类  别 动作 / 奇幻 / 冒险
◎语  言 英语
◎上映日期 2021-04-08(中国香港) / 2021-04-23(美国)
◎IMDb评分  7.0/10 from 6436 users
◎IMDb链接  https://www.imdb.com/title/tt0293429
◎豆瓣评分 6.5/10 from 259 users
◎豆瓣链接 https://movie.douban.com/subject/2131664/
◎片  长 110分钟
◎导  演 西蒙·麦奎德 Simon McQuoid
◎编  剧 格雷格·罗素 Greg Russo / 戴夫·卡拉汉姆 Dave Callaham / 奥伦·尤济尔 Oren Uziel / 埃德·布恩 Ed Boon / 约翰·托拜亚斯 John Tobias
◎主  演 刘易斯·陈 Lewis Tan
       乔·塔斯利姆 Joe Taslim
       真田广之 Hiroyuki Sanada
       杰西卡·麦克娜美 Jessica McNamee
       约什·劳森 Josh Lawson
       麦卡德·布鲁克斯 Mehcad Brooks
       林路迪 Ludi Lin
       浅野忠信 Tadanobu Asano
       黄经汉 Chin Han
       麦克斯•黄 Max Huang
       劳拉·布伦特 Laura Brent
       Sisi Stringer
       Mel Jarnson
       Elissa Cadwell
       马蒂尔达·金伯 Matilda Kimber


◎标  签 真人快打 | 游戏改编 | 动作 | 美国 | 游戏电影! | 2021 | 美国电影 | 华纳

◎简  介  

  援引That Hashtag Show消息,乔尔·埃哲顿是新线游改电影[真人快打:毁灭]中Kano角色的首选。埃哲顿此番将使用他的澳洲本土口音。本片由温子仁担任制片人,西蒙·麦夸伊德执导,格雷格·罗素已完成了剧本。影片将围绕一个身心俱疲的拳击手科尔·特纳展开,他被招募来帮助保护地球和他的女儿。他必须加入一支战斗队伍,与来自另一个维度的杀手进行一场永恒的战斗。该片有望今夏在澳洲开机。

DISC INFO:

Disc Title:     Mortal.Kombat.2021.1080p.BluRay.AVC.TrueHD.7.1.Atmos-CYBER
Disc Size:      47,219,386,921 bytes
Protection:     AACS
Extras:         BD-Java
BDInfo:         0.7.5.9 (compatible layout created by DVDFab 12.0.3.6)

PLAYLIST REPORT:

Name:                   00800.MPLS  
Length:                 1:50:03.930 (h:m:s.ms)
Size:                   34,685,589,504 bytes
Total Bitrate:          42.02 Mbps

VIDEO:

Codec                   Bitrate             Description     
-----                   -------             -----------     
MPEG-4 AVC Video        28598 kbps          1080p / 23.976 fps / 16:9 / High Profile 4.1

AUDIO:

Codec                           Language        Bitrate         Description     
-----                           --------        -------         -----------     
Dolby TrueHD/Atmos Audio        English         3897 kbps       7.1+11 objects / 48 kHz / 3449 kbps / 24-bit (AC3 Core: 5.1-EX / 48 kHz / 448 kbps)
Dolby Digital Audio             English         640 kbps        5.1 / 48 kHz / 640 kbps
Dolby Digital Audio             English         640 kbps        5.1 / 48 kHz / 640 kbps
Dolby Digital Audio             French          640 kbps        5.1 / 48 kHz / 640 kbps
Dolby Digital Audio             French          640 kbps        5.1 / 48 kHz / 640 kbps
Dolby Digital Audio             German          640 kbps        5.1 / 48 kHz / 640 kbps
Dolby Digital Audio             German          192 kbps        2.0 / 48 kHz / 192 kbps / Dolby Surround
Dolby Digital Audio             Italian         640 kbps        5.1 / 48 kHz / 640 kbps
Dolby Digital Audio             Spanish         640 kbps        5.1 / 48 kHz / 640 kbps
Dolby Digital Audio             Spanish         640 kbps        5.1 / 48 kHz / 640 kbps
Dolby Digital Audio             Portuguese      640 kbps        5.1 / 48 kHz / 640 kbps

SUBTITLES:

Codec                           Language        Bitrate         Description     
-----                           --------        -------         -----------     
Presentation Graphics           English         26.176 kbps                     
Presentation Graphics           French          17.065 kbps                     
Presentation Graphics           German          26.726 kbps                     
Presentation Graphics           Italian         27.168 kbps                     
Presentation Graphics           Spanish         20.301 kbps                     
Presentation Graphics           Dutch           19.688 kbps                     
Presentation Graphics           Spanish         20.87 kbps                     
Presentation Graphics           Portuguese      19.187 kbps                     
Presentation Graphics           Danish          17.485 kbps                     
Presentation Graphics           Finnish         21.162 kbps                     
Presentation Graphics           Greek           19.654 kbps                     
Presentation Graphics           Norwegian       18.452 kbps                     
Presentation Graphics           Swedish         17.895 kbps                     
Presentation Graphics           French          1.164 kbps                     
Presentation Graphics           French          0.845 kbps                     
Presentation Graphics           German          1.172 kbps                     
Presentation Graphics           Italian         1.13 kbps                       
Presentation Graphics           Spanish         1.09 kbps                       
Presentation Graphics           Spanish         1.259 kbps                     
Presentation Graphics           Portuguese      1.092 kbps

Video
ID : 1
ID in the original source medium : 4113 (0x1011)
Format : AVC
Format/Info : Advanced Video Codec
Format profile : [email protected]
Format settings : CABAC / 4 Ref Frames
Format settings, CABAC : Yes
Format settings, Reference frames : 4 frames
Codec ID : V_MPEG4/ISO/AVC
Duration : 1 h 50 min
Bit rate mode : Variable
Bit rate : 28.3 Mb/s
Maximum bit rate : 31.0 Mb/s
Width : 1 920 pixels
Height : 1 080 pixels
Display aspect ratio : 16:9
Frame rate mode : Constant
Frame rate : 23.976 (24000/1001) FPS
Color space : YUV
Chroma subsampling : 4:2:0
Bit depth : 8 bits
Scan type : Progressive
Bits/(Pixel*Frame) : 0.569
Stream size : 21.8 GiB (67%)
Language : English
Default : No
Forced : No
Original source medium : Blu-ray

Audio #1
ID : 2
ID in the original source medium : 4352 (0x1100)
Format : MLP FBA 16-ch
Format/Info : Meridian Lossless Packing FBA with 16-channel presentation
Commercial name : Dolby TrueHD with Dolby Atmos
Codec ID : A_TRUEHD
Duration : 1 h 50 min
Bit rate mode : Variable
Bit rate : 3 449 kb/s
Maximum bit rate : 5 781 kb/s
Channel(s) : 8 channels
Channel layout : L R C LFE Ls Rs Lb Rb
Sampling rate : 48.0 kHz
Frame rate : 1 200.000 FPS (40 SPF)
Bit depth : 24 bits
Compression mode : Lossless
Stream size : 2.65 GiB (8%)
Title : TrueHD 7.1 Atmos
Language : English
Default : Yes
Forced : No
Original source medium : Blu-ray
Number of dynamic objects : 11
Bed channel count : 1 channel
Bed channel configuration : LFE

Audio #2
ID : 3
Format : DTS XLL
Format/Info : Digital Theater Systems
Commercial name : DTS-HD Master Audio
Codec ID : A_DTS
Duration : 1 h 50 min
Bit rate mode : Variable
Bit rate : 4 109 kb/s
Channel(s) : 8 channels
Channel layout : C L R LFE Lb Rb Lss Rss
Sampling rate : 48.0 kHz
Frame rate : 93.750 FPS (512 SPF)
Bit depth : 24 bits
Compression mode : Lossless
Stream size : 3.16 GiB (10%)
Title : DTS-HD MA 7.1
Language : English
Default : No
Forced : No

Audio #3
ID : 4
ID in the original source medium : 4352 (0x1100)
Format : AC-3
Format/Info : Audio Coding 3
Commercial name : Dolby Digital
Format settings : Dolby Surround EX
Codec ID : A_AC3
Duration : 1 h 50 min
Bit rate mode : Constant
Bit rate : 448 kb/s
Channel(s) : 6 channels
Channel layout : L R C LFE Ls Rs
Sampling rate : 48.0 kHz
Frame rate : 31.250 FPS (1536 SPF)
Compression mode : Lossy
Stream size : 353 MiB (1%)
Title : DD 5.1
Language : English
Service kind : Complete Main
Default : No
Forced : No
Original source medium : Blu-ray

Audio #4
ID : 5
ID in the original source medium : 4353 (0x1101)
Format : AC-3
Format/Info : Audio Coding 3
Commercial name : Dolby Digital
Codec ID : A_AC3
Duration : 1 h 50 min
Bit rate mode : Constant
Bit rate : 640 kb/s
Channel(s) : 6 channels
Channel layout : L R C LFE Ls Rs
Sampling rate : 48.0 kHz
Frame rate : 31.250 FPS (1536 SPF)
Compression mode : Lossy
Stream size : 504 MiB (2%)
Title : DD 5.1
Language : English
Service kind : Complete Main
Default : No
Forced : No
Original source medium : Blu-ray

Audio #5
ID : 6
ID in the original source medium : 4354 (0x1102)
Format : AC-3
Format/Info : Audio Coding 3
Commercial name : Dolby Digital
Codec ID : A_AC3
Duration : 1 h 50 min
Bit rate mode : Constant
Bit rate : 640 kb/s
Channel(s) : 6 channels
Channel layout : L R C LFE Ls Rs
Sampling rate : 48.0 kHz
Frame rate : 31.250 FPS (1536 SPF)
Compression mode : Lossy
Stream size : 504 MiB (2%)
Title : DD 5.1
Language : English
Service kind : Complete Main
Default : No
Forced : No
Original source medium : Blu-ray

Audio #6
ID : 7
ID in the original source medium : 4355 (0x1103)
Format : AC-3
Format/Info : Audio Coding 3
Commercial name : Dolby Digital
Codec ID : A_AC3
Duration : 1 h 50 min
Bit rate mode : Constant
Bit rate : 640 kb/s
Channel(s) : 6 channels
Channel layout : L R C LFE Ls Rs
Sampling rate : 48.0 kHz
Frame rate : 31.250 FPS (1536 SPF)
Compression mode : Lossy
Stream size : 504 MiB (2%)
Title : DD 5.1
Language : French
Service kind : Complete Main
Default : No
Forced : No
Original source medium : Blu-ray

Audio #7
ID : 8
ID in the original source medium : 4356 (0x1104)
Format : AC-3
Format/Info : Audio Coding 3
Commercial name : Dolby Digital
Codec ID : A_AC3
Duration : 1 h 50 min
Bit rate mode : Constant
Bit rate : 640 kb/s
Channel(s) : 6 channels
Channel layout : L R C LFE Ls Rs
Sampling rate : 48.0 kHz
Frame rate : 31.250 FPS (1536 SPF)
Compression mode : Lossy
Stream size : 504 MiB (2%)
Title : DD 5.1
Language : French
Service kind : Complete Main
Default : No
Forced : No
Original source medium : Blu-ray

Audio #8
ID : 9
ID in the original source medium : 4357 (0x1105)
Format : AC-3
Format/Info : Audio Coding 3
Commercial name : Dolby Digital
Codec ID : A_AC3
Duration : 1 h 50 min
Bit rate mode : Constant
Bit rate : 640 kb/s
Channel(s) : 6 channels
Channel layout : L R C LFE Ls Rs
Sampling rate : 48.0 kHz
Frame rate : 31.250 FPS (1536 SPF)
Compression mode : Lossy
Stream size : 504 MiB (2%)
Title : DD 5.1
Language : German
Service kind : Complete Main
Default : No
Forced : No
Original source medium : Blu-ray

Audio #9
ID : 10
ID in the original source medium : 4358 (0x1106)
Format : AC-3
Format/Info : Audio Coding 3
Commercial name : Dolby Digital
Format settings : Dolby Surround
Codec ID : A_AC3
Duration : 1 h 50 min
Bit rate mode : Constant
Bit rate : 192 kb/s
Channel(s) : 2 channels
Channel layout : L R
Sampling rate : 48.0 kHz
Frame rate : 31.250 FPS (1536 SPF)
Compression mode : Lossy
Stream size : 151 MiB (0%)
Title : DD 2.0
Language : German
Service kind : Complete Main
Default : No
Forced : No
Original source medium : Blu-ray

Audio #10
ID : 11
ID in the original source medium : 4359 (0x1107)
Format : AC-3
Format/Info : Audio Coding 3
Commercial name : Dolby Digital
Codec ID : A_AC3
Duration : 1 h 50 min
Bit rate mode : Constant
Bit rate : 640 kb/s
Channel(s) : 6 channels
Channel layout : L R C LFE Ls Rs
Sampling rate : 48.0 kHz
Frame rate : 31.250 FPS (1536 SPF)
Compression mode : Lossy
Stream size : 504 MiB (2%)
Title : DD 5.1
Language : Italian
Service kind : Complete Main
Default : No
Forced : No
Original source medium : Blu-ray

Audio #11
ID : 12
ID in the original source medium : 4360 (0x1108)
Format : AC-3
Format/Info : Audio Coding 3
Commercial name : Dolby Digital
Codec ID : A_AC3
Duration : 1 h 50 min
Bit rate mode : Constant
Bit rate : 640 kb/s
Channel(s) : 6 channels
Channel layout : L R C LFE Ls Rs
Sampling rate : 48.0 kHz
Frame rate : 31.250 FPS (1536 SPF)
Compression mode : Lossy
Stream size : 504 MiB (2%)
Title : DD 5.1
Language : Spanish
Service kind : Complete Main
Default : No
Forced : No
Original source medium : Blu-ray

Audio #12
ID : 13
ID in the original source medium : 4361 (0x1109)
Format : AC-3
Format/Info : Audio Coding 3
Commercial name : Dolby Digital
Codec ID : A_AC3
Duration : 1 h 50 min
Bit rate mode : Constant
Bit rate : 640 kb/s
Channel(s) : 6 channels
Channel layout : L R C LFE Ls Rs
Sampling rate : 48.0 kHz
Frame rate : 31.250 FPS (1536 SPF)
Compression mode : Lossy
Stream size : 504 MiB (2%)
Title : DD 5.1
Language : Spanish
Service kind : Complete Main
Default : No
Forced : No
Original source medium : Blu-ray

Audio #13
ID : 14
ID in the original source medium : 4362 (0x110A)
Format : AC-3
Format/Info : Audio Coding 3
Commercial name : Dolby Digital
Codec ID : A_AC3
Duration : 1 h 50 min
Bit rate mode : Constant
Bit rate : 640 kb/s
Channel(s) : 6 channels
Channel layout : L R C LFE Ls Rs
Sampling rate : 48.0 kHz
Frame rate : 31.250 FPS (1536 SPF)
Compression mode : Lossy
Stream size : 504 MiB (2%)
Title : DD 5.1
Language : Portuguese
Service kind : Complete Main
Default : No
Forced : No
Original source medium : Blu-ray

Text #1
ID : 15
Format : UTF-8
Codec ID : S_TEXT/UTF8
Codec ID/Info : UTF-8 Plain Text
Duration : 1 h 27 min
Bit rate : 40 b/s
Count of elements : 996
Stream size : 25.9 KiB (0%)
Title : SRT
Language : English
Default : Yes
Forced : No

Text #2
ID : 16
ID in the original source medium : 4608 (0x1200)
Format : PGS
Muxing mode : zlib
Codec ID : S_HDMV/PGS
Codec ID/Info : Picture based subtitle format used on BDs/HD-DVDs
Duration : 1 h 41 min
Bit rate : 28.4 kb/s
Count of elements : 2740
Stream size : 20.6 MiB (0%)
Language : English
Default : No
Forced : No
Original source medium : Blu-ray

Text #3
ID : 17
ID in the original source medium : 4609 (0x1201)
Format : PGS
Muxing mode : zlib
Codec ID : S_HDMV/PGS
Codec ID/Info : Picture based subtitle format used on BDs/HD-DVDs
Duration : 1 h 48 min
Bit rate : 17.3 kb/s
Count of elements : 1924
Stream size : 13.4 MiB (0%)
Language : French
Default : No
Forced : No
Original source medium : Blu-ray

Text #4
ID : 18
ID in the original source medium : 4610 (0x1202)
Format : PGS
Muxing mode : zlib
Codec ID : S_HDMV/PGS
Codec ID/Info : Picture based subtitle format used on BDs/HD-DVDs
Duration : 1 h 40 min
Bit rate : 29.2 kb/s
Count of elements : 2008
Stream size : 21.0 MiB (0%)
Language : German
Default : No
Forced : No
Original source medium : Blu-ray

Text #5
ID : 19
ID in the original source medium : 4611 (0x1203)
Format : PGS
Muxing mode : zlib
Codec ID : S_HDMV/PGS
Codec ID/Info : Picture based subtitle format used on BDs/HD-DVDs
Duration : 1 h 49 min
Bit rate : 27.2 kb/s
Count of elements : 2830
Stream size : 21.4 MiB (0%)
Language : Italian
Default : No
Forced : No
Original source medium : Blu-ray

Text #6
ID : 20
ID in the original source medium : 4612 (0x1204)
Format : PGS
Muxing mode : zlib
Codec ID : S_HDMV/PGS
Codec ID/Info : Picture based subtitle format used on BDs/HD-DVDs
Duration : 1 h 48 min
Bit rate : 20.5 kb/s
Count of elements : 1906
Stream size : 16.0 MiB (0%)
Language : Spanish
Default : No
Forced : No
Original source medium : Blu-ray

Text #7
ID : 21
ID in the original source medium : 4613 (0x1205)
Format : PGS
Muxing mode : zlib
Codec ID : S_HDMV/PGS
Codec ID/Info : Picture based subtitle format used on BDs/HD-DVDs
Duration : 1 h 48 min
Bit rate : 19.9 kb/s
Count of elements : 1862
Stream size : 15.5 MiB (0%)
Language : Dutch
Default : No
Forced : No
Original source medium : Blu-ray

Text #8
ID : 22
ID in the original source medium : 4614 (0x1206)
Format : PGS
Muxing mode : zlib
Codec ID : S_HDMV/PGS
Codec ID/Info : Picture based subtitle format used on BDs/HD-DVDs
Duration : 1 h 37 min
Bit rate : 23.5 kb/s
Count of elements : 1910
Stream size : 16.4 MiB (0%)
Language : Spanish
Default : No
Forced : No
Original source medium : Blu-ray

Text #9
ID : 23
ID in the original source medium : 4615 (0x1207)
Format : PGS
Muxing mode : zlib
Codec ID : S_HDMV/PGS
Codec ID/Info : Picture based subtitle format used on BDs/HD-DVDs
Duration : 1 h 48 min
Bit rate : 19.4 kb/s
Count of elements : 1906
Stream size : 15.1 MiB (0%)
Language : Portuguese
Default : No
Forced : No
Original source medium : Blu-ray

Text #10
ID : 24
ID in the original source medium : 4616 (0x1208)
Format : PGS
Muxing mode : zlib
Codec ID : S_HDMV/PGS
Codec ID/Info : Picture based subtitle format used on BDs/HD-DVDs
Duration : 1 h 48 min
Bit rate : 17.7 kb/s
Count of elements : 1246
Stream size : 13.8 MiB (0%)
Language : Danish
Default : No
Forced : No
Original source medium : Blu-ray

Text #11
ID : 25
ID in the original source medium : 4617 (0x1209)
Format : PGS
Muxing mode : zlib
Codec ID : S_HDMV/PGS
Codec ID/Info : Picture based subtitle format used on BDs/HD-DVDs
Duration : 1 h 48 min
Bit rate : 21.4 kb/s
Count of elements : 1928
Stream size : 16.7 MiB (0%)
Language : Finnish
Default : No
Forced : No
Original source medium : Blu-ray

Text #12
ID : 26
ID in the original source medium : 4618 (0x120A)
Format : PGS
Muxing mode : zlib
Codec ID : S_HDMV/PGS
Codec ID/Info : Picture based subtitle format used on BDs/HD-DVDs
Duration : 1 h 48 min
Bit rate : 19.9 kb/s
Count of elements : 1910
Stream size : 15.5 MiB (0%)
Language : Greek
Default : No
Forced : No
Original source medium : Blu-ray

Text #13
ID : 27
ID in the original source medium : 4619 (0x120B)
Format : PGS
Muxing mode : zlib
Codec ID : S_HDMV/PGS
Codec ID/Info : Picture based subtitle format used on BDs/HD-DVDs
Duration : 1 h 48 min
Bit rate : 18.7 kb/s
Count of elements : 1542
Stream size : 14.5 MiB (0%)
Language : Norwegian
Default : No
Forced : No
Original source medium : Blu-ray

Text #14
ID : 28
ID in the original source medium : 4620 (0x120C)
Format : PGS
Muxing mode : zlib
Codec ID : S_HDMV/PGS
Codec ID/Info : Picture based subtitle format used on BDs/HD-DVDs
Duration : 1 h 48 min
Bit rate : 18.1 kb/s
Count of elements : 1486
Stream size : 14.1 MiB (0%)
Language : Swedish
Default : No
Forced : No
Original source medium : Blu-ray

Text #15
ID : 29
ID in the original source medium : 4621 (0x120D)
Format : PGS
Muxing mode : zlib
Codec ID : S_HDMV/PGS
Codec ID/Info : Picture based subtitle format used on BDs/HD-DVDs
Duration : 1 h 37 min
Bit rate : 1 308 b/s
Count of elements : 102
Stream size : 938 KiB (0%)
Language : French
Default : No
Forced : No
Original source medium : Blu-ray

Text #16
ID : 30
ID in the original source medium : 4622 (0x120E)
Format : PGS
Muxing mode : zlib
Codec ID : S_HDMV/PGS
Codec ID/Info : Picture based subtitle format used on BDs/HD-DVDs
Duration : 1 h 37 min
Bit rate : 950 b/s
Count of elements : 90
Stream size : 682 KiB (0%)
Language : French
Default : No
Forced : No
Original source medium : Blu-ray

Text #17
ID : 31
ID in the original source medium : 4623 (0x120F)
Format : PGS
Muxing mode : zlib
Codec ID : S_HDMV/PGS
Codec ID/Info : Picture based subtitle format used on BDs/HD-DVDs
Duration : 1 h 34 min
Bit rate : 1 367 b/s
Count of elements : 86
Stream size : 945 KiB (0%)
Language : German
Default : No
Forced : No
Original source medium : Blu-ray

Text #18
ID : 32
ID in the original source medium : 4624 (0x1210)
Format : PGS
Muxing mode : zlib
Codec ID : S_HDMV/PGS
Codec ID/Info : Picture based subtitle format used on BDs/HD-DVDs
Duration : 1 h 34 min
Bit rate : 1 317 b/s
Count of elements : 102
Stream size : 911 KiB (0%)
Language : Italian
Default : No
Forced : No
Original source medium : Blu-ray

Text #19
ID : 33
ID in the original source medium : 4625 (0x1211)
Format : PGS
Muxing mode : zlib
Codec ID : S_HDMV/PGS
Codec ID/Info : Picture based subtitle format used on BDs/HD-DVDs
Duration : 1 h 37 min
Bit rate : 1 224 b/s
Count of elements : 102
Stream size : 878 KiB (0%)
Language : Spanish
Default : No
Forced : No
Original source medium : Blu-ray

Text #20
ID : 34
ID in the original source medium : 4626 (0x1212)
Format : PGS
Muxing mode : zlib
Codec ID : S_HDMV/PGS
Codec ID/Info : Picture based subtitle format used on BDs/HD-DVDs
Duration : 1 h 37 min
Bit rate : 1 415 b/s
Count of elements : 110
Stream size : 1 015 KiB (0%)
Language : Spanish
Default : No
Forced : No
Original source medium : Blu-ray

Text #21
ID : 35
ID in the original source medium : 4627 (0x1213)
Format : PGS
Muxing mode : zlib
Codec ID : S_HDMV/PGS
Codec ID/Info : Picture based subtitle format used on BDs/HD-DVDs
Duration : 1 h 37 min
Bit rate : 1 227 b/s
Count of elements : 100
Stream size : 880 KiB (0%)
Language : Portuguese
Default : No
Forced : No
Original source medium : Blu-ray

Menu
00:00:00.000 : Chapter 01
00:02:34.863 : Chapter 02
00:07:25.403 : Chapter 03
00:12:53.939 : Chapter 04
00:19:13.569 : Chapter 05
00:27:24.893 : Chapter 06
00:34:47.668 : Chapter 07
00:42:14.073 : Chapter 08
00:47:39.606 : Chapter 09
00:56:39.604 : Chapter 10
01:05:49.570 : Chapter 11
01:13:04.213 : Chapter 12
01:19:23.675 : Chapter 13
01:27:17.774 : Chapter 14
01:35:45.030 : Chapter 15
01:38:58.933 : Chapter 16

本帖子中包含更多资源

您需要 登录 才可以下载或查看,没有帐号?立即注册

x
回复

使用道具 举报

0

主题

482

帖子

2548

积分

金牌会员

Rank: 6Rank: 6

积分
2548
发表于 2021-7-3 19:32:40 | 显示全部楼层
感谢楼主热心分享
回复

使用道具 举报

0

主题

1240

帖子

5266

积分

论坛元老

Rank: 8Rank: 8

积分
5266
发表于 2021-7-3 21:18:32 | 显示全部楼层
感谢楼主分享
回复

使用道具 举报

0

主题

60

帖子

240

积分

中级会员

Rank: 3Rank: 3

积分
240
发表于 2021-7-5 10:47:59 | 显示全部楼层
谢谢楼主分享佳片!
回复

使用道具 举报

0

主题

60

帖子

240

积分

中级会员

Rank: 3Rank: 3

积分
240
发表于 2021-7-5 10:50:31 | 显示全部楼层
谢谢楼主分享佳片!
回复

使用道具 举报

您需要登录后才可以回帖 登录 | 立即注册

本版积分规则

QQ|Archiver|手机版|小黑屋|原盘天堂 好多盘 点击这里给我发消息

GMT+8, 2021-7-27 19:25 , Processed in 0.062465 second(s), 25 queries .

Powered by Discuz! X3.4

Copyright © 2001-2020, Tencent Cloud.

快速回复 返回顶部 返回列表