请选择 进入手机版 | 继续访问电脑版
本站Q群713428235【盘盘多】已满,请新会员加原盘天堂新官方QQ群709708625【好多盘】,验证信息填写您在论坛的会员名,不填会员名的无法入群哈,进群后修改您的群名片名字为您在论坛的会员名,请务必修改,否则群成员多了不知道您是哪个会员。

原盘天堂

 找回密码
 立即注册
京东商城当当华为商城名牌时尚折扣网,一个新型的网上购物平台,我们每周为您精选3~4个国际知名品牌,商品折扣低至2折限时限量售卖,商品囊括时装、护肤品、箱包、皮具、配饰、香水等等,琳琅满目。亿格瑞A10硬盘播放器 苏宁易购
查看: 124|回复: 2

2d蓝光原盘bdmv 法式出口 英语原版 french.exit.2020.1080p.bluray.avc.dts-hd.ma.5.1[32.39 GB]

[复制链接]

6152

主题

6859

帖子

133万

积分

管理员

Rank: 18Rank: 18Rank: 18Rank: 18Rank: 18

积分
1335008
发表于 2021-7-3 01:43:24 | 显示全部楼层 |阅读模式








法式出口 French Exit (2020)

导演: 阿扎泽·雅各布斯
编剧: 帕特里克·德威特
主演: 米歇尔·菲佛 / 卢卡斯·赫奇斯 / 崔西·莱茨 / 维勒莉·玛哈菲 / 苏珊·柯尼 / 更多...
类型: 剧情 / 喜剧
制片国家/地区: 加拿大 / 爱尔兰 / 英国
语言: 英语
上映日期: 2020-10-10(纽约电影节) / 2021-02-12(美国点映) / 2021-04-02(美国)
片长: 113分钟
又名: 法式告别 / 法式出路
IMDb: tt10279362
资源名称: 法式出口.French.Exit.2020.tt10279362

豆瓣评分
6.3
795人评价
5星 6.8%
4星 23.7%
3星 50.1%
2星 17.6%
1星 1.8%

剧情简介 · · · · · ·
  米歇尔·菲佛、卢卡斯·赫奇斯、崔西·莱茨将出演超现实主义喜剧片[法国出口](French Exit,暂译)。阿扎泽·雅各布斯将执导这部改编自帕特里克·德维特小说的电影。菲佛饰演60岁的曼哈顿社交名媛弗朗西丝·普莱斯,赫奇斯饰演她没有方向的儿子马尔科姆,莱茨饰演她已故多年的丈夫富兰克林的化身——一只家猫。

DISC INFO:

Disc Title:     French.Exit.2020.COMPLETE.BLURAY-OPTiCAL
Disc Size:      34,769,946,679 bytes
Protection:     AACS
BDInfo:         0.7.5.9 (compatible layout created by DVDFab 12.0.3.5)

PLAYLIST REPORT:

Name:                   00003.MPLS  
Length:                 1:53:01.941 (h:m:s.ms)
Size:                   31,081,746,432 bytes
Total Bitrate:          36.66 Mbps

VIDEO:

Codec                   Bitrate             Description     
-----                   -------             -----------     
MPEG-4 AVC Video        30915 kbps          1080p / 23.976 fps / 16:9 / High Profile 4.1

AUDIO:

Codec                           Language        Bitrate         Description     
-----                           --------        -------         -----------     
DTS-HD Master Audio             English         3379 kbps       5.1 / 48 kHz / 3379 kbps / 24-bit (DTS Core: 5.1 / 48 kHz / 1509 kbps / 24-bit)
Dolby Digital Audio             English         448 kbps        5.1 / 48 kHz / 448 kbps

SUBTITLES:

Codec                           Language        Bitrate         Description     
-----                           --------        -------         -----------     
Presentation Graphics           English         21.271 kbps                     
Presentation Graphics           English         24.826 kbps                     
Presentation Graphics           French          16.958 kbps                     
Presentation Graphics           Spanish         21.122 kbps                     
Presentation Graphics           English         0.184 kbps   

Video
ID : 1
ID in the original source medium : 4113 (0x1011)
Format : AVC
Format/Info : Advanced Video Codec
Format profile : [email protected]
Format settings : CABAC / 2 Ref Frames
Format settings, CABAC : Yes
Format settings, Reference frames : 2 frames
Codec ID : V_MPEG4/ISO/AVC
Duration : 1 h 52 min
Bit rate mode : Variable
Bit rate : 31.0 Mb/s
Maximum bit rate : 38.2 Mb/s
Width : 1 920 pixels
Height : 1 080 pixels
Display aspect ratio : 16:9
Frame rate mode : Constant
Frame rate : 23.976 (24000/1001) FPS
Color space : YUV
Chroma subsampling : 4:2:0
Bit depth : 8 bits
Scan type : Progressive
Bits/(Pixel*Frame) : 0.623
Stream size : 24.4 GiB (89%)
Language : English
Default : No
Forced : No
Original source medium : Blu-ray

Audio #1
ID : 2
ID in the original source medium : 4352 (0x1100)
Format : DTS XLL
Format/Info : Digital Theater Systems
Commercial name : DTS-HD Master Audio
Codec ID : A_DTS
Duration : 1 h 52 min
Bit rate mode : Variable
Bit rate : 3 379 kb/s
Channel(s) : 6 channels
Channel layout : C L R Ls Rs LFE
Sampling rate : 48.0 kHz
Frame rate : 93.750 FPS (512 SPF)
Bit depth : 24 bits
Compression mode : Lossless
Stream size : 2.66 GiB (10%)
Title : DTS-HD MA 5.1
Language : English
Default : Yes
Forced : No
Original source medium : Blu-ray

Audio #2
ID : 3
ID in the original source medium : 4353 (0x1101)
Format : AC-3
Format/Info : Audio Coding 3
Commercial name : Dolby Digital
Codec ID : A_AC3
Duration : 1 h 52 min
Bit rate mode : Constant
Bit rate : 448 kb/s
Channel(s) : 6 channels
Channel layout : L R C LFE Ls Rs
Sampling rate : 48.0 kHz
Frame rate : 31.250 FPS (1536 SPF)
Compression mode : Lossy
Stream size : 362 MiB (1%)
Title : DD 5.1
Language : English
Service kind : Complete Main
Default : No
Forced : No
Original source medium : Blu-ray

Text #1
ID : 4
Format : UTF-8
Codec ID : S_TEXT/UTF8
Codec ID/Info : UTF-8 Plain Text
Duration : 48 min 50 s
Bit rate : 0 b/s
Count of elements : 10
Stream size : 286 Bytes (0%)
Title : FORCED
Language : English
Default : Yes
Forced : Yes

Text #2
ID : 5
Format : UTF-8
Codec ID : S_TEXT/UTF8
Codec ID/Info : UTF-8 Plain Text
Duration : 1 h 44 min
Bit rate : 41 b/s
Count of elements : 1020
Stream size : 31.9 KiB (0%)
Language : English
Default : No
Forced : No

Text #3
ID : 6
ID in the original source medium : 4608 (0x1200)
Format : PGS
Muxing mode : zlib
Codec ID : S_HDMV/PGS
Codec ID/Info : Picture based subtitle format used on BDs/HD-DVDs
Duration : 1 h 44 min
Bit rate : 23.0 kb/s
Count of elements : 2060
Stream size : 17.2 MiB (0%)
Language : English
Default : No
Forced : No
Original source medium : Blu-ray

Text #4
ID : 7
ID in the original source medium : 4608 (0x1200)
Format : PGS
Muxing mode : zlib
Codec ID : S_HDMV/PGS
Codec ID/Info : Picture based subtitle format used on BDs/HD-DVDs
Duration : 48 min 50 s
Bit rate : 424 b/s
Count of elements : 20
Stream size : 152 KiB (0%)
Language : English
Default : No
Forced : No
Original source medium : Blu-ray

Text #5
ID : 8
ID in the original source medium : 4609 (0x1201)
Format : PGS
Muxing mode : zlib
Codec ID : S_HDMV/PGS
Codec ID/Info : Picture based subtitle format used on BDs/HD-DVDs
Duration : 1 h 45 min
Bit rate : 26.5 kb/s
Count of elements : 2394
Stream size : 20.0 MiB (0%)
Language : English
Default : No
Forced : No
Original source medium : Blu-ray

Text #6
ID : 9
ID in the original source medium : 4610 (0x1202)
Format : PGS
Muxing mode : zlib
Codec ID : S_HDMV/PGS
Codec ID/Info : Picture based subtitle format used on BDs/HD-DVDs
Duration : 1 h 51 min
Bit rate : 17.1 kb/s
Count of elements : 2032
Stream size : 13.7 MiB (0%)
Language : French
Default : No
Forced : No
Original source medium : Blu-ray

Text #7
ID : 10
ID in the original source medium : 4611 (0x1203)
Format : PGS
Muxing mode : zlib
Codec ID : S_HDMV/PGS
Codec ID/Info : Picture based subtitle format used on BDs/HD-DVDs
Duration : 1 h 51 min
Bit rate : 21.3 kb/s
Count of elements : 2080
Stream size : 17.0 MiB (0%)
Language : Spanish
Default : No
Forced : No
Original source medium : Blu-ray

Menu
00:00:00.000 : Chapter 01
00:10:42.558 : Chapter 02
00:19:28.125 : Chapter 03
00:25:27.526 : Chapter 04
00:35:12.568 : Chapter 05
00:47:02.653 : Chapter 06
00:52:10.919 : Chapter 07
01:00:25.163 : Chapter 08
01:08:27.770 : Chapter 09
01:13:41.708 : Chapter 10
01:17:07.789 : Chapter 11
01:23:57.532 : Chapter 12
01:34:08.017 : Chapter 13
01:38:56.847 : Chapter 14
01:41:21.825 : Chapter 15
01:43:56.063 : Chapter 16
01:45:57.934 : Chapter 17

本帖子中包含更多资源

您需要 登录 才可以下载或查看,没有帐号?立即注册

x
回复

使用道具 举报

0

主题

1240

帖子

5266

积分

论坛元老

Rank: 8Rank: 8

积分
5266
发表于 2021-7-3 21:23:28 | 显示全部楼层
感谢楼主分享
回复

使用道具 举报

0

主题

60

帖子

240

积分

中级会员

Rank: 3Rank: 3

积分
240
发表于 2021-7-4 01:34:31 | 显示全部楼层
感謝樓主的分享
回复

使用道具 举报

您需要登录后才可以回帖 登录 | 立即注册

本版积分规则

QQ|Archiver|手机版|小黑屋|原盘天堂 好多盘 点击这里给我发消息

GMT+8, 2021-7-27 21:09 , Processed in 0.073738 second(s), 25 queries .

Powered by Discuz! X3.4

Copyright © 2001-2020, Tencent Cloud.

快速回复 返回顶部 返回列表