请选择 进入手机版 | 继续访问电脑版
本站Q群713428235【盘盘多】已满,请新会员加原盘天堂新官方QQ群709708625【好多盘】,验证信息填写您在论坛的会员名,不填会员名的无法入群哈,进群后修改您的群名片名字为您在论坛的会员名,请务必修改,否则群成员多了不知道您是哪个会员。

原盘天堂

 找回密码
 立即注册
京东商城当当华为商城名牌时尚折扣网,一个新型的网上购物平台,我们每周为您精选3~4个国际知名品牌,商品折扣低至2折限时限量售卖,商品囊括时装、护肤品、箱包、皮具、配饰、香水等等,琳琅满目。亿格瑞A10硬盘播放器 苏宁易购
查看: 116|回复: 4

2d蓝光原盘remux 魔发 英语原版 bad.hair.2020.1080p.bluray.remux.avc.dts-hd.ma.5.1[25.94 GB]

[复制链接]

6152

主题

6859

帖子

133万

积分

管理员

Rank: 18Rank: 18Rank: 18Rank: 18Rank: 18

积分
1334984
发表于 2021-7-3 01:13:25 | 显示全部楼层 |阅读模式






魔发 Bad Hair (2020)

导演: Justin Simien
编剧: Justin Simien
主演: 科琳·玛西亚 / 杰·费罗尔 / 莫西斯·斯托姆 / 詹姆斯·范德比克 / 丽娜·维特 / 更多...
类型: 喜剧 / 恐怖
制片国家/地区: 美国
语言: 英语
上映日期: 2020-01-23(圣丹斯电影节) / 2020-10-23(美国)
又名: 髮噩夢(港)
IMDb: tt4798836
描述文本: 获取
资源名称: 魔发.Bad.Hair.2020.tt4798836

豆瓣评分
5.3
425人评价
5星 4.1%
4星 9.1%
3星 46.8%
2星 28.1%
1星 11.8%

魔发的剧情简介 · · · · · ·
  1989年是电视影像的黄金年代,要红、要上位,外表就要够抢眼!安娜一心打算在MTV电视台大展拳脚,怎料却被高层嫌造型太差。为博成名,她决定织髮换形象,结果有如施展了魔法般,事业开始起飞。可是安娜慢慢发现,伴随名利而来的代价竟然异常巨大──她那头新秀髮竟然有自我意识,甚至令她陷入死亡危机!

Video
ID : 1
ID in the original source medium : 4113 (0x1011)
Format : AVC
Format/Info : Advanced Video Codec
Format profile : [email protected]
Format settings : CABAC / 4 Ref Frames
Format settings, CABAC : Yes
Format settings, Reference frames : 4 frames
Codec ID : V_MPEG4/ISO/AVC
Duration : 1 h 42 min
Bit rate mode : Variable
Bit rate : 32.6 Mb/s
Maximum bit rate : 36.0 Mb/s
Width : 1 920 pixels
Height : 1 080 pixels
Display aspect ratio : 16:9
Frame rate mode : Constant
Frame rate : 24.000 FPS
Color space : YUV
Chroma subsampling : 4:2:0
Bit depth : 8 bits
Scan type : Progressive
Bits/(Pixel*Frame) : 0.655
Stream size : 23.4 GiB (90%)
Language : English
Default : No
Forced : No
Original source medium : Blu-ray

Audio
ID : 2
ID in the original source medium : 4353 (0x1101)
Format : DTS XLL
Format/Info : Digital Theater Systems
Commercial name : DTS-HD Master Audio
Codec ID : A_DTS
Duration : 1 h 42 min
Bit rate mode : Variable
Bit rate : 3 540 kb/s
Channel(s) : 6 channels
Channel layout : C L R Ls Rs LFE
Sampling rate : 48.0 kHz
Frame rate : 93.750 FPS (512 SPF)
Bit depth : 24 bits
Compression mode : Lossless
Stream size : 2.54 GiB (10%)
Title : DTS-HD MA 5.1
Language : English
Default : Yes
Forced : No
Original source medium : Blu-ray

Text #1
ID : 3
Format : UTF-8
Codec ID : S_TEXT/UTF8
Codec ID/Info : UTF-8 Plain Text
Duration : 1 h 41 min
Bit rate : 62 b/s
Count of elements : 1482
Stream size : 46.5 KiB (0%)
Language : English
Default : Yes
Forced : No

Text #2
ID : 4
Format : UTF-8
Codec ID : S_TEXT/UTF8
Codec ID/Info : UTF-8 Plain Text
Duration : 1 h 41 min
Bit rate : 73 b/s
Count of elements : 1768
Stream size : 54.9 KiB (0%)
Title : SDH
Language : English
Default : No
Forced : No

Menu
00:00:00.000 : Chapter 01
00:14:41.833 : Chapter 02
00:24:28.208 : Chapter 03
00:35:22.333 : Chapter 04
00:43:30.333 : Chapter 05
00:54:06.916 : Chapter 06
01:05:12.375 : Chapter 07
01:14:23.333 : Chapter 08
01:25:26.416 : Chapter 09
01:36:07.250 : Chapter 10

本帖子中包含更多资源

您需要 登录 才可以下载或查看,没有帐号?立即注册

x
回复

使用道具 举报

0

主题

1240

帖子

5266

积分

论坛元老

Rank: 8Rank: 8

积分
5266
发表于 2021-7-3 21:20:38 | 显示全部楼层
感谢楼主分享
回复

使用道具 举报

0

主题

60

帖子

240

积分

中级会员

Rank: 3Rank: 3

积分
240
发表于 2021-7-4 01:31:31 | 显示全部楼层
感謝樓主的分享
回复

使用道具 举报

0

主题

60

帖子

240

积分

中级会员

Rank: 3Rank: 3

积分
240
发表于 2021-7-6 02:02:54 | 显示全部楼层
感謝樓主的分享
回复

使用道具 举报

0

主题

60

帖子

240

积分

中级会员

Rank: 3Rank: 3

积分
240
发表于 2021-7-6 02:04:11 | 显示全部楼层
感謝樓主的分享
回复

使用道具 举报

您需要登录后才可以回帖 登录 | 立即注册

本版积分规则

QQ|Archiver|手机版|小黑屋|原盘天堂 好多盘 点击这里给我发消息

GMT+8, 2021-7-27 19:54 , Processed in 0.060692 second(s), 25 queries .

Powered by Discuz! X3.4

Copyright © 2001-2020, Tencent Cloud.

快速回复 返回顶部 返回列表