请选择 进入手机版 | 继续访问电脑版
本站Q群713428235【盘盘多】已满,请新会员加原盘天堂新官方QQ群709708625【好多盘】,验证信息填写您在论坛的会员名,不填会员名的无法入群哈,进群后修改您的群名片名字为您在论坛的会员名,请务必修改,否则群成员多了不知道您是哪个会员。

原盘天堂

 找回密码
 立即注册
京东商城当当华为商城名牌时尚折扣网,一个新型的网上购物平台,我们每周为您精选3~4个国际知名品牌,商品折扣低至2折限时限量售卖,商品囊括时装、护肤品、箱包、皮具、配饰、香水等等,琳琅满目。亿格瑞A10硬盘播放器 苏宁易购
查看: 117|回复: 1

2d蓝光原盘bdmv 三只老虎 中字 the.paper.tigers.2020.1080p.bluray.avc.dts-hd.ma.5.1[43.27 GB]

[复制链接]

6152

主题

6859

帖子

133万

积分

管理员

Rank: 18Rank: 18Rank: 18Rank: 18Rank: 18

积分
1335008
发表于 2021-7-2 20:30:46 | 显示全部楼层 |阅读模式






◎译  名 三只老虎 / 三纸老虎
◎片  名 The Paper Tigers
◎年  代 2019
◎产  地 美国
◎类  别 喜剧 / 动作
◎IMDb评分  7.6/10 from 88 users
◎IMDb链接  https://www.imdb.com/title/tt6060444
◎豆瓣评分 0/10 from 0 users
◎豆瓣链接 https://movie.douban.com/subject/34847463/
◎导  演 Quoc Bao Tran
◎编  剧 Quoc Bao Tran
◎主  演 贾·桑·朴 Jae Suh Park
       冈本玉二 Yuji Okumoto
       约书亚·萨达索 Yoshua Sudarso
       袁文忠 Ron Yuan
       袁之正 Roger Yuan
       米凯尔·珊农·詹金斯 Mykel Shannon Jenkins


◎标  签 美國 | 功夫 | PB-BusanB亚州之窗单元 | Seattle | IFFAM | 2020

◎简  介  

  A deadbeat dad, an insurance scammer, and an MMA coach must avenge their Kung Fu master's death but first - they need to call in sick at their 9-to-5's.


DISC INFO:

Disc Title:     The.Paper.Tigers.2020.1080p.BluRay.AVC.DTS-HD.MA.5.1-FGT
Disc Size:      46,461,217,302 bytes
Protection:     AACS
BDInfo:         0.7.5.9 (compatible layout created by DVDFab 12.0.3.5)

PLAYLIST REPORT:

Name:                   00001.MPLS  
Length:                 1:50:48.642 (h:m:s.ms)
Size:                   35,745,226,752 bytes
Total Bitrate:          43.01 Mbps

VIDEO:

Codec                   Bitrate             Description     
-----                   -------             -----------     
MPEG-4 AVC Video        37997 kbps          1080p / 23.976 fps / 16:9 / High Profile 4.1

AUDIO:

Codec                           Language        Bitrate         Description     
-----                           --------        -------         -----------     
DTS-HD Master Audio             English         2330 kbps       5.1 / 48 kHz / 2330 kbps / 16-bit (DTS Core: 5.1 / 48 kHz / 1509 kbps / 16-bit)
Dolby Digital Audio             English         384 kbps        2.0 / 48 kHz / 384 kbps

SUBTITLES:

Codec                           Language        Bitrate         Description     
-----                           --------        -------         -----------     
Presentation Graphics           English         43.077 kbps                     
Presentation Graphics           Korean          25.409 kbps                     
Presentation Graphics           Chinese         33.981 kbps                     
Presentation Graphics           Chinese         31.573 kbps                     
Presentation Graphics           Vietnamese      35.266 kbps

Video
ID : 1
ID in the original source medium : 4113 (0x1011)
Format : AVC
Format/Info : Advanced Video Codec
Format profile : [email protected]
Format settings : CABAC / 4 Ref Frames
Format settings, CABAC : Yes
Format settings, Reference frames : 4 frames
Codec ID : V_MPEG4/ISO/AVC
Duration : 1 h 50 min
Bit rate mode : Variable
Bit rate : 37.1 Mb/s
Maximum bit rate : 39.0 Mb/s
Width : 1 920 pixels
Height : 1 080 pixels
Display aspect ratio : 16:9
Frame rate mode : Constant
Frame rate : 23.976 (24000/1001) FPS
Color space : YUV
Chroma subsampling : 4:2:0
Bit depth : 8 bits
Scan type : Progressive
Bits/(Pixel*Frame) : 0.747
Stream size : 28.7 GiB (94%)
Language : English
Default : No
Forced : No
Original source medium : Blu-ray

Audio
ID : 2
ID in the original source medium : 4352 (0x1100)
Format : DTS XLL
Format/Info : Digital Theater Systems
Commercial name : DTS-HD Master Audio
Codec ID : A_DTS
Duration : 1 h 50 min
Bit rate mode : Variable
Bit rate : 2 330 kb/s
Channel(s) : 6 channels
Channel layout : C L R Ls Rs LFE
Sampling rate : 48.0 kHz
Frame rate : 93.750 FPS (512 SPF)
Bit depth : 16 bits
Compression mode : Lossless
Stream size : 1.80 GiB (6%)
Title : DTS-HD MA 5.1
Language : English
Default : Yes
Forced : No
Original source medium : Blu-ray

Text #1
ID : 3
Format : UTF-8
Codec ID : S_TEXT/UTF8
Codec ID/Info : UTF-8 Plain Text
Duration : 1 h 23 min
Bit rate : 0 b/s
Count of elements : 8
Stream size : 190 Bytes (0%)
Title : FORCED
Language : English
Default : Yes
Forced : No

Text #2
ID : 4
Format : UTF-8
Codec ID : S_TEXT/UTF8
Codec ID/Info : UTF-8 Plain Text
Duration : 1 h 44 min
Bit rate : 58 b/s
Count of elements : 1697
Stream size : 44.9 KiB (0%)
Language : English
Default : No
Forced : No

Text #3
ID : 5
ID in the original source medium : 4608 (0x1200)
Format : PGS
Muxing mode : zlib
Codec ID : S_HDMV/PGS
Codec ID/Info : Picture based subtitle format used on BDs/HD-DVDs
Duration : 1 h 46 min
Bit rate : 44.9 kb/s
Count of elements : 3394
Stream size : 34.1 MiB (0%)
Language : English
Default : No
Forced : No
Original source medium : Blu-ray

Text #4
ID : 6
ID in the original source medium : 4609 (0x1201)
Format : PGS
Muxing mode : zlib
Codec ID : S_HDMV/PGS
Codec ID/Info : Picture based subtitle format used on BDs/HD-DVDs
Duration : 1 h 45 min
Bit rate : 26.8 kb/s
Count of elements : 2865
Stream size : 20.1 MiB (0%)
Language : Korean
Default : No
Forced : No
Original source medium : Blu-ray

Text #5
ID : 7
ID in the original source medium : 4610 (0x1202)
Format : PGS
Muxing mode : zlib
Codec ID : S_HDMV/PGS
Codec ID/Info : Picture based subtitle format used on BDs/HD-DVDs
Duration : 1 h 45 min
Bit rate : 35.8 kb/s
Count of elements : 2813
Stream size : 26.9 MiB (0%)
Language : Chinese
Default : No
Forced : No
Original source medium : Blu-ray

Text #6
ID : 8
ID in the original source medium : 4611 (0x1203)
Format : PGS
Muxing mode : zlib
Codec ID : S_HDMV/PGS
Codec ID/Info : Picture based subtitle format used on BDs/HD-DVDs
Duration : 1 h 44 min
Bit rate : 33.4 kb/s
Count of elements : 2808
Stream size : 25.0 MiB (0%)
Language : Chinese
Default : No
Forced : No
Original source medium : Blu-ray

Text #7
ID : 9
ID in the original source medium : 4612 (0x1204)
Format : PGS
Muxing mode : zlib
Codec ID : S_HDMV/PGS
Codec ID/Info : Picture based subtitle format used on BDs/HD-DVDs
Duration : 1 h 44 min
Bit rate : 37.3 kb/s
Count of elements : 3356
Stream size : 28.0 MiB (0%)
Language : Vietnamese
Default : No
Forced : No
Original source medium : Blu-ray

Menu
00:00:00.000 : Chapter 01
00:09:45.626 : Chapter 02
00:19:30.294 : Chapter 03
00:31:05.864 : Chapter 04
00:44:30.250 : Chapter 05
00:52:50.584 : Chapter 06
01:04:33.828 : Chapter 07
01:15:05.000 : Chapter 08
01:26:18.506 : Chapter 09
01:37:38.894 : Chapter 10
01:47:01.540 : Chapter 11

本帖子中包含更多资源

您需要 登录 才可以下载或查看,没有帐号?立即注册

x
回复

使用道具 举报

0

主题

821

帖子

3960

积分

论坛元老

Rank: 8Rank: 8

积分
3960
发表于 4 天前 | 显示全部楼层
楼主发贴辛苦了,
回复

使用道具 举报

您需要登录后才可以回帖 登录 | 立即注册

本版积分规则

QQ|Archiver|手机版|小黑屋|原盘天堂 好多盘 点击这里给我发消息

GMT+8, 2021-7-27 20:57 , Processed in 0.058520 second(s), 25 queries .

Powered by Discuz! X3.4

Copyright © 2001-2020, Tencent Cloud.

快速回复 返回顶部 返回列表