请选择 进入手机版 | 继续访问电脑版
本站Q群713428235【盘盘多】已满,请新会员加原盘天堂新官方QQ群709708625【好多盘】,验证信息填写您在论坛的会员名,不填会员名的无法入群哈,进群后修改您的群名片名字为您在论坛的会员名,请务必修改,否则群成员多了不知道您是哪个会员。

原盘天堂

 找回密码
 立即注册
京东商城当当华为商城名牌时尚折扣网,一个新型的网上购物平台,我们每周为您精选3~4个国际知名品牌,商品折扣低至2折限时限量售卖,商品囊括时装、护肤品、箱包、皮具、配饰、香水等等,琳琅满目。亿格瑞A10硬盘播放器 苏宁易购
查看: 1661|回复: 8

2d蓝光原盘remux 大腕 国语中字 big.shots.funeral.2001.chinese.1080p.bluray.remux.avc.dts-hd.ma.5.1[30.66 GB]

[复制链接]

7985

主题

9307

帖子

136万

积分

管理员

Rank: 18Rank: 18Rank: 18Rank: 18Rank: 18

积分
1365235
发表于 2021-6-26 13:40:44 | 显示全部楼层 |阅读模式




◎译  名 Big Shot's Funeral
◎片  名 大腕
◎年  代 2001
◎产  地 中国大陆 / 中国香港
◎类  别 喜剧
◎语  言 汉语普通话 / 英语
◎上映日期 2001-12-21(中国大陆)
◎IMDb评分  6.7/10 from 2076 users
◎IMDb链接  https://www.imdb.com/title/tt0287934
◎豆瓣评分 7.9/10 from 173691 users
◎豆瓣链接 https://movie.douban.com/subject/1304022/
◎片  长 103分钟
◎导  演 冯小刚 Xiaogang Feng
◎编  剧 石康 Kang Shi / 冯小刚 Xiaogang Feng / 李晓明 Xiaoming Li
◎主  演 葛优 You Ge
       关之琳 Rosamund Kwan
       英达 Da Ying
       保罗·马祖斯基 Paul Mazursky
       唐纳德·萨瑟兰 Donald Sutherland
       李诚儒 Chengru Li
       张涵予 Hanyu Zhang
       傅彪 Biao Fu
       刘仪伟 Yiwei Liu
       克里斯托弗·巴登 Christopher Barden
       何平 Ping He
       牛飘 Piao Niu
       杜宝宝 Paul Duke
       李晓耕 Xiaogeng Li
       许晓力 Xiaoli Xu
       叶宏 Hong Ye
       袁德旺 Dewang Yuan
       张晞临 Xilin Zhang
       杨欣 Xin Yang
       吉米 Jimmy
       徐啸力 Xiaoli Xu
       王宝强 Baoqiang Wang
       邓广埙 Guangxun Deng
       芮丽蓉 Lirong Rui
       添田武人 Soeda Takehito


◎标  签 冯小刚 | 喜剧 | 葛优 | 中国电影 | 中国 | 大陆 | 搞笑 | 黑色幽默

◎简  介  

  尤优(葛优饰)接到个美差,拍一部宣传记录片记录好莱坞大腕导演泰勒(唐纳德•萨瑟兰饰)在中国拍摄影片的工作过程。一开始工作顺利,但随着制片人托尼(保罗•莫索尔斯基饰)的到来,事情起了变化。闲下来的尤优和泰勒、泰勒的助手露茜(关之琳饰)到寺庙游览,三人相处得非常愉快。不料几天后泰勒因心脏病发作,生命垂危,他希望尤优能为自己操办个喜丧葬礼,尤优揽下活儿。尤优找到老同学王小柱(英达饰),泰勒将死对王来说是一个难得商机,对托尼来说也是如此,惟有尤优和露茜是怀着朴实感情面对此事。王小柱开始出谋献策,拉了好多赞助,众多商家不惜花大钱在葬礼上做广告。局面变得无法收拾,却不料,在葬礼的背后另有玄机。

◎获奖情况  

  第22届香港电影金像奖(2003)
  最佳亚洲电影(提名)

  第25届大众电影百花奖(2002)
  最佳故事片
  最佳男演员 葛优
  最佳男配角 英达

  第2届华语电影传媒大奖(2002)
  最佳男演员 葛优
  最佳电影(提名)
  最佳导演(提名) 冯小刚

  第9届北京大学生电影节(2002)
  最佳观赏效果奖
  最受大学生欢迎男演员 葛优

Video
ID : 1
Format : AVC
Format/Info : Advanced Video Codec
Format profile : [email protected]
Format settings : CABAC / 4 Ref Frames
Format settings, CABAC : Yes
Format settings, Reference frames : 4 frames
Codec ID : V_MPEG4/ISO/AVC
Duration : 1 h 47 min
Bit rate mode : Variable
Bit rate : 37.6 Mb/s
Maximum bit rate : 39.0 Mb/s
Width : 1 920 pixels
Height : 1 080 pixels
Display aspect ratio : 16:9
Frame rate mode : Constant
Frame rate : 24.000 FPS
Color space : YUV
Chroma subsampling : 4:2:0
Bit depth : 8 bits
Scan type : Progressive
Bits/(Pixel*Frame) : 0.756
Stream size : 28.1 GiB (92%)
Title : Big.Shots.Funeral.2001.CHINESE.1080p.BluRay.REMUX.AVC.DTS-HD.MA.5.1-FGT
Language : English
Default : No
Forced : No

Audio
ID : 2
Format : DTS XLL
Format/Info : Digital Theater Systems
Commercial name : DTS-HD Master Audio
Codec ID : A_DTS
Duration : 1 h 47 min
Bit rate mode : Variable
Bit rate : 3 373 kb/s
Channel(s) : 6 channels
Channel layout : C L R Ls Rs LFE
Sampling rate : 48.0 kHz
Frame rate : 93.750 FPS (512 SPF)
Bit depth : 24 bits
Compression mode : Lossless
Stream size : 2.52 GiB (8%)
Title : Big.Shots.Funeral.2001.CHINESE.1080p.BluRay.REMUX.AVC.DTS-HD.MA.5.1-FGT
Language : Chinese
Default : Yes
Forced : No

Text #1
ID : 3
Format : PGS
Muxing mode : zlib
Codec ID : S_HDMV/PGS
Codec ID/Info : Picture based subtitle format used on BDs/HD-DVDs
Duration : 1 h 44 min
Bit rate : 42.1 kb/s
Count of elements : 2178
Stream size : 31.3 MiB (0%)
Title : English-PGS
Language : English
Default : Yes
Forced : No

Text #2
ID : 4
Format : PGS
Muxing mode : zlib
Codec ID : S_HDMV/PGS
Codec ID/Info : Picture based subtitle format used on BDs/HD-DVDs
Duration : 1 h 44 min
Bit rate : 35.0 kb/s
Count of elements : 2423
Stream size : 26.1 MiB (0%)
Title : Chinese-PGS
Language : Chinese
Default : No
Forced : No

Menu
00:00:00.000 : en:Chapter 01
00:11:53.250 : en:Chapter 02
00:19:52.041 : en:Chapter 03
00:32:17.916 : en:Chapter 04
00:48:02.666 : en:Chapter 05
00:58:35.208 : en:Chapter 06
01:08:53.125 : en:Chapter 07
01:15:41.416 : en:Chapter 08
01:23:06.416 : en:Chapter 09
01:30:48.250 : en:Chapter 10
01:39:22.791 : en:Chapter 11
01:44:59.291 : en:Chapter 12

本帖子中包含更多资源

您需要 登录 才可以下载或查看,没有帐号?立即注册

x
回复

使用道具 举报

0

主题

1900

帖子

5969

积分

论坛元老

Rank: 8Rank: 8

积分
5969
发表于 2021-6-26 22:02:42 | 显示全部楼层
感谢楼主分享
回复

使用道具 举报

0

主题

619

帖子

3222

积分

论坛元老

Rank: 8Rank: 8

积分
3222
发表于 2021-6-27 19:45:49 | 显示全部楼层
谢谢楼主分享!
回复

使用道具 举报

0

主题

619

帖子

3222

积分

论坛元老

Rank: 8Rank: 8

积分
3222
发表于 2021-6-27 19:48:48 | 显示全部楼层
谢谢楼主分享!
回复

使用道具 举报

0

主题

984

帖子

4495

积分

论坛元老

Rank: 8Rank: 8

积分
4495
发表于 2021-6-28 10:07:25 | 显示全部楼层
谢谢楼主的分享
回复

使用道具 举报

0

主题

196

帖子

911

积分

高级会员

Rank: 4

积分
911
发表于 2021-7-1 09:23:52 | 显示全部楼层
感谢楼主分享
回复

使用道具 举报

0

主题

984

帖子

4495

积分

论坛元老

Rank: 8Rank: 8

积分
4495
发表于 2021-7-1 10:52:41 | 显示全部楼层

谢谢楼主分享
回复

使用道具 举报

0

主题

163

帖子

1704

积分

金牌会员

Rank: 6Rank: 6

积分
1704
发表于 2022-1-17 13:17:00 | 显示全部楼层
感谢楼主分享
回复

使用道具 举报

0

主题

24

帖子

174

积分

VIP月

Rank: 9Rank: 9Rank: 9

积分
174
发表于 2024-7-2 22:48:19 | 显示全部楼层
非常不错,经典
回复

使用道具 举报

您需要登录后才可以回帖 登录 | 立即注册

本版积分规则

QQ|Archiver|手机版|小黑屋|原盘天堂 好多盘 点击这里给我发消息

GMT+8, 2024-7-14 22:52 , Processed in 0.052286 second(s), 24 queries .

Powered by Discuz! X3.4

Copyright © 2001-2021, Tencent Cloud.

快速回复 返回顶部 返回列表