请选择 进入手机版 | 继续访问电脑版
本站Q群713428235【盘盘多】已满,请新会员加原盘天堂新官方QQ群709708625【好多盘】,验证信息填写您在论坛的会员名,不填会员名的无法入群哈,进群后修改您的群名片名字为您在论坛的会员名,请务必修改,否则群成员多了不知道您是哪个会员。

原盘天堂

 找回密码
 立即注册
京东商城当当华为商城名牌时尚折扣网,一个新型的网上购物平台,我们每周为您精选3~4个国际知名品牌,商品折扣低至2折限时限量售卖,商品囊括时装、护肤品、箱包、皮具、配饰、香水等等,琳琅满目。亿格瑞A10硬盘播放器 苏宁易购
查看: 200|回复: 7

4k蓝光原盘bdmv 吉姆·克诺普夫与荒野13 德语原版 jim.button.and.the.wild.13.2020.german.2160p.bluray.hevc.truehd.7.1.atmos[59.35 GB]

[复制链接]

6152

主题

6859

帖子

133万

积分

管理员

Rank: 18Rank: 18Rank: 18Rank: 18Rank: 18

积分
1334984
发表于 2021-6-26 07:36:55 | 显示全部楼层 |阅读模式






◎译  名 吉姆·克诺普夫与荒野13
◎片  名 Jim Knopf und die Wilde 13
◎年  代 2020
◎产  地 德国
◎类  别 喜剧 / 家庭 / 奇幻 / 冒险
◎语  言 德语
◎上映日期 2020-10-01(德国)
◎IMDb评分  6.5/10 from 220 users
◎IMDb链接  https://www.imdb.com/title/tt9839038/
◎豆瓣评分 /10 from 0 users
◎豆瓣链接 https://movie.douban.com/subject/35213696/
◎片  长 110分钟
◎导  演 丹尼斯·甘塞尔 Dennis Gansel
◎编  剧 德克·阿内尔 Dirk Ahner / 米切尔·恩德 Michael Ende
◎主  演 亨宁·鲍姆 Henning Baum
       安妮特·弗埃尔 Annette Frier
       伊登·高夫 Eden Gough
       克里斯托夫·玛丽亚·赫布斯特 Christoph Maria Herbst
       乌韦·奥克森克内希特 Uwe Ochsenknecht
       米兰·佩舍尔 Milan Peschel

◎标  签 德国 | 奇幻 | 动画

◎简  介

  暂无相关剧情介绍

DISC INFO:

Disc Title:     Jim.Button.and.the.Wild.13.2020.GERMAN.COMPLETE.UHD.BLURAY.iNTERNAL-SharpHD
Disc Size:      63,728,061,699 bytes
Protection:     AACS2
Extras:         Ultra HD, BD-Java
BDInfo:         0.7.5.9 (compatible layout created by DVDFab 12.0.3.5)

PLAYLIST REPORT:

Name:                   00001.MPLS  
Length:                 1:49:14.548 (h:m:s.ms)
Size:                   62,441,201,664 bytes
Total Bitrate:          76.21 Mbps

VIDEO:

Codec                   Bitrate             Description     
-----                   -------             -----------     
MPEG-H HEVC Video       59728 kbps          2160p / 23.976 fps / 16:9 / Main 10 @ Level 5.1 @ High / 4:2:0 / 10 bits / 1000nits / HDR10 / BT.2020

AUDIO:

Codec                           Language        Bitrate         Description     
-----                           --------        -------         -----------     
DTS-HD Master Audio             German          4153 kbps       5.1 / 48 kHz / 4153 kbps / 24-bit (DTS Core: 5.1 / 48 kHz / 1509 kbps / 24-bit)
Dolby TrueHD/Atmos Audio        German          5428 kbps       7.1+11 objects / 48 kHz / 4788 kbps / 24-bit (AC3 Core: 5.1-EX / 48 kHz / 640 kbps)
DTS-HD Master Audio             German          2079 kbps       2.0 / 48 kHz / 2079 kbps / 24-bit (DTS Core: 2.0 / 48 kHz / 1509 kbps / 24-bit)

SUBTITLES:

Codec                           Language        Bitrate         Description     
-----                           --------        -------         -----------     
Presentation Graphics           German          40.033 kbps                     
Presentation Graphics           English         31.363 kbps

Video
ID : 1
ID in the original source medium : 4113 (0x1011)
Format : HEVC
Format/Info : High Efficiency Video Coding
Format profile : Main [email protected]@High
HDR format : SMPTE ST 2086, HDR10 compatible
Codec ID : V_MPEGH/ISO/HEVC
Duration : 1 h 49 min
Bit rate : 59.7 Mb/s
Width : 3 840 pixels
Height : 2 160 pixels
Display aspect ratio : 16:9
Frame rate mode : Constant
Frame rate : 23.976 (24000/1001) FPS
Color space : YUV
Chroma subsampling : 4:2:0 (Type 2)
Bit depth : 10 bits
Bits/(Pixel*Frame) : 0.300
Stream size : 45.6 GiB (83%)
Language : English
Default : No
Forced : No
Color range : Limited
Color primaries : BT.2020
Transfer characteristics : PQ
Matrix coefficients : BT.2020 non-constant
Mastering display color primaries : Display P3
Mastering display luminance : min: 0.0050 cd/m2, max: 1000 cd/m2
Maximum Content Light Level : 1000 cd/m2
Maximum Frame-Average Light Level : 258 cd/m2
Original source medium : Blu-ray

Audio #1
ID : 2
ID in the original source medium : 4353 (0x1101)
Format : MLP FBA 16-ch
Format/Info : Meridian Lossless Packing FBA with 16-channel presentation
Commercial name : Dolby TrueHD with Dolby Atmos
Codec ID : A_TRUEHD
Duration : 1 h 49 min
Bit rate mode : Variable
Bit rate : 4 788 kb/s
Maximum bit rate : 7 248 kb/s
Channel(s) : 8 channels
Channel layout : L R C LFE Ls Rs Lb Rb
Sampling rate : 48.0 kHz
Frame rate : 1 200.000 FPS (40 SPF)
Bit depth : 24 bits
Compression mode : Lossless
Stream size : 3.65 GiB (7%)
Title : TrueHD 7.1 Atmos
Language : German
Default : Yes
Forced : No
Original source medium : Blu-ray
Number of dynamic objects : 11
Bed channel count : 1 channel
Bed channel configuration : LFE

Audio #2
ID : 3
Format : DTS XLL
Format/Info : Digital Theater Systems
Commercial name : DTS-HD Master Audio
Codec ID : A_DTS
Duration : 1 h 49 min
Bit rate mode : Variable
Bit rate : 4 216 kb/s
Channel(s) : 8 channels
Channel layout : C L R LFE Lb Rb Lss Rss
Sampling rate : 48.0 kHz
Frame rate : 93.750 FPS (512 SPF)
Bit depth : 24 bits
Compression mode : Lossless
Stream size : 3.22 GiB (6%)
Title : DTS-HD MA 7.1
Language : German
Default : No
Forced : No

Audio #3
ID : 4
Format : AC-3
Format/Info : Audio Coding 3
Commercial name : Dolby Digital
Codec ID : A_AC3
Duration : 1 h 49 min
Bit rate mode : Constant
Bit rate : 640 kb/s
Channel(s) : 6 channels
Channel layout : L R C LFE Ls Rs
Sampling rate : 48.0 kHz
Frame rate : 31.250 FPS (1536 SPF)
Compression mode : Lossy
Stream size : 500 MiB (1%)
Title : DD5.1
Language : German
Service kind : Complete Main
Default : No
Forced : No

Audio #4
ID : 5
ID in the original source medium : 4354 (0x1102)
Format : DTS XLL
Format/Info : Digital Theater Systems
Commercial name : DTS-HD Master Audio
Codec ID : A_DTS
Duration : 1 h 49 min
Bit rate mode : Variable
Bit rate : 2 079 kb/s
Channel(s) : 2 channels
Channel layout : L R
Sampling rate : 48.0 kHz
Frame rate : 93.750 FPS (512 SPF)
Bit depth : 24 bits
Compression mode : Lossless
Stream size : 1.59 GiB (3%)
Title : DTS-HD MA 2.0
Language : German
Default : No
Forced : No
Original source medium : Blu-ray

Text #1
ID : 6
Format : UTF-8
Codec ID : S_TEXT/UTF8
Codec ID/Info : UTF-8 Plain Text
Duration : 1 h 42 min
Bit rate : 47 b/s
Count of elements : 1182
Stream size : 36.0 KiB (0%)
Title : English-SRT
Language : English
Default : Yes
Forced : No

Text #2
ID : 7
ID in the original source medium : 4769 (0x12A1)
Format : PGS
Muxing mode : zlib
Codec ID : S_HDMV/PGS
Codec ID/Info : Picture based subtitle format used on BDs/HD-DVDs
Duration : 1 h 42 min
Bit rate : 33.3 kb/s
Count of elements : 2434
Stream size : 24.5 MiB (0%)
Title : English-PGS
Language : English
Default : No
Forced : No
Original source medium : Blu-ray

Text #3
ID : 8
ID in the original source medium : 4768 (0x12A0)
Format : PGS
Muxing mode : zlib
Codec ID : S_HDMV/PGS
Codec ID/Info : Picture based subtitle format used on BDs/HD-DVDs
Duration : 1 h 43 min
Bit rate : 42.1 kb/s
Count of elements : 2869
Stream size : 31.3 MiB (0%)
Title : German-PGS
Language : German
Default : No
Forced : No
Original source medium : Blu-ray

Menu
00:00:00.000 : Chapter 01
00:10:37.011 : Chapter 02
00:20:02.868 : Chapter 03
00:25:39.871 : Chapter 04
00:32:40.124 : Chapter 05
00:40:44.191 : Chapter 06
00:49:13.700 : Chapter 07
00:57:05.088 : Chapter 08
01:05:53.616 : Chapter 09
01:16:23.912 : Chapter 10
01:30:27.463 : Chapter 11
01:41:42.513 : Chapter 12

本帖子中包含更多资源

您需要 登录 才可以下载或查看,没有帐号?立即注册

x
回复

使用道具 举报

0

主题

1715

帖子

3734

积分

论坛元老

Rank: 8Rank: 8

积分
3734
发表于 2021-6-26 22:07:50 | 显示全部楼层
感谢楼主分享
回复

使用道具 举报

0

主题

1715

帖子

3734

积分

论坛元老

Rank: 8Rank: 8

积分
3734
发表于 2021-6-26 22:45:15 | 显示全部楼层
感谢楼主分享
回复

使用道具 举报

0

主题

60

帖子

240

积分

中级会员

Rank: 3Rank: 3

积分
240
发表于 2021-6-27 03:09:21 | 显示全部楼层
感谢楼主分享
回复

使用道具 举报

0

主题

821

帖子

3960

积分

论坛元老

Rank: 8Rank: 8

积分
3960
发表于 2021-6-28 10:08:34 | 显示全部楼层
谢谢楼主的分享
回复

使用道具 举报

0

主题

821

帖子

3960

积分

论坛元老

Rank: 8Rank: 8

积分
3960
发表于 2021-6-29 10:15:28 | 显示全部楼层
感谢楼主分享,再接再厉!
回复

使用道具 举报

0

主题

16

帖子

50

积分

注册会员

Rank: 2

积分
50
发表于 2021-6-30 19:31:10 | 显示全部楼层
多谢分享,太棒了
回复

使用道具 举报

0

主题

821

帖子

3960

积分

论坛元老

Rank: 8Rank: 8

积分
3960
发表于 2021-7-1 10:43:46 | 显示全部楼层

谢谢楼主分享
回复

使用道具 举报

您需要登录后才可以回帖 登录 | 立即注册

本版积分规则

QQ|Archiver|手机版|小黑屋|原盘天堂 好多盘 点击这里给我发消息

GMT+8, 2021-7-27 19:55 , Processed in 0.064168 second(s), 25 queries .

Powered by Discuz! X3.4

Copyright © 2001-2020, Tencent Cloud.

快速回复 返回顶部 返回列表