请选择 进入手机版 | 继续访问电脑版
本站Q群713428235【盘盘多】已满,请新会员加原盘天堂新官方QQ群709708625【好多盘】,验证信息填写您在论坛的会员名,不填会员名的无法入群哈,进群后修改您的群名片名字为您在论坛的会员名,请务必修改,否则群成员多了不知道您是哪个会员。

原盘天堂

 找回密码
 立即注册
京东商城当当华为商城名牌时尚折扣网,一个新型的网上购物平台,我们每周为您精选3~4个国际知名品牌,商品折扣低至2折限时限量售卖,商品囊括时装、护肤品、箱包、皮具、配饰、香水等等,琳琅满目。亿格瑞A10硬盘播放器 苏宁易购
查看: 158|回复: 3

2d蓝光原盘remux 后遗症 英语原版 legacy.2020.1080p.bluray.remux.mpeg-2.dts-hd.ma.5.1[14.76 GB]

[复制链接]

6152

主题

6859

帖子

133万

积分

管理员

Rank: 18Rank: 18Rank: 18Rank: 18Rank: 18

积分
1335008
发表于 2021-6-25 21:50:31 | 显示全部楼层 |阅读模式






◎译  名 后遗症
◎片  名 Legacy
◎年  代 2020
◎产  地 美国
◎类  别 动作 / 惊悚 / 冒险
◎语  言 英语
◎上映日期 2020-06-08(美国)
◎IMDb评分  3.9/10 from 296 users
◎IMDb链接  https://www.imdb.com/title/tt6439748
◎豆瓣评分 0/10 from 0 users
◎豆瓣链接 https://movie.douban.com/subject/30317620/
◎主  演 路易·曼迪勒 Louis Mandylor


◎标  签 杀手 | 动作 | 美国电影 | 电影 | 警匪 | 美国 | 犯罪 | [歐美]

◎简  介  

  While on a hunting trip in the isolated wilderness, a father and his adopted teenage son are turned into the prey of unknown assailants. They are unexpectedly joined in their fight for survival by a stranger who reveals the disturbing truth about the son's biological father, an international crime lord, and why that crime lord has sent trained assassins to kill the teenager.

      在荒野狩猎时,一位父亲和他被收养的十几岁的儿子成了未知攻击者的猎物。一位陌生人意外地加入了他们的生存斗争,他揭露了儿子的亲生父亲,一位国际犯罪领主的令人不安的真相,以及为什么那个犯罪领主派了经过训练的刺客去杀死这名少年。

Video
ID : 1
ID in the original source medium : 4113 (0x1011)
Format : MPEG Video
Format version : Version 2
Format profile : [email protected]
Format settings : CustomMatrix / BVOP
Format settings, BVOP : Yes
Format settings, Matrix : Custom
Format settings, GOP : M=3, N=15
Codec ID : V_MPEG2
Codec ID/Info : MPEG 1 or 2 Video
Duration : 1 h 38 min
Bit rate mode : Variable
Bit rate : 17.8 Mb/s
Maximum bit rate : 25.0 Mb/s
Width : 1 920 pixels
Height : 1 080 pixels
Display aspect ratio : 16:9
Frame rate mode : Constant
Frame rate : 23.976 (24000/1001) FPS
Color space : YUV
Chroma subsampling : 4:2:0
Bit depth : 8 bits
Scan type : Progressive
Compression mode : Lossy
Bits/(Pixel*Frame) : 0.358
Time code of first frame : 00:00:00:00
Time code source : Group of pictures header
GOP, Open/Closed : Closed
Stream size : 12.2 GiB (83%)
Language : English
Default : No
Forced : No
Original source medium : Blu-ray

Audio
ID : 2
ID in the original source medium : 4353 (0x1101)
Format : DTS XLL
Format/Info : Digital Theater Systems
Commercial name : DTS-HD Master Audio
Codec ID : A_DTS
Duration : 1 h 38 min
Bit rate mode : Variable
Bit rate : 3 679 kb/s
Channel(s) : 6 channels
Channel layout : C L R Ls Rs LFE
Sampling rate : 48.0 kHz
Frame rate : 93.750 FPS (512 SPF)
Bit depth : 24 bits
Compression mode : Lossless
Stream size : 2.52 GiB (17%)
Title : DTS-HD MA 5.1
Language : English
Default : Yes
Forced : No
Original source medium : Blu-ray

Text
ID : 3
Format : UTF-8
Codec ID : S_TEXT/UTF8
Codec ID/Info : UTF-8 Plain Text
Duration : 1 h 35 min
Bit rate : 43 b/s
Count of elements : 1131
Stream size : 30.5 KiB (0%)
Language : English
Default : Yes
Forced : No

Menu
00:00:00.000 : de:Chapter 01
00:12:01.637 : de:Chapter 02
00:22:27.137 : de:Chapter 03
00:34:45.833 : de:Chapter 04
00:49:49.695 : de:Chapter 05
01:02:06.597 : de:Chapter 06
01:14:00.144 : de:Chapter 07
01:26:22.886 : de:Chapter 08
01:35:49.577 : de:Chapter 09

本帖子中包含更多资源

您需要 登录 才可以下载或查看,没有帐号?立即注册

x
回复

使用道具 举报

0

主题

1715

帖子

3734

积分

论坛元老

Rank: 8Rank: 8

积分
3734
发表于 2021-6-26 22:09:18 | 显示全部楼层
感谢楼主分享
回复

使用道具 举报

0

主题

60

帖子

240

积分

中级会员

Rank: 3Rank: 3

积分
240
发表于 2021-6-27 03:10:38 | 显示全部楼层
感谢楼主分享
回复

使用道具 举报

0

主题

63

帖子

499

积分

中级会员

Rank: 3Rank: 3

积分
499
发表于 2021-7-4 21:16:26 | 显示全部楼层
感谢楼主分享!
回复

使用道具 举报

您需要登录后才可以回帖 登录 | 立即注册

本版积分规则

QQ|Archiver|手机版|小黑屋|原盘天堂 好多盘 点击这里给我发消息

GMT+8, 2021-7-27 21:00 , Processed in 0.057589 second(s), 25 queries .

Powered by Discuz! X3.4

Copyright © 2001-2020, Tencent Cloud.

快速回复 返回顶部 返回列表