请选择 进入手机版 | 继续访问电脑版
本站Q群713428235【盘盘多】已满,请新会员加原盘天堂新官方QQ群709708625【好多盘】,验证信息填写您在论坛的会员名,不填会员名的无法入群哈,进群后修改您的群名片名字为您在论坛的会员名,请务必修改,否则群成员多了不知道您是哪个会员。

原盘天堂

 找回密码
 立即注册
京东商城当当华为商城名牌时尚折扣网,一个新型的网上购物平台,我们每周为您精选3~4个国际知名品牌,商品折扣低至2折限时限量售卖,商品囊括时装、护肤品、箱包、皮具、配饰、香水等等,琳琅满目。亿格瑞A10硬盘播放器 苏宁易购
查看: 186|回复: 4

4k蓝光原盘bdmv 科拉深孔 英语原版 the.superdeep.2020.dubbed.2160p.bluray.hevc.dts-hd.ma.5.1[57.6 GB]

[复制链接]

6152

主题

6859

帖子

133万

积分

管理员

Rank: 18Rank: 18Rank: 18Rank: 18Rank: 18

积分
1334984
发表于 2021-6-25 21:02:09 | 显示全部楼层 |阅读模式








◎译  名 科拉深孔 / Kola Superdeep / The Superdeep / 深孔
◎片  名 Кольская сверхглубокая
◎年  代 2020
◎产  地 俄罗斯
◎类  别 恐怖
◎语  言 俄语
◎上映日期 2020-11-04(俄罗斯)
◎IMDb评分  6.2/10 from 87 users
◎IMDb链接  https://www.imdb.com/title/tt11815960
◎豆瓣评分 0/10 from 0 users
◎豆瓣链接 https://movie.douban.com/subject/34971880/
◎片  长 113分钟
◎导  演 Arseny Syuhin
◎编  剧 Arseny Syuhin / 维克多·邦达鲁克 Viktor Bondaryuk / 谢尔盖·托奇林 Сергей Торчилин
◎主  演 米莱纳拉·德罗维奇 Milena Radulovic
       尼基塔·德俞班诺夫 Nikita Dyuvbanov
       Vadim Demchog
       Ilya Ilinykh
       基里尔·柯维巴斯 Kirill Kovbas
       谢尔盖·伊万俞科 Sergey Ivanyuk
       尼克雷·柯维巴斯 Nikolay Kovbas


◎标  签 恐怖 | 俄罗斯 | 科幻 | 恐怖片 | 科幻片 | 克苏鲁 | 2020 | 深海恐惧症

◎简  介  

  故事聚焦在一支研究团队,他们被派到科拉深孔(Kola Superdeep Borehole)去调查源自于深处的奇怪声音,他们却发现超乎他们所有想像的东西。更糟的是,他们可能无意间将躲藏在深处的东西给释放了出来。

DISC INFO:

Disc Title:     The.Superdeep.2020.MULTi.COMPLETE.UHD.BLURAY.iNTERNAL-SharpHD
Disc Size:      61,844,990,559 bytes
Protection:     AACS2
Extras:         Ultra HD, BD-Java
BDInfo:         0.7.5.9 (compatible layout created by DVDFab 12.0.3.4)

PLAYLIST REPORT:

Name:                   00001.MPLS  
Length:                 1:55:15.909 (h:m:s.ms)
Size:                   58,252,818,432 bytes
Total Bitrate:          67.38 Mbps

VIDEO:

Codec                   Bitrate             Description     
-----                   -------             -----------     
MPEG-H HEVC Video       56942 kbps          2160p / 23.976 fps / 16:9 / Main 10 @ Level 5.1 @ High / 4:2:0 / 10 bits / 1000nits / HDR10 / BT.2020

AUDIO:

Codec                           Language        Bitrate         Description     
-----                           --------        -------         -----------     
DTS-HD Master Audio             German          3552 kbps       5.1 / 48 kHz / 3552 kbps / 24-bit (DTS Core: 5.1 / 48 kHz / 1509 kbps / 24-bit)
DTS-HD Master Audio             English         3529 kbps       5.1 / 48 kHz / 3529 kbps / 24-bit (DTS Core: 5.1 / 48 kHz / 1509 kbps / 24-bit)

SUBTITLES:

Codec                           Language        Bitrate         Description     
-----                           --------        -------         -----------     
Presentation Graphics           German          23.642 kbps                     
Presentation Graphics           German          0.998 kbps      

Video
ID : 1
ID in the original source medium : 4113 (0x1011)
Format : HEVC
Format/Info : High Efficiency Video Coding
Format profile : Main [email protected]@High
HDR format : SMPTE ST 2086, HDR10 compatible
Codec ID : V_MPEGH/ISO/HEVC
Duration : 1 h 55 min
Bit rate : 56.9 Mb/s
Width : 3 840 pixels
Height : 2 160 pixels
Display aspect ratio : 16:9
Frame rate mode : Constant
Frame rate : 23.976 (24000/1001) FPS
Color space : YUV
Chroma subsampling : 4:2:0 (Type 2)
Bit depth : 10 bits
Bits/(Pixel*Frame) : 0.286
Stream size : 45.8 GiB (88%)
Language : English
Default : No
Forced : No
Color range : Limited
Color primaries : BT.2020
Transfer characteristics : PQ
Matrix coefficients : BT.2020 non-constant
Mastering display color primaries : Display P3
Mastering display luminance : min: 0.0001 cd/m2, max: 1000 cd/m2
Maximum Content Light Level : 1000 cd/m2
Maximum Frame-Average Light Level : 400 cd/m2
Original source medium : Blu-ray

Audio #1
ID : 2
ID in the original source medium : 4353 (0x1101)
Format : DTS XLL
Format/Info : Digital Theater Systems
Commercial name : DTS-HD Master Audio
Codec ID : A_DTS
Duration : 1 h 55 min
Bit rate mode : Variable
Bit rate : 3 528 kb/s
Channel(s) : 6 channels
Channel layout : C L R Ls Rs LFE
Sampling rate : 48.0 kHz
Frame rate : 93.750 FPS (512 SPF)
Bit depth : 24 bits
Compression mode : Lossless
Stream size : 2.84 GiB (5%)
Title : DTS-HD MA 5.1
Language : English
Default : Yes
Forced : No
Original source medium : Blu-ray

Audio #2
ID : 3
Format : AC-3
Format/Info : Audio Coding 3
Commercial name : Dolby Digital
Codec ID : A_AC3
Duration : 1 h 55 min
Bit rate mode : Constant
Bit rate : 640 kb/s
Channel(s) : 6 channels
Channel layout : L R C LFE Ls Rs
Sampling rate : 48.0 kHz
Frame rate : 31.250 FPS (1536 SPF)
Compression mode : Lossy
Stream size : 528 MiB (1%)
Title : DD 5.1
Language : English
Service kind : Complete Main
Default : No
Forced : No

Audio #3
ID : 4
ID in the original source medium : 4352 (0x1100)
Format : DTS XLL
Format/Info : Digital Theater Systems
Commercial name : DTS-HD Master Audio
Codec ID : A_DTS
Duration : 1 h 55 min
Bit rate mode : Variable
Bit rate : 3 552 kb/s
Channel(s) : 6 channels
Channel layout : C L R Ls Rs LFE
Sampling rate : 48.0 kHz
Frame rate : 93.750 FPS (512 SPF)
Bit depth : 24 bits
Compression mode : Lossless
Stream size : 2.86 GiB (5%)
Title : DTS-HD MA 5.1
Language : German
Default : No
Forced : No
Original source medium : Blu-ray

Text #1
ID : 5
Format : UTF-8
Codec ID : S_TEXT/UTF8
Codec ID/Info : UTF-8 Plain Text
Duration : 1 h 47 min
Bit rate : 28 b/s
Count of elements : 927
Stream size : 22.1 KiB (0%)
Title : SRT
Language : English
Default : Yes
Forced : No

Text #2
ID : 6
ID in the original source medium : 4768 (0x12A0)
Format : PGS
Muxing mode : zlib
Codec ID : S_HDMV/PGS
Codec ID/Info : Picture based subtitle format used on BDs/HD-DVDs
Duration : 1 h 47 min
Bit rate : 25.3 kb/s
Count of elements : 1471
Stream size : 19.5 MiB (0%)
Language : German
Default : No
Forced : No
Original source medium : Blu-ray

Menu
00:00:00.000 : Chapter 01
00:08:59.705 : Chapter 02
00:17:23.709 : Chapter 03
00:26:59.701 : Chapter 04
00:38:01.529 : Chapter 05
00:46:50.516 : Chapter 06
00:57:37.871 : Chapter 07
01:08:56.090 : Chapter 08
01:17:57.547 : Chapter 09
01:27:22.570 : Chapter 10
01:35:34.937 : Chapter 11
01:47:07.129 : Chapter 12
01:55:08.693 : Chapter 13

本帖子中包含更多资源

您需要 登录 才可以下载或查看,没有帐号?立即注册

x
回复

使用道具 举报

0

主题

1715

帖子

3734

积分

论坛元老

Rank: 8Rank: 8

积分
3734
发表于 2021-6-26 22:24:42 | 显示全部楼层
感谢楼主分享
回复

使用道具 举报

0

主题

56

帖子

109

积分

注册会员

Rank: 2

积分
109
QQ
发表于 2021-6-29 17:33:31 | 显示全部楼层
,发帖真辛苦。
回复

使用道具 举报

0

主题

60

帖子

240

积分

中级会员

Rank: 3Rank: 3

积分
240
发表于 2021-7-1 02:29:32 | 显示全部楼层
感谢楼主分享
回复

使用道具 举报

0

主题

60

帖子

240

积分

中级会员

Rank: 3Rank: 3

积分
240
发表于 2021-7-1 02:30:40 | 显示全部楼层
感谢楼主分享
回复

使用道具 举报

您需要登录后才可以回帖 登录 | 立即注册

本版积分规则

QQ|Archiver|手机版|小黑屋|原盘天堂 好多盘 点击这里给我发消息

GMT+8, 2021-7-27 18:43 , Processed in 0.059145 second(s), 26 queries .

Powered by Discuz! X3.4

Copyright © 2001-2020, Tencent Cloud.

快速回复 返回顶部 返回列表