请选择 进入手机版 | 继续访问电脑版
本站Q群713428235【盘盘多】已满,请新会员加原盘天堂新官方QQ群709708625【好多盘】,验证信息填写您在论坛的会员名,不填会员名的无法入群哈,进群后修改您的群名片名字为您在论坛的会员名,请务必修改,否则群成员多了不知道您是哪个会员。

原盘天堂

 找回密码
 立即注册
京东商城当当华为商城名牌时尚折扣网,一个新型的网上购物平台,我们每周为您精选3~4个国际知名品牌,商品折扣低至2折限时限量售卖,商品囊括时装、护肤品、箱包、皮具、配饰、香水等等,琳琅满目。亿格瑞A10硬盘播放器 苏宁易购
查看: 133|回复: 6

4k蓝光原盘bdmv 欢乐糖果屋 英语原版 willy.wonka.and.the.chocolate.factory.1971.2160p.bluray.hevc.dts-hd.ma.5.1[60.1 GB]

[复制链接]

6152

主题

6859

帖子

133万

积分

管理员

Rank: 18Rank: 18Rank: 18Rank: 18Rank: 18

积分
1334992
发表于 2021-6-25 20:38:40 | 显示全部楼层 |阅读模式




中文字幕下载:http://zimuku.org/download/MTEwMzk2fDc0YjgzYTUwYmU3NGJmMWQyMGMwNzIyMnwxNjI0NjI0MTU1fDk3OTBmMDZjfHJlbW90ZQ%3D%3D/svr/dx1



◎译  名 欢乐糖果屋 / 查理和巧克力工厂 / 韦利.旺卡和巧克力厂
◎片  名 Willy Wonka & the Chocolate Factory
◎年  代 1971
◎产  地 美国
◎类  别 歌舞 / 家庭 / 奇幻
◎语  言 英语 / 法语 / 德语
◎上映日期 1971-06-30
◎IMDb评分  7.8/10 from 179883 users
◎IMDb链接  https://www.imdb.com/title/tt0067992
◎豆瓣评分 7.7/10 from 1869 users
◎豆瓣链接 https://movie.douban.com/subject/1293209/
◎片  长 100 分钟
◎导  演 梅尔·斯图尔特 Mel Stuart
◎编  剧 大卫·斯勒茨 David Seltzer / 罗尔德·达尔 Roald Dahl
◎主  演 吉恩·怀尔德 Gene Wilder
       彼得·奥斯图姆 Peter Ostrum


◎标  签 美国 | 奇幻 | 儿童 | 美国电影 | 童話 | 歌舞 | 1971 | 魔幻

◎简  介  

  著名糖果商威利·旺克(吉恩·怀尔德 Gene Wilder 饰)公布了一条让世界震惊的喜讯,他将挑选五名幸运儿参观自己的糖果厂,其中一人将成为终身享用“旺克巧克力”特权的人。出身贫寒的小男孩查理·毕奇(彼得·奥斯图姆 Peter Ostrum 饰)幸运的成为了第五位人选。从小吃不到糖果的查理欣喜若狂,满怀期待的他带上了自己的爷爷乔(杰克·艾伯森 Jack Albertson 饰),开始了这段甜蜜的神奇之旅。而一位邪恶的陌生人正在蛊惑孩子们,谁能为他偷来糖果,就会让谁富有起来。旺克带领孩子们畅游着神奇的糖果厂,然而面对糖果的诱惑,其他四个孩子都接二连三的不见了,最后只剩下查理和他的爷爷乔。本片根据罗尔德·达尔的同名小说改编而成,荣获英国第四频道评选的“最优秀的家庭电影”第八名。

◎获奖情况  

  第44届奥斯卡金像奖(1972)
  最佳歌曲配乐(提名) 沃尔特·沙尔夫 / 莱斯利·布里克斯 / 安东尼·纽雷


DISC INFO:

Disc Title:     Willy.Wonka.And.The.Chocolate.Factory.1971.2160p.BluRay.HEVC.DTS-HD.MA.5.1-ESiR
Disc Size:      64,513,059,094 bytes
Protection:     AACS2
Extras:         Ultra HD, BD-Java
BDInfo:         0.7.5.9 (compatible layout created by DVDFab 12.0.3.4)

PLAYLIST REPORT:

Name:                   00800.MPLS  
Length:                 1:39:37.388 (h:m:s.ms)
Size:                   63,280,300,032 bytes
Total Bitrate:          84.69 Mbps

VIDEO:

Codec                   Bitrate             Description     
-----                   -------             -----------     
MPEG-H HEVC Video       75824 kbps          2160p / 23.976 fps / 16:9 / Main 10 @ Level 5.1 @ High / 4:2:0 / 10 bits / 4000nits / HDR10 / BT.2020

AUDIO:

Codec                           Language        Bitrate         Description     
-----                           --------        -------         -----------     
DTS-HD Master Audio             English         3472 kbps       5.1 / 48 kHz / 3472 kbps / 24-bit (DTS Core: 5.1 / 48 kHz / 1509 kbps / 24-bit)
Dolby Digital Audio             French          192 kbps        1.0 / 48 kHz / 192 kbps
Dolby Digital Audio             Italian         192 kbps        1.0 / 48 kHz / 192 kbps
Dolby Digital Audio             Spanish         192 kbps        1.0 / 48 kHz / 192 kbps
Dolby Digital Audio             Spanish         192 kbps        1.0 / 48 kHz / 192 kbps
Dolby Digital Audio             English         192 kbps        2.0 / 48 kHz / 192 kbps

SUBTITLES:

Codec                           Language        Bitrate         Description     
-----                           --------        -------         -----------     
Presentation Graphics           English         44.701 kbps                     
Presentation Graphics           French          36.335 kbps                     
Presentation Graphics           Italian         43.574 kbps                     
Presentation Graphics           Spanish         41.929 kbps                     
Presentation Graphics           Dutch           36.05 kbps                     
Presentation Graphics           Spanish         41.231 kbps                     
Presentation Graphics           Danish          32.573 kbps                     
Presentation Graphics           Finnish         34.858 kbps                     
Presentation Graphics           Norwegian       31.272 kbps                     
Presentation Graphics           Swedish         38.161 kbps                     
Presentation Graphics           French          0.047 kbps                     
Presentation Graphics           Italian         0.212 kbps                     
Presentation Graphics           Spanish         0.24 kbps                       
Presentation Graphics           Spanish         0.081 kbps   


Video
ID : 1
ID in the original source medium : 4113 (0x1011)
Format : HEVC
Format/Info : High Efficiency Video Coding
Format profile : Main [email protected]@High
HDR format : SMPTE ST 2086, HDR10 compatible
Codec ID : V_MPEGH/ISO/HEVC
Duration : 1 h 39 min
Bit rate : 75.8 Mb/s
Width : 3 840 pixels
Height : 2 160 pixels
Display aspect ratio : 16:9
Frame rate mode : Constant
Frame rate : 23.976 (24000/1001) FPS
Color space : YUV
Chroma subsampling : 4:2:0 (Type 2)
Bit depth : 10 bits
Bits/(Pixel*Frame) : 0.381
Stream size : 52.8 GiB (94%)
Language : English
Default : No
Forced : No
Color range : Limited
Color primaries : BT.2020
Transfer characteristics : PQ
Matrix coefficients : BT.2020 non-constant
Mastering display color primaries : Display P3
Mastering display luminance : min: 0.0050 cd/m2, max: 4000 cd/m2
Maximum Content Light Level : 3112 cd/m2
Maximum Frame-Average Light Level : 252 cd/m2
Original source medium : Blu-ray

Audio #1
ID : 2
ID in the original source medium : 4352 (0x1100)
Format : DTS XLL
Format/Info : Digital Theater Systems
Commercial name : DTS-HD Master Audio
Codec ID : A_DTS
Duration : 1 h 39 min
Bit rate mode : Variable
Bit rate : 3 472 kb/s
Channel(s) : 6 channels
Channel layout : C L R Ls Rs LFE
Sampling rate : 48.0 kHz
Frame rate : 93.750 FPS (512 SPF)
Bit depth : 24 bits
Compression mode : Lossless
Stream size : 2.42 GiB (4%)
Title : DTS-HD MA 5.1
Language : English
Default : Yes
Forced : No
Original source medium : Blu-ray

Audio #2
ID : 3
Format : AC-3
Format/Info : Audio Coding 3
Commercial name : Dolby Digital
Codec ID : A_AC3
Duration : 1 h 39 min
Bit rate mode : Constant
Bit rate : 640 kb/s
Channel(s) : 6 channels
Channel layout : L R C LFE Ls Rs
Sampling rate : 48.0 kHz
Frame rate : 31.250 FPS (1536 SPF)
Compression mode : Lossy
Stream size : 456 MiB (1%)
Title : DD 5.1
Language : English
Service kind : Complete Main
Default : No
Forced : No

Audio #3
ID : 4
ID in the original source medium : 4353 (0x1101)
Format : AC-3
Format/Info : Audio Coding 3
Commercial name : Dolby Digital
Codec ID : A_AC3
Duration : 1 h 39 min
Bit rate mode : Constant
Bit rate : 192 kb/s
Channel(s) : 1 channel
Channel layout : C
Sampling rate : 48.0 kHz
Frame rate : 31.250 FPS (1536 SPF)
Compression mode : Lossy
Stream size : 137 MiB (0%)
Title : DD 1.0
Language : French
Service kind : Complete Main
Default : No
Forced : No
Original source medium : Blu-ray

Audio #4
ID : 5
ID in the original source medium : 4354 (0x1102)
Format : AC-3
Format/Info : Audio Coding 3
Commercial name : Dolby Digital
Codec ID : A_AC3
Duration : 1 h 39 min
Bit rate mode : Constant
Bit rate : 192 kb/s
Channel(s) : 1 channel
Channel layout : C
Sampling rate : 48.0 kHz
Frame rate : 31.250 FPS (1536 SPF)
Compression mode : Lossy
Stream size : 137 MiB (0%)
Title : DD 1.0
Language : Italian
Service kind : Complete Main
Default : No
Forced : No
Original source medium : Blu-ray

Audio #5
ID : 6
ID in the original source medium : 4355 (0x1103)
Format : AC-3
Format/Info : Audio Coding 3
Commercial name : Dolby Digital
Codec ID : A_AC3
Duration : 1 h 39 min
Bit rate mode : Constant
Bit rate : 192 kb/s
Channel(s) : 1 channel
Channel layout : C
Sampling rate : 48.0 kHz
Frame rate : 31.250 FPS (1536 SPF)
Compression mode : Lossy
Stream size : 137 MiB (0%)
Title : DD 1.0
Language : Spanish
Service kind : Complete Main
Default : No
Forced : No
Original source medium : Blu-ray

Audio #6
ID : 7
ID in the original source medium : 4356 (0x1104)
Format : AC-3
Format/Info : Audio Coding 3
Commercial name : Dolby Digital
Codec ID : A_AC3
Duration : 1 h 39 min
Bit rate mode : Constant
Bit rate : 192 kb/s
Channel(s) : 1 channel
Channel layout : C
Sampling rate : 48.0 kHz
Frame rate : 31.250 FPS (1536 SPF)
Compression mode : Lossy
Stream size : 137 MiB (0%)
Title : DD 1.0
Language : Spanish
Service kind : Complete Main
Default : No
Forced : No
Original source medium : Blu-ray

Audio #7
ID : 8
ID in the original source medium : 4357 (0x1105)
Format : AC-3
Format/Info : Audio Coding 3
Commercial name : Dolby Digital
Codec ID : A_AC3
Duration : 1 h 39 min
Bit rate mode : Constant
Bit rate : 192 kb/s
Channel(s) : 2 channels
Channel layout : L R
Sampling rate : 48.0 kHz
Frame rate : 31.250 FPS (1536 SPF)
Compression mode : Lossy
Stream size : 137 MiB (0%)
Title : DD 2.0
Language : English
Service kind : Complete Main
Default : No
Forced : No
Original source medium : Blu-ray

Text #1
ID : 9
Format : UTF-8
Codec ID : S_TEXT/UTF8
Codec ID/Info : UTF-8 Plain Text
Duration : 1 h 36 min
Bit rate : 73 b/s
Count of elements : 1562
Stream size : 52.3 KiB (0%)
Title : SRT
Language : English
Default : Yes
Forced : No

Text #2
ID : 10
ID in the original source medium : 4768 (0x12A0)
Format : PGS
Muxing mode : zlib
Codec ID : S_HDMV/PGS
Codec ID/Info : Picture based subtitle format used on BDs/HD-DVDs
Duration : 1 h 37 min
Bit rate : 45.8 kb/s
Count of elements : 3268
Stream size : 31.9 MiB (0%)
Language : English
Default : No
Forced : No
Original source medium : Blu-ray

Text #3
ID : 11
ID in the original source medium : 4769 (0x12A1)
Format : PGS
Muxing mode : zlib
Codec ID : S_HDMV/PGS
Codec ID/Info : Picture based subtitle format used on BDs/HD-DVDs
Duration : 1 h 38 min
Bit rate : 36.8 kb/s
Count of elements : 3103
Stream size : 25.9 MiB (0%)
Language : French
Default : No
Forced : No
Original source medium : Blu-ray

Text #4
ID : 12
ID in the original source medium : 4770 (0x12A2)
Format : PGS
Muxing mode : zlib
Codec ID : S_HDMV/PGS
Codec ID/Info : Picture based subtitle format used on BDs/HD-DVDs
Duration : 1 h 38 min
Bit rate : 44.1 kb/s
Count of elements : 3312
Stream size : 31.0 MiB (0%)
Language : Italian
Default : No
Forced : No
Original source medium : Blu-ray

Text #5
ID : 13
ID in the original source medium : 4771 (0x12A3)
Format : PGS
Muxing mode : zlib
Codec ID : S_HDMV/PGS
Codec ID/Info : Picture based subtitle format used on BDs/HD-DVDs
Duration : 1 h 38 min
Bit rate : 42.5 kb/s
Count of elements : 3141
Stream size : 29.9 MiB (0%)
Language : Spanish
Default : No
Forced : No
Original source medium : Blu-ray

Text #6
ID : 14
ID in the original source medium : 4772 (0x12A4)
Format : PGS
Muxing mode : zlib
Codec ID : S_HDMV/PGS
Codec ID/Info : Picture based subtitle format used on BDs/HD-DVDs
Duration : 1 h 35 min
Bit rate : 37.5 kb/s
Count of elements : 2324
Stream size : 25.7 MiB (0%)
Language : Dutch
Default : No
Forced : No
Original source medium : Blu-ray

Text #7
ID : 15
ID in the original source medium : 4773 (0x12A5)
Format : PGS
Muxing mode : zlib
Codec ID : S_HDMV/PGS
Codec ID/Info : Picture based subtitle format used on BDs/HD-DVDs
Duration : 1 h 38 min
Bit rate : 41.8 kb/s
Count of elements : 3105
Stream size : 29.4 MiB (0%)
Language : Spanish
Default : No
Forced : No
Original source medium : Blu-ray

Text #8
ID : 16
ID in the original source medium : 4774 (0x12A6)
Format : PGS
Muxing mode : zlib
Codec ID : S_HDMV/PGS
Codec ID/Info : Picture based subtitle format used on BDs/HD-DVDs
Duration : 1 h 38 min
Bit rate : 33.0 kb/s
Count of elements : 2968
Stream size : 23.2 MiB (0%)
Language : Danish
Default : No
Forced : No
Original source medium : Blu-ray

Text #9
ID : 17
ID in the original source medium : 4775 (0x12A7)
Format : PGS
Muxing mode : zlib
Codec ID : S_HDMV/PGS
Codec ID/Info : Picture based subtitle format used on BDs/HD-DVDs
Duration : 1 h 39 min
Bit rate : 35.0 kb/s
Count of elements : 2481
Stream size : 24.8 MiB (0%)
Language : Finnish
Default : No
Forced : No
Original source medium : Blu-ray

Text #10
ID : 18
ID in the original source medium : 4776 (0x12A8)
Format : PGS
Muxing mode : zlib
Codec ID : S_HDMV/PGS
Codec ID/Info : Picture based subtitle format used on BDs/HD-DVDs
Duration : 1 h 39 min
Bit rate : 31.4 kb/s
Count of elements : 2056
Stream size : 22.3 MiB (0%)
Language : Norwegian
Default : No
Forced : No
Original source medium : Blu-ray

Text #11
ID : 19
ID in the original source medium : 4777 (0x12A9)
Format : PGS
Muxing mode : zlib
Codec ID : S_HDMV/PGS
Codec ID/Info : Picture based subtitle format used on BDs/HD-DVDs
Duration : 1 h 38 min
Bit rate : 38.7 kb/s
Count of elements : 3072
Stream size : 27.2 MiB (0%)
Language : Swedish
Default : No
Forced : No
Original source medium : Blu-ray

Menu
00:00:00.000 : Chapter 01
00:02:14.926 : Chapter 02
00:05:15.106 : Chapter 03
00:10:01.058 : Chapter 04
00:11:38.906 : Chapter 05
00:13:03.574 : Chapter 06
00:14:20.192 : Chapter 07
00:15:33.599 : Chapter 08
00:17:41.018 : Chapter 09
00:19:27.958 : Chapter 10
00:20:38.278 : Chapter 11
00:22:22.591 : Chapter 12
00:25:00.415 : Chapter 13
00:25:59.099 : Chapter 14
00:30:00.006 : Chapter 15
00:33:14.909 : Chapter 16
00:35:03.726 : Chapter 17
00:36:33.566 : Chapter 18
00:38:20.756 : Chapter 19
00:41:58.807 : Chapter 20
00:43:44.580 : Chapter 21
00:47:25.384 : Chapter 22
00:51:39.429 : Chapter 23
00:56:07.530 : Chapter 24
00:58:07.108 : Chapter 25
01:00:55.818 : Chapter 26
01:03:07.116 : Chapter 27
01:05:41.771 : Chapter 28
01:07:55.404 : Chapter 29
01:10:19.715 : Chapter 30
01:14:35.095 : Chapter 31
01:15:16.970 : Chapter 32
01:19:00.944 : Chapter 33
01:23:18.159 : Chapter 34
01:24:10.086 : Chapter 35
01:26:38.276 : Chapter 36
01:30:24.127 : Chapter 37
01:31:29.233 : Chapter 38
01:35:34.103 : Chapter 39
01:36:56.393 : Chapter 40

本帖子中包含更多资源

您需要 登录 才可以下载或查看,没有帐号?立即注册

x
回复

使用道具 举报

0

主题

1715

帖子

3734

积分

论坛元老

Rank: 8Rank: 8

积分
3734
发表于 2021-6-26 22:30:22 | 显示全部楼层
感谢楼主分享
回复

使用道具 举报

0

主题

56

帖子

109

积分

注册会员

Rank: 2

积分
109
QQ
发表于 2021-6-29 14:03:22 | 显示全部楼层
感谢楼主分享
回复

使用道具 举报

0

主题

13

帖子

99

积分

注册会员

Rank: 2

积分
99
发表于 2021-6-30 20:52:14 | 显示全部楼层

感谢楼主分享
回复

使用道具 举报

0

主题

60

帖子

240

积分

中级会员

Rank: 3Rank: 3

积分
240
发表于 2021-7-2 01:35:13 | 显示全部楼层
感谢楼主分享
回复

使用道具 举报

0

主题

60

帖子

240

积分

中级会员

Rank: 3Rank: 3

积分
240
发表于 2021-7-3 02:33:28 | 显示全部楼层
这是好片子,谢谢分享
回复

使用道具 举报

0

主题

60

帖子

240

积分

中级会员

Rank: 3Rank: 3

积分
240
发表于 2021-7-6 02:06:14 | 显示全部楼层
感謝樓主的分享
回复

使用道具 举报

您需要登录后才可以回帖 登录 | 立即注册

本版积分规则

QQ|Archiver|手机版|小黑屋|原盘天堂 好多盘 点击这里给我发消息

GMT+8, 2021-7-27 20:10 , Processed in 0.055861 second(s), 25 queries .

Powered by Discuz! X3.4

Copyright © 2001-2020, Tencent Cloud.

快速回复 返回顶部 返回列表