请选择 进入手机版 | 继续访问电脑版
本站Q群713428235【盘盘多】已满,请新会员加原盘天堂新官方QQ群709708625【好多盘】,验证信息填写您在论坛的会员名,不填会员名的无法入群哈,进群后修改您的群名片名字为您在论坛的会员名,请务必修改,否则群成员多了不知道您是哪个会员。

原盘天堂

 找回密码
 立即注册
京东商城当当华为商城名牌时尚折扣网,一个新型的网上购物平台,我们每周为您精选3~4个国际知名品牌,商品折扣低至2折限时限量售卖,商品囊括时装、护肤品、箱包、皮具、配饰、香水等等,琳琅满目。亿格瑞A10硬盘播放器 苏宁易购
查看: 191|回复: 4

2d蓝光原盘remux 海上传奇 国语 i.wish.i.knew.2010.uncut.chinese.1080p.bluray.remux.avc.dts-hd.ma.5.1[33.51 GB]

[复制链接]

6152

主题

6859

帖子

133万

积分

管理员

Rank: 18Rank: 18Rank: 18Rank: 18Rank: 18

积分
1334992
发表于 2021-6-22 09:40:56 | 显示全部楼层 |阅读模式






◎译  名 上海传奇/I Wish I Knew
◎片  名 海上传奇
◎年  代 2010
◎产  地 中国大陆
◎类  别 纪录片/历史
◎语  言 汉语普通话/上海话/闽南语/粤语/英语
◎上映日期 2010-05-16(戛纳电影节)/2010-07-02(中国大陆)
◎IMDb评分  6.9/10 from 631 users
◎IMDb链接  https://www.imdb.com/title/tt1646103/
◎豆瓣评分 7.4/10 from 20814 users
◎豆瓣链接 https://douban.com/subject/3768185/
◎片  长 116分钟(中国大陆)
◎导  演 贾樟柯 Zhangke Jia
◎编  剧 贾樟柯 Zhangke Jia
◎主  演 赵涛 Tao Zhao
       陈丹青 Danqing Chen
       王童 Toon Wang
       侯孝贤 Hsiao-hsien Hou
       韦伟 Wei Wei
       潘迪华 Rebecca Pan
       韩寒 Han Han
       林强 Giong Lim
       费明仪 Ming-yi Fei

◎标  签 贾樟柯 | 纪录片 | 上海 | 2010 | 文艺 | 韩寒 | 中国大陆 | 历史

◎简  介

  
  19世纪中叶,帝国主义轰开了古老中国的大门,一纸《南京条约》签订,上海正式开埠,从此各种各样的传奇与悲喜人生在这片土地上交替上演。将近一百年后,世界局势动荡不安,各方势力汇集于魔都,继续谱写着属于这座城市的传奇。镜头前,陈丹青、杨小佛(杨杏佛之子)、杜美如(杜月笙之女)、张心漪(曾国藩之曾外孙女)、韦然(上官云珠之子)、费明仪(费穆之女)、韦伟、侯孝贤、韩寒等18位与新旧上海有着千丝万缕联系的受访者,讲述了关于城市以及人生的点点滴滴。
  
  上海、香港、台湾,半个多世纪的骨血漂泊,牵扯了多少难以忘怀的记忆。剪不断,理还乱,纷纷扰扰,纠缠绵延……
  

◎获奖情况

  第63届戛纳电影节  (2010)
  一种关注单元一种关注大奖(提名) 贾樟柯
  
  第28届中国电影金鸡奖  (2011)
  最佳纪录片(提名)
  
  第18届北京大学生电影节  (2011)
  艺术探索奖(提名)


Video
ID : 1
ID in the original source medium : 4113 (0x1011)
Format : AVC
Format/Info : Advanced Video Codec
Format profile : [email protected]
Format settings : CABAC / 4 Ref Frames
Format settings, CABAC : Yes
Format settings, Reference frames : 4 frames
Codec ID : V_MPEG4/ISO/AVC
Duration : 1 h 59 min
Bit rate mode : Variable
Bit rate : 34.8 Mb/s
Maximum bit rate : 38.0 Mb/s
Width : 1 920 pixels
Height : 1 080 pixels
Display aspect ratio : 16:9
Frame rate mode : Constant
Frame rate : 23.976 (24000/1001) FPS
Color space : YUV
Chroma subsampling : 4:2:0
Bit depth : 8 bits
Scan type : Progressive
Bits/(Pixel*Frame) : 0.700
Stream size : 29.0 GiB (86%)
Title : I.Wish.I.Knew.2010.UNCUT.CHINESE.1080p.BluRay.REMUX.AVC.DTS-HD.MA.5.1-FGT
Language : English
Default : No
Forced : No
Original source medium : Blu-ray

Audio #1
ID : 2
ID in the original source medium : 4352 (0x1100)
Format : DTS XLL
Format/Info : Digital Theater Systems
Commercial name : DTS-HD Master Audio
Codec ID : A_DTS
Duration : 1 h 59 min
Bit rate mode : Variable
Bit rate : 3 435 kb/s
Channel(s) : 6 channels
Channel layout : C L R Ls Rs LFE
Sampling rate : 48.0 kHz
Frame rate : 93.750 FPS (512 SPF)
Bit depth : 24 bits
Compression mode : Lossless
Stream size : 2.86 GiB (9%)
Title : I.Wish.I.Knew.2010.UNCUT.CHINESE.1080p.BluRay.REMUX.AVC.DTS-HD.MA.5.1-FGT
Language : Chinese
Default : Yes
Forced : No
Original source medium : Blu-ray

Audio #2
ID : 3
ID in the original source medium : 4353 (0x1101)
Format : DTS XLL
Format/Info : Digital Theater Systems
Commercial name : DTS-HD Master Audio
Codec ID : A_DTS
Duration : 1 h 59 min
Bit rate mode : Variable
Bit rate : 1 991 kb/s
Channel(s) : 2 channels
Channel layout : L R
Sampling rate : 48.0 kHz
Frame rate : 93.750 FPS (512 SPF)
Bit depth : 24 bits
Compression mode : Lossless
Stream size : 1.66 GiB (5%)
Title : I.Wish.I.Knew.2010.UNCUT.CHINESE.1080p.BluRay.REMUX.AVC.DTS-HD.MA.5.1-FGT
Language : Chinese
Default : No
Forced : No
Original source medium : Blu-ray

Text #1
ID : 4
Format : UTF-8
Codec ID : S_TEXT/UTF8
Codec ID/Info : UTF-8 Plain Text
Duration : 1 h 51 min
Bit rate : 56 b/s
Count of elements : 1117
Stream size : 46.5 KiB (0%)
Title : English-SRT
Language : English
Default : Yes
Forced : No

Text #2
ID : 5
ID in the original source medium : 4608 (0x1200)
Format : PGS
Muxing mode : zlib
Codec ID : S_HDMV/PGS
Codec ID/Info : Picture based subtitle format used on BDs/HD-DVDs
Duration : 1 h 51 min
Bit rate : 68.0 kb/s
Count of elements : 2234
Stream size : 54.2 MiB (0%)
Title : English-PGS
Language : English
Default : No
Forced : No
Original source medium : Blu-ray

Menu
00:00:00.000 : en:Chapter 01
00:10:59.158 : en:Chapter 02
00:21:36.837 : en:Chapter 03
00:33:13.741 : en:Chapter 04
00:46:56.021 : en:Chapter 05
00:56:41.439 : en:Chapter 06
01:06:02.249 : en:Chapter 07
01:16:37.384 : en:Chapter 08
01:28:39.355 : en:Chapter 09
01:41:39.635 : en:Chapter 10
01:59:06.931 : en:Chapter 11

本帖子中包含更多资源

您需要 登录 才可以下载或查看,没有帐号?立即注册

x
回复

使用道具 举报

0

主题

1240

帖子

5266

积分

论坛元老

Rank: 8Rank: 8

积分
5266
发表于 2021-6-23 15:01:31 | 显示全部楼层
感谢楼主分享高清影片
回复

使用道具 举报

0

主题

486

帖子

3671

积分

论坛元老

Rank: 8Rank: 8

积分
3671
发表于 2021-6-23 15:24:43 | 显示全部楼层

好高兴,终于找到这个资源了!
回复

使用道具 举报

0

主题

482

帖子

2548

积分

金牌会员

Rank: 6Rank: 6

积分
2548
发表于 2021-6-23 19:11:15 | 显示全部楼层
好资源 感谢
回复

使用道具 举报

0

主题

821

帖子

3960

积分

论坛元老

Rank: 8Rank: 8

积分
3960
发表于 2021-6-25 14:14:53 | 显示全部楼层
谢谢楼主分享。
回复

使用道具 举报

您需要登录后才可以回帖 登录 | 立即注册

本版积分规则

QQ|Archiver|手机版|小黑屋|原盘天堂 好多盘 点击这里给我发消息

GMT+8, 2021-7-27 20:07 , Processed in 0.057810 second(s), 24 queries .

Powered by Discuz! X3.4

Copyright © 2001-2020, Tencent Cloud.

快速回复 返回顶部 返回列表