请选择 进入手机版 | 继续访问电脑版
本站Q群713428235【盘盘多】已满,请新会员加原盘天堂新官方QQ群709708625【好多盘】,验证信息填写您在论坛的会员名,不填会员名的无法入群哈,进群后修改您的群名片名字为您在论坛的会员名,请务必修改,否则群成员多了不知道您是哪个会员。

原盘天堂

 找回密码
 立即注册
京东商城当当华为商城名牌时尚折扣网,一个新型的网上购物平台,我们每周为您精选3~4个国际知名品牌,商品折扣低至2折限时限量售卖,商品囊括时装、护肤品、箱包、皮具、配饰、香水等等,琳琅满目。亿格瑞A10硬盘播放器 苏宁易购
查看: 250|回复: 7

4k蓝光原盘bdmv 银翼杀手2049 英语原版 blade.runner.2049.2017.2160p.us.bluray.hevc.truehd.7.1.atmos[83.52 GB]

[复制链接]

6152

主题

6859

帖子

133万

积分

管理员

Rank: 18Rank: 18Rank: 18Rank: 18Rank: 18

积分
1335008
发表于 2021-6-22 08:25:48 | 显示全部楼层 |阅读模式









◎译  名 银翼杀手2049/银翼杀手2/Blade Runner 2
◎片  名 Blade Runner 2049
◎年  代 2017
◎产  地 美国/英国/加拿大/匈牙利/西班牙/墨西哥
◎类  别 剧情/动作/科幻
◎语  言 英语/芬兰语/日语/匈牙利语/俄语/西班牙语
◎上映日期 2017-10-06(美国)/2017-10-27(中国大陆)
◎IMDb链接  https://www.imdb.com/title/tt1856101/
◎豆瓣评分 8.3/10 from 387789 users
◎豆瓣链接 https://douban.com/subject/10512661/
◎片  长 163分钟
◎导  演 丹尼斯·维伦纽瓦 Denis Villeneuve
◎编  剧 汉普顿·范彻 Hampton Fancher / 迈克尔·格林 Michael Green / 菲利普·迪克 Philip K. Dick
◎主  演 瑞恩·高斯林 Ryan Gosling
       哈里森·福特 Harrison Ford
       安娜·德·阿玛斯 Ana de Armas
       西尔维娅·侯克斯 Sylvia Hoeks
       罗宾·怀特 Robin Wright
       杰瑞德·莱托 Jared Leto
       戴夫·巴蒂斯塔 Dave Bautista
       麦肯兹·戴维斯 Mackenzie Davis
       卡拉·朱里 Carla Juri
       爱德华·詹姆斯·奥莫斯 Edward James Olmos
       巴克德·阿巴蒂 Barkhad Abdi
       大卫·达斯马齐连 David Dastmalchian
       西娅姆·阿巴斯 Hiam Abbass
       连尼·詹姆斯 Lennie James
       马克·阿诺德 Mark Arnold
       肖恩·杨 Sean Young
       斯戴芬·莫昌特 Stephen Merchant
       克里斯塔·科索恩 Krista Kosonen
       萨莉·哈姆森 Sallie Harmsen
       伍德·哈里斯 Wood Harris
       托马斯·勒马尔奎斯 Tómas Lemarquis
       大卫·本森 David Benson

◎标  签 科幻 | 赛博朋克 | 反乌托邦 | 美国 | 人性 | 2017 | 剧情 | 动作

◎简  介

  
  故事发生在大断电30年后。复制人K(瑞恩·高斯林 Ryan Gosling 饰)是新一代的银翼杀手,在如今的世界里,人类和复制人之间的界限划分的更加明确,复制人从刚一制造出来就被灌输了服务于人类的思想,绝对不被允许产生人类的感情。
  
  某日,一具女性复制人的遗骨被挖掘了出来 ,令陆军中尉乔什(罗宾·怀特 Robin Wright 饰)感到震惊的是,这名女性复制人生前不仅怀过孕,还将孩子生了下来,这个孩子的存在将会彻底破坏政府苦心经营的规则和秩序。乔什命令K找出这个孩子,并将他杀死。在一间废弃的农场里,K发现了一些线索,然而,这些线索竟然和他被植入的过去的记忆有着千丝万缕的关联。与此同时,复制人尼安德(杰瑞德·莱托 Jared Leto 饰)和他的手下拉芙(西尔维娅·侯克斯 Sylvia Hoeks 饰)也在寻找着这个孩子的下落。
  

◎获奖情况

  第90届奥斯卡金像奖  (2018)
  最佳摄影 罗杰·狄金斯
  最佳视觉效果 格尔德·内泽 / 约翰·尼尔森 / 保罗·兰伯特 / 理查德·R·胡佛
  最佳混音(提名) 罗恩·巴特利特 / 道格·亨普希尔 / 麦克·鲁斯
  最佳音效剪辑(提名) 西奥·格林 / 马克·马基尼
  最佳艺术指导(提名) 亚历山德拉·奎尔佐拉 / 丹尼斯·加斯纳
  
  第71届英国电影学院奖  (2018)
  电影奖最佳导演(提名) 丹尼斯·维伦纽瓦
  电影奖最佳摄影 罗杰·狄金斯
  电影奖最佳剪辑(提名)
  电影奖最佳化妆/发型(提名)
  电影奖最佳艺术指导(提名)
  电影奖最佳特殊视觉效果
  电影奖最佳原创音乐(提名) 汉斯·季默 / 本杰明·沃菲斯齐
  电影奖最佳音效(提名)
  
  第32届美国摄影协会奖  (2018)
  电影长片最佳摄影 罗杰·狄金斯
  
  第68届美国剪辑工会奖  (2018)
  剧情片最佳剪辑(提名) 乔·沃克
  
  第22届美国艺术指导工会奖  (2018)
  电影奖最佳幻想电影艺术指导
  
  第20届美国服装设计工会奖  (2018)
  科幻/奇幻题材电影最佳服装设计(提名) 蕾妮·艾珀尔
  
  第16届美国视觉效果协会奖  (2018)
  最佳特效电影视觉效果(提名)
  最佳真人电影CG动画角色(提名)
  最佳真人电影CG背景
  最佳电影模型
  最佳电影视觉效果合成(提名)
  
  第23届美国评论家选择电影奖  (2018)
  最佳科幻/恐怖片(提名)
  最佳摄影 罗杰·狄金斯
  最佳剪辑(提名)
  最佳配乐(提名)
  最佳美术指导(提名)
  最佳服装设计(提名)
  最佳视觉效果(提名)
  
  第22届金卫星奖  (2018)
  电影部门最佳摄影 罗杰·狄金斯
  电影部门最佳视觉效果
  电影部门最佳音效(提名)
  电影部门最佳美术指导(提名)
  
  第21届好莱坞电影奖  (2017)
  年度制片 安德鲁·科索夫 / 布罗德里克·约翰逊 / 辛西娅·赛克斯
  年度摄影奖 罗杰·狄金斯
  年度艺术指导 丹尼斯·加斯纳
  
  第52届美国国家影评人协会奖  (2018)
  最佳摄影 罗杰·狄金斯
  
  第16届华盛顿影评人协会奖  (2017)
  最佳摄影 罗杰·狄金斯
  最佳配乐 汉斯·季默 / 本杰明·沃菲斯齐
  最佳艺术指导 亚历山德拉·奎尔佐拉 / 丹尼斯·加斯纳
  
  第43届洛杉矶影评人协会奖  (2017)
  最佳艺术指导 丹尼斯·加斯纳
  
  第30届芝加哥影评人协会奖  (2017)
  最佳改编剧本(提名) 迈克尔·格林 / 汉普顿·范彻
  最佳摄影 罗杰·狄金斯
  最佳原创配乐(提名) 汉斯·季默 / 本杰明·沃菲斯齐
  最佳艺术指导
  
  第21届美国在线影评人协会奖  (2017)
  最佳摄影 罗杰·狄金斯
  
  第4届豆瓣电影年度榜单  (2017)
  评分最高的外语电影(提名)
  评分最高的科幻/动作片
  10月最受关注电影(提名)

DISC INFO:

Disc Title:     Blade.Runner.2049.2017.2160p.US.BluRay.HEVC.TrueHD.7.1.Atmos-MMCLX
Disc Size:      89,673,823,396 bytes
Protection:     AACS2
Extras:         Ultra HD, BD-Java
BDInfo:         0.7.5.9 (compatible layout created by DVDFab 12.0.3.4)

PLAYLIST REPORT:

Name:                   00020.MPLS  
Length:                 2:43:47.651 (h:m:s.ms)
Size:                   88,998,991,872 bytes
Total Bitrate:          72.45 Mbps

VIDEO:

Codec                   Bitrate             Description     
-----                   -------             -----------     
MPEG-H HEVC Video       58041 kbps          2160p / 23.976 fps / 16:9 / Main 10 @ Level 5.1 @ High / 4:2:0 / 10 bits / 10000nits / HDR10 / BT.2020

AUDIO:

Codec                           Language        Bitrate         Description     
-----                           --------        -------         -----------     
Dolby TrueHD/Atmos Audio        English         4158 kbps       7.1+11 objects / 48 kHz / 3710 kbps / 24-bit (AC3 Core: 5.1-EX / 48 kHz / 448 kbps)
DTS-HD Master Audio             English         3826 kbps       5.1 / 48 kHz / 3826 kbps / 24-bit (DTS Core: 5.1 / 48 kHz / 1509 kbps / 24-bit)
Dolby Digital Audio             English         640 kbps        5.1 / 48 kHz / 640 kbps
Dolby Digital Audio             French          640 kbps        5.1 / 48 kHz / 640 kbps
Dolby Digital Audio             Spanish         640 kbps        5.1 / 48 kHz / 640 kbps

SUBTITLES:

Codec                           Language        Bitrate         Description     
-----                           --------        -------         -----------     
Presentation Graphics           English         19.359 kbps                     
Presentation Graphics           French          14.961 kbps                     
Presentation Graphics           Spanish         15.497 kbps                     
Presentation Graphics           French          0.988 kbps                     
Presentation Graphics           Spanish         1.413 kbps

Video
ID : 1
ID in the original source medium : 4113 (0x1011)
Format : HEVC
Format/Info : High Efficiency Video Coding
Format profile : Main [email protected]@High
HDR format : SMPTE ST 2086, HDR10 compatible
Codec ID : V_MPEGH/ISO/HEVC
Duration : 2 h 43 min
Bit rate : 58.0 Mb/s
Width : 3 840 pixels
Height : 2 160 pixels
Display aspect ratio : 16:9
Frame rate mode : Constant
Frame rate : 23.976 (24000/1001) FPS
Color space : YUV
Chroma subsampling : 4:2:0 (Type 2)
Bit depth : 10 bits
Bits/(Pixel*Frame) : 0.292
Stream size : 66.4 GiB (85%)
Language : English
Default : No
Forced : No
Color range : Limited
Color primaries : BT.2020
Transfer characteristics : PQ
Matrix coefficients : BT.2020 non-constant
Mastering display color primaries : BT.2020
Mastering display luminance : min: 0.0050 cd/m2, max: 10000 cd/m2
Maximum Content Light Level : 500 cd/m2
Maximum Frame-Average Light Level : 200 cd/m2
Original source medium : Blu-ray

Audio #1
ID : 2
ID in the original source medium : 4352 (0x1100)
Format : MLP FBA 16-ch
Format/Info : Meridian Lossless Packing FBA with 16-channel presentation
Commercial name : Dolby TrueHD with Dolby Atmos
Codec ID : A_TRUEHD
Duration : 2 h 43 min
Bit rate mode : Variable
Bit rate : 3 710 kb/s
Maximum bit rate : 7 251 kb/s
Channel(s) : 8 channels
Channel layout : L R C LFE Ls Rs Lb Rb
Sampling rate : 48.0 kHz
Frame rate : 1 200.000 FPS (40 SPF)
Bit depth : 24 bits
Compression mode : Lossless
Stream size : 4.24 GiB (5%)
Title : TrueHD 7.1 Atmos
Language : English
Default : Yes
Forced : No
Original source medium : Blu-ray
Number of dynamic objects : 11
Bed channel count : 1 channel
Bed channel configuration : LFE

Audio #2
ID : 3
Format : DTS XLL
Format/Info : Digital Theater Systems
Commercial name : DTS-HD Master Audio
Codec ID : A_DTS
Duration : 2 h 43 min
Bit rate mode : Variable
Bit rate : 3 942 kb/s
Channel(s) : 8 channels
Channel layout : C L R LFE Lb Rb Lss Rss
Sampling rate : 48.0 kHz
Frame rate : 93.750 FPS (512 SPF)
Bit depth : 24 bits
Compression mode : Lossless
Stream size : 4.51 GiB (6%)
Title : DTS-HD MA 7.1
Language : English
Default : No
Forced : No

Audio #3
ID : 4
ID in the original source medium : 4352 (0x1100)
Format : AC-3
Format/Info : Audio Coding 3
Commercial name : Dolby Digital
Format settings : Dolby Surround EX
Codec ID : A_AC3
Duration : 2 h 43 min
Bit rate mode : Constant
Bit rate : 448 kb/s
Channel(s) : 6 channels
Channel layout : L R C LFE Ls Rs
Sampling rate : 48.0 kHz
Frame rate : 31.250 FPS (1536 SPF)
Compression mode : Lossy
Stream size : 525 MiB (1%)
Title : DD 5.1
Language : English
Service kind : Complete Main
Default : No
Forced : No
Original source medium : Blu-ray

Audio #4
ID : 5
ID in the original source medium : 4354 (0x1102)
Format : AC-3
Format/Info : Audio Coding 3
Commercial name : Dolby Digital
Codec ID : A_AC3
Duration : 2 h 43 min
Bit rate mode : Constant
Bit rate : 640 kb/s
Channel(s) : 6 channels
Channel layout : L R C LFE Ls Rs
Sampling rate : 48.0 kHz
Frame rate : 31.250 FPS (1536 SPF)
Compression mode : Lossy
Stream size : 750 MiB (1%)
Title : DD 5.1
Language : English
Service kind : Complete Main
Default : No
Forced : No
Original source medium : Blu-ray

Audio #5
ID : 6
ID in the original source medium : 4355 (0x1103)
Format : AC-3
Format/Info : Audio Coding 3
Commercial name : Dolby Digital
Codec ID : A_AC3
Duration : 2 h 43 min
Bit rate mode : Constant
Bit rate : 640 kb/s
Channel(s) : 6 channels
Channel layout : L R C LFE Ls Rs
Sampling rate : 48.0 kHz
Frame rate : 31.250 FPS (1536 SPF)
Compression mode : Lossy
Stream size : 750 MiB (1%)
Title : DD 5.1
Language : French
Service kind : Complete Main
Default : No
Forced : No
Original source medium : Blu-ray

Audio #6
ID : 7
ID in the original source medium : 4356 (0x1104)
Format : AC-3
Format/Info : Audio Coding 3
Commercial name : Dolby Digital
Codec ID : A_AC3
Duration : 2 h 43 min
Bit rate mode : Constant
Bit rate : 640 kb/s
Channel(s) : 6 channels
Channel layout : L R C LFE Ls Rs
Sampling rate : 48.0 kHz
Frame rate : 31.250 FPS (1536 SPF)
Compression mode : Lossy
Stream size : 750 MiB (1%)
Title : DD 5.1
Language : Spanish
Service kind : Complete Main
Default : No
Forced : No
Original source medium : Blu-ray

Text #1
ID : 8
Format : UTF-8
Codec ID : S_TEXT/UTF8
Codec ID/Info : UTF-8 Plain Text
Duration : 2 h 26 min
Bit rate : 26 b/s
Count of elements : 1100
Stream size : 28.0 KiB (0%)
Title : English-SRT
Language : English
Default : Yes
Forced : No

Text #2
ID : 9
ID in the original source medium : 4768 (0x12A0)
Format : PGS
Muxing mode : zlib
Codec ID : S_HDMV/PGS
Codec ID/Info : Picture based subtitle format used on BDs/HD-DVDs
Duration : 2 h 29 min
Bit rate : 21.2 kb/s
Count of elements : 2716
Stream size : 22.7 MiB (0%)
Title : English-PGS
Language : English
Default : No
Forced : No
Original source medium : Blu-ray

Text #3
ID : 10
ID in the original source medium : 4769 (0x12A1)
Format : PGS
Muxing mode : zlib
Codec ID : S_HDMV/PGS
Codec ID/Info : Picture based subtitle format used on BDs/HD-DVDs
Duration : 2 h 42 min
Bit rate : 15.1 kb/s
Count of elements : 2154
Stream size : 17.5 MiB (0%)
Title : French-PGS
Language : French
Default : No
Forced : No
Original source medium : Blu-ray

Text #4
ID : 11
ID in the original source medium : 4770 (0x12A2)
Format : PGS
Muxing mode : zlib
Codec ID : S_HDMV/PGS
Codec ID/Info : Picture based subtitle format used on BDs/HD-DVDs
Duration : 2 h 42 min
Bit rate : 15.6 kb/s
Count of elements : 2094
Stream size : 18.2 MiB (0%)
Title : Spanish-PGS
Language : Spanish
Default : No
Forced : No
Original source medium : Blu-ray

Text #5
ID : 12
ID in the original source medium : 4771 (0x12A3)
Format : PGS
Muxing mode : zlib
Codec ID : S_HDMV/PGS
Codec ID/Info : Picture based subtitle format used on BDs/HD-DVDs
Duration : 2 h 17 min
Bit rate : 1 180 b/s
Count of elements : 100
Stream size : 1.16 MiB (0%)
Title : French-FORCED-PGS
Language : French
Default : No
Forced : No
Original source medium : Blu-ray

Text #6
ID : 13
ID in the original source medium : 4772 (0x12A4)
Format : PGS
Muxing mode : zlib
Codec ID : S_HDMV/PGS
Codec ID/Info : Picture based subtitle format used on BDs/HD-DVDs
Duration : 2 h 42 min
Bit rate : 1 423 b/s
Count of elements : 152
Stream size : 1.66 MiB (0%)
Title : Spanish-FORCED-PGS
Language : Spanish
Default : No
Forced : No
Original source medium : Blu-ray

Menu
00:00:00.000 : Chapter 01
00:12:50.269 : Chapter 02
00:23:43.213 : Chapter 03
00:37:14.982 : Chapter 04
00:43:04.331 : Chapter 05
00:49:38.600 : Chapter 06
00:58:49.651 : Chapter 07
01:04:24.735 : Chapter 08
01:16:01.348 : Chapter 09
01:25:26.579 : Chapter 10
01:36:29.158 : Chapter 11
01:51:08.870 : Chapter 12
02:01:50.886 : Chapter 13
02:08:54.476 : Chapter 14
02:16:56.416 : Chapter 15
02:28:01.122 : Chapter 16

本帖子中包含更多资源

您需要 登录 才可以下载或查看,没有帐号?立即注册

x
回复

使用道具 举报

0

主题

482

帖子

2548

积分

金牌会员

Rank: 6Rank: 6

积分
2548
发表于 2021-6-22 19:20:06 | 显示全部楼层
感谢楼主的辛苦分享
回复

使用道具 举报

0

主题

182

帖子

710

积分

高级会员

Rank: 4

积分
710
发表于 2021-6-23 09:00:17 | 显示全部楼层
感谢楼主分享!
回复

使用道具 举报

0

主题

821

帖子

3960

积分

论坛元老

Rank: 8Rank: 8

积分
3960
发表于 2021-6-24 09:35:38 | 显示全部楼层
感谢楼主分享
回复

使用道具 举报

0

主题

821

帖子

3960

积分

论坛元老

Rank: 8Rank: 8

积分
3960
发表于 2021-6-24 09:36:45 | 显示全部楼层
感谢楼主分享
回复

使用道具 举报

0

主题

1715

帖子

3734

积分

论坛元老

Rank: 8Rank: 8

积分
3734
发表于 2021-6-26 22:41:34 | 显示全部楼层
感谢楼主分享
回复

使用道具 举报

0

主题

60

帖子

240

积分

中级会员

Rank: 3Rank: 3

积分
240
发表于 2021-6-28 00:55:07 | 显示全部楼层
谢谢分享  楼主辛苦了
回复

使用道具 举报

0

主题

79

帖子

118

积分

VIP月

Rank: 9Rank: 9Rank: 9

积分
118
发表于 2021-7-19 12:01:01 | 显示全部楼层
非常感谢分享!
回复

使用道具 举报

您需要登录后才可以回帖 登录 | 立即注册

本版积分规则

QQ|Archiver|手机版|小黑屋|原盘天堂 好多盘 点击这里给我发消息

GMT+8, 2021-7-27 21:14 , Processed in 0.063618 second(s), 24 queries .

Powered by Discuz! X3.4

Copyright © 2001-2020, Tencent Cloud.

快速回复 返回顶部 返回列表