请选择 进入手机版 | 继续访问电脑版
本站Q群713428235【盘盘多】已满,请新会员加原盘天堂新官方QQ群709708625【好多盘】,验证信息填写您在论坛的会员名,不填会员名的无法入群哈,进群后修改您的群名片名字为您在论坛的会员名,请务必修改,否则群成员多了不知道您是哪个会员。

原盘天堂

 找回密码
 立即注册
京东商城当当华为商城名牌时尚折扣网,一个新型的网上购物平台,我们每周为您精选3~4个国际知名品牌,商品折扣低至2折限时限量售卖,商品囊括时装、护肤品、箱包、皮具、配饰、香水等等,琳琅满目。亿格瑞A10硬盘播放器 苏宁易购
查看: 213|回复: 6

4k蓝光原盘bdmv 小人物 英语原版 nobody.2021.2160p.bluray.hevc.truehd.7.1.atmos[61.37 GB]

[复制链接]

6152

主题

6859

帖子

133万

积分

管理员

Rank: 18Rank: 18Rank: 18Rank: 18Rank: 18

积分
1334984
发表于 2021-6-21 08:02:44 | 显示全部楼层 |阅读模式









◎译  名 小人物/杀神NOBODY(港)/无名弑(台)/无名小卒
◎片  名 Nobody
◎年  代 2021
◎产  地 美国/日本
◎类  别 动作/犯罪
◎语  言 西班牙语/俄语/英语
◎上映日期 2021-03-26(美国)
◎IMDb链接  https://www.imdb.com/title/tt7888964/
◎豆瓣评分 7.9/10 from 78536 users
◎豆瓣链接 https://douban.com/subject/34865507/
◎片  长 92分钟
◎导  演 伊利亚·奈舒勒 Ilya Naishuller
◎编  剧 德里克·科尔斯塔 Derek Kolstad
◎主  演 鲍勃·奥登科克 Bob Odenkirk
       阿列克谢·谢列布里亚科夫 Aleksey Serebryakov
       康妮·尼尔森 Connie Nielsen
       克里斯托弗·洛伊德 Christopher Lloyd
       迈克尔·艾恩塞德 Michael Ironside
       科林·萨蒙 Colin Salmon
       罗伯特·菲茨杰拉德·迪格斯 RZA
       比利·麦克莱伦 Billy MacLellan
       阿拉亚·门格沙 Araya Mengesha
       盖奇·芒罗 Gage Munroe
       佩斯利·卡多拉思 Paisley Cadorath
       亚历山大·帕里 Aleksandr Pal
       亨伯利·冈萨雷斯 Humberly González
       爱德森·莫拉莱斯 Edsson Morales
       J·P·马诺克斯 J.P. Manoux
       伊利亚·奈舒勒 Ilya Naishuller
       谢尔盖·希纳罗维 Sergey Shnurov
       斯蒂芬妮·西 Stephanie Sy
       鲁斯兰·鲁辛 Ruslan Rusin
       Bj·韦罗 Bj Verot
       达雅·查库莎 Darya Charusha
       亚当·哈蒂格 Adam Hurtig
       克里斯汀·哈里斯 Kristen Harris
       埃里克·阿塔瓦尔 Erik Athavale
       沙龙·巴杰 Sharon Bajer
       鲍里斯·古利亚林 Boris Gulyarin
       丹尼尔·伯哈特 Daniel Bernhardt
       阿兰·莫西 Alain Moussi
       泰瑞·威瑟斯庞 Tyrell Witherspoon
       吉姆·科比 Jim Kirby

◎标  签 动作 | 暴力 | 美国 | 犯罪 | 黑色幽默 | 黑帮 | 血腥 | 2021

◎简  介

  
  一天晚上,Hutch(鲍勃·奥登科克 Bob Odenkirk 饰)位于郊区的家中遭两名小偷闯入。为了避免暴力冲突,Hutch没有为自己或是家人反击。他的儿子Blake(盖奇·芒罗 Gage Munroe 饰)对他感到很失望,他的老婆Becca(康妮·尼尔森 ConnieNielsen 饰)似乎也因此更加疏远他。这起事件激发了Hutch心中压抑许久的情绪和本能,促使他走上残酷的道路,将揭露他黑暗的秘密和致命的能力。在拳头、枪弹和急速行驶的车阵中,Hutch必须从危险的敌人(阿列克谢·谢列布里亚科夫 AlexeySerebryakov 饰)手中救出自己的家人,并确保别人不会再把他视作无名小卒。
  

DISC INFO:

Disc Title:     Nobody.2021.2160p.BluRay.HEVC.TrueHD.7.1.Atmos-MT
Disc Size:      65,891,031,275 bytes
Protection:     AACS2
Extras:         Ultra HD, BD-Java
BDInfo:         0.7.5.9 (compatible layout created by DVDFab 12.0.3.4)

PLAYLIST REPORT:

Name:                   00800.MPLS  
Length:                 1:31:41.829 (h:m:s.ms)
Size:                   50,800,576,512 bytes
Total Bitrate:          73.87 Mbps

(*) Indicates included stream hidden by this playlist.

VIDEO:

Codec                   Bitrate             Description     
-----                   -------             -----------     
MPEG-H HEVC Video       54620 kbps          2160p / 23.976 fps / 16:9 / Main 10 @ Level 5.1 @ High / 4:2:0 / 10 bits / 1000nits / HDR10 / BT.2020
* MPEG-H HEVC Video     6144 kbps (10.11%)  1080p / 23.976 fps / 16:9 / Main 10 @ Level 5.1 @ High / 4:2:0 / 10 bits / 1000nits / Dolby Vision FEL / BT.2020

AUDIO:

Codec                           Language        Bitrate         Description     
-----                           --------        -------         -----------     
Dolby TrueHD/Atmos Audio        English         3145 kbps       7.1+11 objects / 48 kHz / 2697 kbps / 16-bit (AC3 Core: 5.1 / 48 kHz / 448 kbps)
Dolby Digital Plus Audio        French          768 kbps        7.1 / 48 kHz / 768 kbps (AC3 Core: 5.1 / 48 kHz / 448 kbps ( Core: 5.1 / 48 kHz / 448 kbps))
Dolby Digital Plus Audio        Spanish         768 kbps        7.1 / 48 kHz / 768 kbps (AC3 Core: 5.1 / 48 kHz / 448 kbps ( Core: 5.1 / 48 kHz / 448 kbps))
Dolby Digital Plus Audio        Portuguese      768 kbps        7.1 / 48 kHz / 768 kbps (AC3 Core: 5.1 / 48 kHz / 448 kbps ( Core: 5.1 / 48 kHz / 448 kbps))
Dolby Digital Audio             Czech           640 kbps        5.1 / 48 kHz / 640 kbps
Dolby Digital Plus Audio        Hungarian       768 kbps        7.1 / 48 kHz / 768 kbps (AC3 Core: 5.1 / 48 kHz / 448 kbps ( Core: 5.1 / 48 kHz / 448 kbps))
Dolby Digital Audio             Polish          640 kbps        5.1 / 48 kHz / 640 kbps
Dolby Digital Audio             English         192 kbps        2.0 / 48 kHz / 192 kbps
Dolby Digital Audio             English         192 kbps        2.0 / 48 kHz / 192 kbps

SUBTITLES:

Codec                           Language        Bitrate         Description     
-----                           --------        -------         -----------     
Presentation Graphics           English         28.793 kbps                     
Presentation Graphics           French          17.094 kbps                     
Presentation Graphics           Spanish         19.495 kbps                     
Presentation Graphics           Dutch           17.436 kbps                     
Presentation Graphics           Danish          17.749 kbps                     
Presentation Graphics           Finnish         15.698 kbps                     
Presentation Graphics           Norwegian       15.51 kbps                     
Presentation Graphics           Swedish         16.488 kbps                     
Presentation Graphics           Portuguese      19.731 kbps                     
Presentation Graphics           Portuguese      18.066 kbps                     
Presentation Graphics           Czech           17.426 kbps                     
Presentation Graphics           Hungarian       18.789 kbps                     
Presentation Graphics           Polish          17.653 kbps                     
Presentation Graphics           Greek           20.442 kbps                     
Presentation Graphics           English         69.931 kbps                     
Presentation Graphics           French          58.392 kbps                     
Presentation Graphics           English         77.038 kbps                     
Presentation Graphics           French          69.301 kbps                     
Presentation Graphics           English         0.974 kbps                     
Presentation Graphics           French          1.889 kbps                     
Presentation Graphics           Spanish         1.971 kbps                     
Presentation Graphics           Portuguese      2.635 kbps                     
Presentation Graphics           Czech           2.06 kbps                       
Presentation Graphics           Hungarian       2.266 kbps                     
Presentation Graphics           Polish          1.468 kbps

Video
ID : 1
ID in the original source medium : 4113 (0x1011)
Format : HEVC
Format/Info : High Efficiency Video Coding
Format profile : Main [email protected]@High
HDR format : SMPTE ST 2086, HDR10 compatible
Codec ID : V_MPEGH/ISO/HEVC
Duration : 1 h 31 min
Bit rate : 54.6 Mb/s
Width : 3 840 pixels
Height : 2 160 pixels
Display aspect ratio : 16:9
Frame rate mode : Constant
Frame rate : 23.976 (24000/1001) FPS
Color space : YUV
Chroma subsampling : 4:2:0 (Type 2)
Bit depth : 10 bits
Bits/(Pixel*Frame) : 0.275
Stream size : 35.0 GiB (82%)
Language : English
Default : No
Forced : No
Color range : Limited
Color primaries : BT.2020
Transfer characteristics : PQ
Matrix coefficients : BT.2020 non-constant
Mastering display color primaries : Display P3
Mastering display luminance : min: 0.0001 cd/m2, max: 1000 cd/m2
Maximum Content Light Level : 959 cd/m2
Maximum Frame-Average Light Level : 338 cd/m2
Original source medium : Blu-ray

Audio #1
ID : 2
ID in the original source medium : 4352 (0x1100)
Format : MLP FBA 16-ch
Format/Info : Meridian Lossless Packing FBA with 16-channel presentation
Commercial name : Dolby TrueHD with Dolby Atmos
Codec ID : A_TRUEHD
Duration : 1 h 31 min
Bit rate mode : Variable
Bit rate : 2 697 kb/s
Maximum bit rate : 4 788 kb/s
Channel(s) : 8 channels
Channel layout : L R C LFE Ls Rs Lb Rb
Sampling rate : 48.0 kHz
Frame rate : 1 200.000 FPS (40 SPF)
Bit depth : 24 bits
Compression mode : Lossless
Stream size : 1.73 GiB (4%)
Title : TrueHD 7.1 Atmos
Language : English
Default : Yes
Forced : No
Original source medium : Blu-ray
Number of dynamic objects : 11
Bed channel count : 1 channel
Bed channel configuration : LFE

Audio #2
ID : 3
Format : DTS XLL
Format/Info : Digital Theater Systems
Commercial name : DTS-HD Master Audio
Codec ID : A_DTS
Duration : 1 h 31 min
Bit rate mode : Variable
Bit rate : 4 011 kb/s
Channel(s) : 8 channels
Channel layout : C L R LFE Lb Rb Lss Rss
Sampling rate : 48.0 kHz
Frame rate : 93.750 FPS (512 SPF)
Bit depth : 24 bits
Compression mode : Lossless
Stream size : 2.57 GiB (6%)
Title : DTS-HD MA 7.1
Language : English
Default : No
Forced : No

Audio #3
ID : 4
ID in the original source medium : 4352 (0x1100)
Format : AC-3
Format/Info : Audio Coding 3
Commercial name : Dolby Digital
Codec ID : A_AC3
Duration : 1 h 31 min
Bit rate mode : Constant
Bit rate : 448 kb/s
Channel(s) : 6 channels
Channel layout : L R C LFE Ls Rs
Sampling rate : 48.0 kHz
Frame rate : 31.250 FPS (1536 SPF)
Compression mode : Lossy
Stream size : 294 MiB (1%)
Title : DD 5.1
Language : English
Service kind : Complete Main
Default : No
Forced : No
Original source medium : Blu-ray

Audio #4
ID : 5
Format : E-AC-3
Format/Info : Enhanced AC-3
Commercial name : Dolby Digital Plus
Format profile : Blu-ray Disc
Codec ID : A_EAC3
Duration : 1 h 31 min
Bit rate mode : Constant
Bit rate : 768 kb/s
Channel(s) : 8 channels
Channel layout : L R C LFE Ls Rs Lb Rb
Sampling rate : 48.0 kHz
Frame rate : 31.250 FPS (1536 SPF)
Compression mode : Lossy
Stream size : 504 MiB (1%)
Title : DDP 7.1
Language : French
Service kind : Complete Main
Default : No
Forced : No

Audio #5
ID : 6
Format : E-AC-3
Format/Info : Enhanced AC-3
Commercial name : Dolby Digital Plus
Format profile : Blu-ray Disc
Codec ID : A_EAC3
Duration : 1 h 31 min
Bit rate mode : Constant
Bit rate : 768 kb/s
Channel(s) : 8 channels
Channel layout : L R C LFE Ls Rs Lb Rb
Sampling rate : 48.0 kHz
Frame rate : 31.250 FPS (1536 SPF)
Compression mode : Lossy
Stream size : 504 MiB (1%)
Title : DDP 7.1
Language : Spanish
Service kind : Complete Main
Default : No
Forced : No

Audio #6
ID : 7
Format : E-AC-3
Format/Info : Enhanced AC-3
Commercial name : Dolby Digital Plus
Format profile : Blu-ray Disc
Codec ID : A_EAC3
Duration : 1 h 31 min
Bit rate mode : Constant
Bit rate : 768 kb/s
Channel(s) : 8 channels
Channel layout : L R C LFE Ls Rs Lb Rb
Sampling rate : 48.0 kHz
Frame rate : 31.250 FPS (1536 SPF)
Compression mode : Lossy
Stream size : 504 MiB (1%)
Title : DDP 7.1
Language : Portuguese
Service kind : Complete Main
Default : No
Forced : No

Audio #7
ID : 8
ID in the original source medium : 4356 (0x1104)
Format : AC-3
Format/Info : Audio Coding 3
Commercial name : Dolby Digital
Codec ID : A_AC3
Duration : 1 h 31 min
Bit rate mode : Constant
Bit rate : 640 kb/s
Channel(s) : 6 channels
Channel layout : L R C LFE Ls Rs
Sampling rate : 48.0 kHz
Frame rate : 31.250 FPS (1536 SPF)
Compression mode : Lossy
Stream size : 420 MiB (1%)
Title : DD 5.1
Language : Czech
Service kind : Complete Main
Default : No
Forced : No
Original source medium : Blu-ray

Audio #8
ID : 9
Format : E-AC-3
Format/Info : Enhanced AC-3
Commercial name : Dolby Digital Plus
Format profile : Blu-ray Disc
Codec ID : A_EAC3
Duration : 1 h 31 min
Bit rate mode : Constant
Bit rate : 768 kb/s
Channel(s) : 8 channels
Channel layout : L R C LFE Ls Rs Lb Rb
Sampling rate : 48.0 kHz
Frame rate : 31.250 FPS (1536 SPF)
Compression mode : Lossy
Stream size : 504 MiB (1%)
Title : DDP 7.1
Language : Hungarian
Service kind : Complete Main
Default : No
Forced : No

Audio #9
ID : 10
ID in the original source medium : 4358 (0x1106)
Format : AC-3
Format/Info : Audio Coding 3
Commercial name : Dolby Digital
Codec ID : A_AC3
Duration : 1 h 31 min
Bit rate mode : Constant
Bit rate : 640 kb/s
Channel(s) : 6 channels
Channel layout : L R C LFE Ls Rs
Sampling rate : 48.0 kHz
Frame rate : 31.250 FPS (1536 SPF)
Compression mode : Lossy
Stream size : 420 MiB (1%)
Title : DD 5.1
Language : Polish
Service kind : Complete Main
Default : No
Forced : No
Original source medium : Blu-ray

Audio #10
ID : 11
ID in the original source medium : 4359 (0x1107)
Format : AC-3
Format/Info : Audio Coding 3
Commercial name : Dolby Digital
Codec ID : A_AC3
Duration : 1 h 31 min
Bit rate mode : Constant
Bit rate : 192 kb/s
Channel(s) : 2 channels
Channel layout : L R
Sampling rate : 48.0 kHz
Frame rate : 31.250 FPS (1536 SPF)
Compression mode : Lossy
Stream size : 126 MiB (0%)
Title : DD 2.0
Language : English
Service kind : Complete Main
Default : No
Forced : No
Original source medium : Blu-ray

Audio #11
ID : 12
ID in the original source medium : 4360 (0x1108)
Format : AC-3
Format/Info : Audio Coding 3
Commercial name : Dolby Digital
Codec ID : A_AC3
Duration : 1 h 31 min
Bit rate mode : Constant
Bit rate : 192 kb/s
Channel(s) : 2 channels
Channel layout : L R
Sampling rate : 48.0 kHz
Frame rate : 31.250 FPS (1536 SPF)
Compression mode : Lossy
Stream size : 126 MiB (0%)
Title : DD 2.0
Language : English
Service kind : Complete Main
Default : No
Forced : No
Original source medium : Blu-ray

Text #1
ID : 13
Format : UTF-8
Codec ID : S_TEXT/UTF8
Codec ID/Info : UTF-8 Plain Text
Duration : 1 h 28 min
Bit rate : 37 b/s
Count of elements : 952
Stream size : 24.1 KiB (0%)
Title : SRT
Language : English
Default : Yes
Forced : No

Text #2
ID : 14
ID in the original source medium : 4768 (0x12A0)
Format : PGS
Muxing mode : zlib
Codec ID : S_HDMV/PGS
Codec ID/Info : Picture based subtitle format used on BDs/HD-DVDs
Duration : 1 h 28 min
Bit rate : 29.9 kb/s
Count of elements : 2284
Stream size : 18.9 MiB (0%)
Language : English
Default : No
Forced : No
Original source medium : Blu-ray

Text #3
ID : 15
ID in the original source medium : 4769 (0x12A1)
Format : PGS
Muxing mode : zlib
Codec ID : S_HDMV/PGS
Codec ID/Info : Picture based subtitle format used on BDs/HD-DVDs
Duration : 1 h 29 min
Bit rate : 17.4 kb/s
Count of elements : 1516
Stream size : 11.2 MiB (0%)
Language : French
Default : No
Forced : No
Original source medium : Blu-ray

Text #4
ID : 16
ID in the original source medium : 4770 (0x12A2)
Format : PGS
Muxing mode : zlib
Codec ID : S_HDMV/PGS
Codec ID/Info : Picture based subtitle format used on BDs/HD-DVDs
Duration : 1 h 30 min
Bit rate : 19.8 kb/s
Count of elements : 1572
Stream size : 12.8 MiB (0%)
Language : Spanish
Default : No
Forced : No
Original source medium : Blu-ray

Text #5
ID : 17
ID in the original source medium : 4771 (0x12A3)
Format : PGS
Muxing mode : zlib
Codec ID : S_HDMV/PGS
Codec ID/Info : Picture based subtitle format used on BDs/HD-DVDs
Duration : 1 h 29 min
Bit rate : 17.8 kb/s
Count of elements : 1132
Stream size : 11.4 MiB (0%)
Language : Dutch
Default : No
Forced : No
Original source medium : Blu-ray

Text #6
ID : 18
ID in the original source medium : 4772 (0x12A4)
Format : PGS
Muxing mode : zlib
Codec ID : S_HDMV/PGS
Codec ID/Info : Picture based subtitle format used on BDs/HD-DVDs
Duration : 1 h 29 min
Bit rate : 18.1 kb/s
Count of elements : 1234
Stream size : 11.6 MiB (0%)
Language : Danish
Default : No
Forced : No
Original source medium : Blu-ray

Text #7
ID : 19
ID in the original source medium : 4773 (0x12A5)
Format : PGS
Muxing mode : zlib
Codec ID : S_HDMV/PGS
Codec ID/Info : Picture based subtitle format used on BDs/HD-DVDs
Duration : 1 h 29 min
Bit rate : 16.0 kb/s
Count of elements : 1244
Stream size : 10.3 MiB (0%)
Language : Finnish
Default : No
Forced : No
Original source medium : Blu-ray

Text #8
ID : 20
ID in the original source medium : 4774 (0x12A6)
Format : PGS
Muxing mode : zlib
Codec ID : S_HDMV/PGS
Codec ID/Info : Picture based subtitle format used on BDs/HD-DVDs
Duration : 1 h 30 min
Bit rate : 15.8 kb/s
Count of elements : 1418
Stream size : 10.2 MiB (0%)
Language : Norwegian
Default : No
Forced : No
Original source medium : Blu-ray

Text #9
ID : 21
ID in the original source medium : 4775 (0x12A7)
Format : PGS
Muxing mode : zlib
Codec ID : S_HDMV/PGS
Codec ID/Info : Picture based subtitle format used on BDs/HD-DVDs
Duration : 1 h 29 min
Bit rate : 16.8 kb/s
Count of elements : 1092
Stream size : 10.8 MiB (0%)
Language : Swedish
Default : No
Forced : No
Original source medium : Blu-ray

Text #10
ID : 22
ID in the original source medium : 4776 (0x12A8)
Format : PGS
Muxing mode : zlib
Codec ID : S_HDMV/PGS
Codec ID/Info : Picture based subtitle format used on BDs/HD-DVDs
Duration : 1 h 30 min
Bit rate : 20.1 kb/s
Count of elements : 1598
Stream size : 12.9 MiB (0%)
Language : Portuguese
Default : No
Forced : No
Original source medium : Blu-ray

Text #11
ID : 23
ID in the original source medium : 4777 (0x12A9)
Format : PGS
Muxing mode : zlib
Codec ID : S_HDMV/PGS
Codec ID/Info : Picture based subtitle format used on BDs/HD-DVDs
Duration : 1 h 29 min
Bit rate : 18.4 kb/s
Count of elements : 1530
Stream size : 11.8 MiB (0%)
Language : Portuguese
Default : No
Forced : No
Original source medium : Blu-ray

Text #12
ID : 24
ID in the original source medium : 4778 (0x12AA)
Format : PGS
Muxing mode : zlib
Codec ID : S_HDMV/PGS
Codec ID/Info : Picture based subtitle format used on BDs/HD-DVDs
Duration : 1 h 30 min
Bit rate : 17.7 kb/s
Count of elements : 1598
Stream size : 11.4 MiB (0%)
Language : Czech
Default : No
Forced : No
Original source medium : Blu-ray

Text #13
ID : 25
ID in the original source medium : 4779 (0x12AB)
Format : PGS
Muxing mode : zlib
Codec ID : S_HDMV/PGS
Codec ID/Info : Picture based subtitle format used on BDs/HD-DVDs
Duration : 1 h 29 min
Bit rate : 19.2 kb/s
Count of elements : 1544
Stream size : 12.3 MiB (0%)
Language : Hungarian
Default : No
Forced : No
Original source medium : Blu-ray

Text #14
ID : 26
ID in the original source medium : 4780 (0x12AC)
Format : PGS
Muxing mode : zlib
Codec ID : S_HDMV/PGS
Codec ID/Info : Picture based subtitle format used on BDs/HD-DVDs
Duration : 1 h 29 min
Bit rate : 18.0 kb/s
Count of elements : 1528
Stream size : 11.6 MiB (0%)
Language : Polish
Default : No
Forced : No
Original source medium : Blu-ray

Text #15
ID : 27
ID in the original source medium : 4781 (0x12AD)
Format : PGS
Muxing mode : zlib
Codec ID : S_HDMV/PGS
Codec ID/Info : Picture based subtitle format used on BDs/HD-DVDs
Duration : 1 h 29 min
Bit rate : 20.9 kb/s
Count of elements : 1544
Stream size : 13.4 MiB (0%)
Language : Greek
Default : No
Forced : No
Original source medium : Blu-ray

Text #16
ID : 28
ID in the original source medium : 4782 (0x12AE)
Format : PGS
Muxing mode : zlib
Codec ID : S_HDMV/PGS
Codec ID/Info : Picture based subtitle format used on BDs/HD-DVDs
Duration : 1 h 30 min
Bit rate : 70.8 kb/s
Count of elements : 3192
Stream size : 45.9 MiB (0%)
Language : English
Default : No
Forced : No
Original source medium : Blu-ray

Text #17
ID : 29
ID in the original source medium : 4783 (0x12AF)
Format : PGS
Muxing mode : zlib
Codec ID : S_HDMV/PGS
Codec ID/Info : Picture based subtitle format used on BDs/HD-DVDs
Duration : 1 h 31 min
Bit rate : 58.5 kb/s
Count of elements : 3216
Stream size : 38.3 MiB (0%)
Language : French
Default : No
Forced : No
Original source medium : Blu-ray

Text #18
ID : 30
ID in the original source medium : 4784 (0x12B0)
Format : PGS
Muxing mode : zlib
Codec ID : S_HDMV/PGS
Codec ID/Info : Picture based subtitle format used on BDs/HD-DVDs
Duration : 1 h 31 min
Bit rate : 77.3 kb/s
Count of elements : 3288
Stream size : 50.5 MiB (0%)
Language : English
Default : No
Forced : No
Original source medium : Blu-ray

Text #19
ID : 31
ID in the original source medium : 4785 (0x12B1)
Format : PGS
Muxing mode : zlib
Codec ID : S_HDMV/PGS
Codec ID/Info : Picture based subtitle format used on BDs/HD-DVDs
Duration : 1 h 31 min
Bit rate : 69.5 kb/s
Count of elements : 3298
Stream size : 45.5 MiB (0%)
Language : French
Default : No
Forced : No
Original source medium : Blu-ray

Text #20
ID : 32
ID in the original source medium : 4786 (0x12B2)
Format : PGS
Muxing mode : zlib
Codec ID : S_HDMV/PGS
Codec ID/Info : Picture based subtitle format used on BDs/HD-DVDs
Duration : 50 min 23 s
Bit rate : 1 772 b/s
Count of elements : 134
Stream size : 654 KiB (0%)
Title : FORCED
Language : English
Default : No
Forced : No
Original source medium : Blu-ray

Text #21
ID : 33
ID in the original source medium : 4787 (0x12B3)
Format : PGS
Muxing mode : zlib
Codec ID : S_HDMV/PGS
Codec ID/Info : Picture based subtitle format used on BDs/HD-DVDs
Duration : 1 h 29 min
Bit rate : 1 933 b/s
Count of elements : 172
Stream size : 1.24 MiB (0%)
Title : FORCED
Language : French
Default : No
Forced : No
Original source medium : Blu-ray

Text #22
ID : 34
ID in the original source medium : 4788 (0x12B4)
Format : PGS
Muxing mode : zlib
Codec ID : S_HDMV/PGS
Codec ID/Info : Picture based subtitle format used on BDs/HD-DVDs
Duration : 1 h 30 min
Bit rate : 2 005 b/s
Count of elements : 176
Stream size : 1.29 MiB (0%)
Title : FORCED
Language : Spanish
Default : No
Forced : No
Original source medium : Blu-ray

Text #23
ID : 35
ID in the original source medium : 4789 (0x12B5)
Format : PGS
Muxing mode : zlib
Codec ID : S_HDMV/PGS
Codec ID/Info : Picture based subtitle format used on BDs/HD-DVDs
Duration : 1 h 29 min
Bit rate : 2 692 b/s
Count of elements : 206
Stream size : 1.73 MiB (0%)
Title : FORCED
Language : Portuguese
Default : No
Forced : No
Original source medium : Blu-ray

Text #24
ID : 36
ID in the original source medium : 4790 (0x12B6)
Format : PGS
Muxing mode : zlib
Codec ID : S_HDMV/PGS
Codec ID/Info : Picture based subtitle format used on BDs/HD-DVDs
Duration : 1 h 30 min
Bit rate : 2 094 b/s
Count of elements : 204
Stream size : 1.35 MiB (0%)
Title : FORCED
Language : Czech
Default : No
Forced : No
Original source medium : Blu-ray

Text #25
ID : 37
ID in the original source medium : 4791 (0x12B7)
Format : PGS
Muxing mode : zlib
Codec ID : S_HDMV/PGS
Codec ID/Info : Picture based subtitle format used on BDs/HD-DVDs
Duration : 1 h 29 min
Bit rate : 2 319 b/s
Count of elements : 206
Stream size : 1.49 MiB (0%)
Title : FORCED
Language : Hungarian
Default : No
Forced : No
Original source medium : Blu-ray

Text #26
ID : 38
ID in the original source medium : 4792 (0x12B8)
Format : PGS
Muxing mode : zlib
Codec ID : S_HDMV/PGS
Codec ID/Info : Picture based subtitle format used on BDs/HD-DVDs
Duration : 1 h 8 min
Bit rate : 1 963 b/s
Count of elements : 138
Stream size : 986 KiB (0%)
Title : FORCED
Language : Polish
Default : No
Forced : No
Original source medium : Blu-ray

Menu
00:00:00.000 : Chapter 01
00:09:01.541 : Chapter 02
00:15:02.693 : Chapter 03
00:19:18.198 : Chapter 04
00:24:56.286 : Chapter 05
00:35:37.176 : Chapter 06
00:40:01.065 : Chapter 07
00:43:43.203 : Chapter 08
00:47:29.221 : Chapter 09
00:50:56.053 : Chapter 10
00:54:46.783 : Chapter 11
00:57:31.823 : Chapter 12
01:04:16.602 : Chapter 13
01:06:54.677 : Chapter 14
01:08:59.802 : Chapter 15
01:13:20.521 : Chapter 16
01:15:26.355 : Chapter 17
01:21:05.193 : Chapter 18
01:24:06.499 : Chapter 19
01:26:16.963 : Chapter 20

本帖子中包含更多资源

您需要 登录 才可以下载或查看,没有帐号?立即注册

x
回复

使用道具 举报

0

主题

821

帖子

3960

积分

论坛元老

Rank: 8Rank: 8

积分
3960
发表于 2021-6-21 09:36:30 | 显示全部楼层
感谢分享,资源不错
回复

使用道具 举报

0

主题

482

帖子

2548

积分

金牌会员

Rank: 6Rank: 6

积分
2548
发表于 2021-6-21 19:32:52 | 显示全部楼层
辛苦了,感谢分享!
回复

使用道具 举报

0

主题

82

帖子

1344

积分

VIP永久

Rank: 12Rank: 12Rank: 12

积分
1344
发表于 2021-6-22 18:24:55 | 显示全部楼层
谢谢群主分享!反馈个问题,字幕中俄语对白就没有中文字幕,麻烦另外提供一个适配的版本,谢谢
回复

使用道具 举报

0

主题

1715

帖子

3734

积分

论坛元老

Rank: 8Rank: 8

积分
3734
发表于 2021-6-26 22:46:19 | 显示全部楼层
感谢楼主分享
回复

使用道具 举报

0

主题

82

帖子

1344

积分

VIP永久

Rank: 12Rank: 12Rank: 12

积分
1344
发表于 2021-6-28 21:59:30 | 显示全部楼层
上传一个有俄语对白翻译的字幕,本人亲测完全匹配。

本帖子中包含更多资源

您需要 登录 才可以下载或查看,没有帐号?立即注册

x
回复

使用道具 举报

0

主题

56

帖子

109

积分

注册会员

Rank: 2

积分
109
QQ
发表于 2021-6-29 14:55:58 | 显示全部楼层
Emmanuelle
回复

使用道具 举报

您需要登录后才可以回帖 登录 | 立即注册

本版积分规则

QQ|Archiver|手机版|小黑屋|原盘天堂 好多盘 点击这里给我发消息

GMT+8, 2021-7-27 19:48 , Processed in 0.070460 second(s), 26 queries .

Powered by Discuz! X3.4

Copyright © 2001-2020, Tencent Cloud.

快速回复 返回顶部 返回列表